  0
SECTION
  2
HEADER
  9
$ACADVER
  1
AC1009
  9
$INSBASE
 10
0.0
 20
0.0
 30
0.0
  9
$EXTMIN
 10
10.0
 20
27.333075415950329
 30
0.0
  9
$EXTMAX
 10
760.0
 20
1038.6235959288761
 30
1.8
  9
$LIMMIN
 10
0.0
 20
0.0
  9
$LIMMAX
 10
840.0
 20
1188.0
  9
$ORTHOMODE
 70
     1
  9
$REGENMODE
 70
     1
  9
$FILLMODE
 70
     1
  9
$QTEXTMODE
 70
     0
  9
$MIRRTEXT
 70
     0
  9
$DRAGMODE
 70
     2
  9
$LTSCALE
 40
0.5
  9
$OSMODE
 70
    47
  9
$ATTMODE
 70
     1
  9
$TEXTSIZE
 40
5.0
  9
$TRACEWID
 40
10.0
  9
$TEXTSTYLE
  7
STANDARD
  9
$CLAYER
  8
DRG
  9
$CELTYPE
  6
BYLAYER
  9
$CECOLOR
 62
   256
  9
$DIMSCALE
 40
1.669999999999999
  9
$DIMASZ
 40
3.0
  9
$DIMEXO
 40
2.0
  9
$DIMDLI
 40
3.0
  9
$DIMRND
 40
0.0
  9
$DIMDLE
 40
0.0
  9
$DIMEXE
 40
2.0
  9
$DIMTP
 40
0.0
  9
$DIMTM
 40
0.0
  9
$DIMTXT
 40
3.0
  9
$DIMCEN
 40
0.0
  9
$DIMTSZ
 40
0.0
  9
$DIMTOL
 70
     0
  9
$DIMLIM
 70
     0
  9
$DIMTIH
 70
     0
  9
$DIMTOH
 70
     0
  9
$DIMSE1
 70
     0
  9
$DIMSE2
 70
     0
  9
$DIMTAD
 70
     1
  9
$DIMZIN
 70
     0
  9
$DIMBLK
  1

  9
$DIMASO
 70
     1
  9
$DIMSHO
 70
     0
  9
$DIMPOST
  1

  9
$DIMAPOST
  1

  9
$DIMALT
 70
     0
  9
$DIMALTD
 70
     2
  9
$DIMALTF
 40
0.03937
  9
$DIMLFAC
 40
1.0
  9
$DIMTOFL
 70
     0
  9
$DIMTVP
 40
0.0
  9
$DIMTIX
 70
     0
  9
$DIMSOXD
 70
     0
  9
$DIMSAH
 70
     0
  9
$DIMBLK1
  1

  9
$DIMBLK2
  1

  9
$DIMSTYLE
  2
STANDARD
  9
$DIMCLRD
 70
     0
  9
$DIMCLRE
 70
     0
  9
$DIMCLRT
 70
     0
  9
$DIMTFAC
 40
1.0
  9
$DIMGAP
 40
2.0
  9
$LUNITS
 70
     2
  9
$LUPREC
 70
     2
  9
$SKETCHINC
 40
1.0
  9
$FILLETRAD
 40
3.0
  9
$AUNITS
 70
     0
  9
$AUPREC
 70
     2
  9
$MENU
  1
ACAD
  9
$ELEVATION
 40
0.0
  9
$PELEVATION
 40
0.0
  9
$THICKNESS
 40
0.0
  9
$LIMCHECK
 70
     0
  9
$BLIPMODE
 70
     0
  9
$CHAMFERA
 40
0.0
  9
$CHAMFERB
 40
0.0
  9
$SKPOLY
 70
     1
  9
$TDCREATE
 40
2450309.5160910869
  9
$TDUPDATE
 40
2452817.4656606251
  9
$TDINDWG
 40
0.58215
  9
$TDUSRTIMER
 40
0.58215
  9
$USRTIMER
 70
     1
  9
$ANGBASE
 50
0.0
  9
$ANGDIR
 70
     0
  9
$PDMODE
 70
     3
  9
$PDSIZE
 40
0.0
  9
$PLINEWID
 40
0.0
  9
$COORDS
 70
     1
  9
$SPLFRAME
 70
     0
  9
$SPLINETYPE
 70
     6
  9
$SPLINESEGS
 70
     6
  9
$ATTDIA
 70
     0
  9
$ATTREQ
 70
     1
  9
$HANDLING
 70
  4097
  9
$HANDSEED
  5
1799
  9
$SURFTAB1
 70
    18
  9
$SURFTAB2
 70
    18
  9
$SURFTYPE
 70
     6
  9
$SURFU
 70
    18
  9
$SURFV
 70
    18
  9
$UCSNAME
  2

  9
$UCSORG
 10
0.0
 20
0.0
 30
0.0
  9
$UCSXDIR
 10
1.0
 20
0.0
 30
0.0
  9
$UCSYDIR
 10
0.0
 20
1.0
 30
0.0
  9
$PUCSNAME
  2

  9
$PUCSORG
 10
0.0
 20
0.0
 30
0.0
  9
$PUCSXDIR
 10
1.0
 20
0.0
 30
0.0
  9
$PUCSYDIR
 10
0.0
 20
1.0
 30
0.0
  9
$USERI1
 70
     0
  9
$USERI2
 70
     0
  9
$USERI3
 70
     0
  9
$USERI4
 70
     0
  9
$USERI5
 70
     0
  9
$USERR1
 40
0.0
  9
$USERR2
 40
0.0
  9
$USERR3
 40
0.0
  9
$USERR4
 40
0.0
  9
$USERR5
 40
0.0
  9
$WORLDVIEW
 70
     0
  9
$SHADEDGE
 70
     3
  9
$SHADEDIF
 70
    70
  9
$TILEMODE
 70
     1
  9
$MAXACTVP
 70
    16
  9
$PLIMCHECK
 70
     0
  9
$PEXTMIN
 10
1.0000000000000000E+020
 20
1.0000000000000000E+020
 30
1.0000000000000000E+020
  9
$PEXTMAX
 10
-1.0000000000000000E+020
 20
-1.0000000000000000E+020
 30
-1.0000000000000000E+020
  9
$PLIMMIN
 10
0.0
 20
0.0
  9
$PLIMMAX
 10
420.0
 20
297.0
  9
$UNITMODE
 70
     0
  9
$VISRETAIN
 70
     0
  9
$PLINEGEN
 70
     0
  9
$PSLTSCALE
 70
     0
  0
ENDSEC
  0
SECTION
  2
TABLES
  0
TABLE
  2
VPORT
 70
     2
  0
VPORT
  2
*ACTIVE
 70
     0
 10
0.0
 20
0.0
 11
1.0
 21
1.0
 12
79.85201555840456
 22
0.0
 13
0.0
 23
0.0
 14
5.0
 24
5.0
 15
50.0
 25
50.0
 16
0.0
 26
0.0
 36
1.0
 17
488.91167185413713
 27
532.95584375941644
 37
0.0
 40
1019.088900963802
 41
1.7512195121951211
 42
50.0
 43
0.0
 44
0.0
 50
0.0
 51
0.0
 71
     0
 72
  2000
 73
     1
 74
     2
 75
     0
 76
     0
 77
     0
 78
     1
  0
ENDTAB
  0
TABLE
  2
LTYPE
 70
    14
  0
LTYPE
  2
CONTINUOUS
 70
     0
  3
Solid line
 72
    65
 73
     0
 40
0.0
  0
LTYPE
  2
CENTER
 70
     0
  3
____ _ ____ _ ____ _ ____ _ ____ _ ____ _ ____ 
 72
    65
 73
     4
 40
50.0
 49
31.25
 49
-6.25
 49
6.25
 49
-6.25
  0
LTYPE
  2
HIDDEN
 70
     0
  3
_ _ _ _ _ _ _ _ _ _ _ _ _ _ _ _ _ _ _ _ _ _ _ _
 72
    65
 73
     2
 40
9.375
 49
6.25
 49
-3.125
  0
LTYPE
  2
PHANTOM
 70
     0
  3
Phantom ______  __  __  ______  __  __  ______
 72
    65
 73
     6
 40
2.5
 49
1.25
 49
-0.25
 49
0.25
 49
-0.25
 49
0.25
 49
-0.25
  0
LTYPE
  2
PHANTOM2
 70
     0
  3
Phantom (.5x) ___ _ _ ___ _ _ ___ _ _ ___ _ _
 72
    65
 73
     6
 40
1.25
 49
0.625
 49
-0.125
 49
0.125
 49
-0.125
 49
0.125
 49
-0.125
  0
LTYPE
  2
ASULTYPE
 70
     0
  3
Solid line
 72
    65
 73
     2
 40
3.0
 49
2.5
 49
0.5
  0
LTYPE
  2
ASVLTYPE
 70
     0
  3
__ __ __ __ __ __ __ __ __ __ __ __ __ __ __ __ __ __ __ __ __
 72
    65
 73
     2
 40
0.75
 49
0.5
 49
-0.25
  0
LTYPE
  2
AM_ISO02W050
 70
     0
  3
__ __ __ __ __ __ __ __ __ __ __ __ __ __ __
 72
    65
 73
     2
 40
7.5
 49
6.0
 49
-1.5
  0
LTYPE
  2
AM_ISO08W050
 70
     0
  3
____ . ____ . ____ . ____ . ____ . ____ . ____
 72
    65
 73
     4
 40
18.0
 49
12.0
 49
-1.5
 49
3.0
 49
-1.5
  0
LTYPE
  2
AM_ISO09W050
 70
     0
  3
_____ . . _____ . . _____ . . ____ .. ____
 72
    65
 73
     6
 40
22.5
 49
12.0
 49
-1.5
 49
3.0
 49
-1.5
 49
3.0
 49
-1.5
  0
LTYPE
  2
AMCONSTR
 70
     0
  3
_______________________
 72
    65
 73
     2
 40
9999.0
 49
9999.0
 49
0.0
  0
LTYPE
  2
AM_ISO08W050X2
 70
     0
  3
__ . __ . __ . __ . __ . __
 72
    65
 73
     4
 40
9.0
 49
6.0
 49
-0.75
 49
1.5
 49
-0.75
  0
LTYPE
  2
AM_ISO02W050X2
 70
     0
  3
 _ _ _ _ _ _ _ _ _ _ _ _
 72
    65
 73
     2
 40
3.75
 49
3.0
 49
-0.75
  0
LTYPE
  2
AMZIGZAG
 70
     0
  3
/\/-/\/-/\/-/\/-/\/-/\/
 72
    65
 73
     2
 40
11.000099999999991
 49
0.0001
 49
-11.0
  0
ENDTAB
  0
TABLE
  2
LAYER
 70
     9
  0
LAYER
  2
0
 70
     0
 62
     7
  6
CONTINUOUS
  0
LAYER
  2
DRG
 70
     0
 62
     1
  6
CONTINUOUS
  0
LAYER
  2
CRS
 70
     0
 62
     3
  6
CENTER
  0
LAYER
  2
HID
 70
     0
 62
     6
  6
HIDDEN
  0
LAYER
  2
BORT
 70
     0
 62
     7
  6
CONTINUOUS
  0
LAYER
  2
DIM
 70
     0
 62
     2
  6
CONTINUOUS
  0
LAYER
  2
DRG2
 70
     0
 62
     8
  6
CONTINUOUS
  0
LAYER
  2
TXT
 70
     0
 62
     4
  6
CONTINUOUS
  0
LAYER
  2
DEFPOINTS
 70
     0
 62
     7
  6
CONTINUOUS
  0
ENDTAB
  0
TABLE
  2
STYLE
 70
     2
  0
STYLE
  2
STANDARD
 70
     0
 40
0.0
 41
1.0
 50
0.0
 71
     0
 42
5.0
  3
SIMPLEX
  4

  0
STYLE
  2

 70
     1
 40
0.0
 41
1.0
 50
0.0
 71
     0
 42
5.0
  3
ltypeshp.shx
  4

  0
ENDTAB
  0
TABLE
  2
VIEW
 70
     0
  0
ENDTAB
  0
TABLE
  2
UCS
 70
     0
  0
ENDTAB
  0
TABLE
  2
APPID
 70
    12
  0
APPID
  2
ACAD
 70
     0
  0
APPID
  2
GENIUS_GENDIM_13
 70
     0
  0
APPID
  2
GENIUS_GENDTOL_13
 70
     0
  0
APPID
  2
GENIUS_GE3DTOL_13
 70
     0
  0
APPID
  2
MCAD_NO_VIS
 70
     0
  0
APPID
  2
ACAD_TEMP_GRAPHIC
 70
     0
  0
APPID
  2
AD_DRAW
 70
     0
  0
APPID
  2
ACATTRIBSERVICES
 70
     0
  0
APPID
  2
ASURF_PCURVE_APPNAME
 70
     0
  0
APPID
  2
DESIGNERASSEMBLIES
 70
     0
  0
APPID
  2
ACADM_DIM_EDIT
 70
     0
  0
APPID
  2
CONTENTBLOCKICON
 70
     0
  0
ENDTAB
  0
TABLE
  2
DIMSTYLE
 70
     2
  0
DIMSTYLE
  2
STD
 70
     0
  3

  4

  5

  6

  7

 40
1.669999999999999
 41
3.0
 42
2.0
 43
2.0
 44
2.0
 45
0.0
 46
1.25
 47
0.0
 48
0.0
140
3.0
141
0.0
142
0.0
143
0.03937
144
1.0
145
1.5
146
0.75
147
2.0
 71
     0
 72
     0
 73
     0
 74
     0
 75
     0
 76
     0
 77
     1
 78
     0
170
     0
171
     2
172
     0
173
     0
174
     0
175
     0
176
   256
177
   256
178
     7
  0
DIMSTYLE
  2
STANDARD
 70
     0
  3

  4

  5

  6

  7

 40
1.669999999999999
 41
3.0
 42
2.0
 43
3.0
 44
2.0
 45
0.0
 46
0.0
 47
0.0
 48
0.0
140
3.0
141
0.0
142
0.0
143
0.03937
144
1.0
145
0.0
146
1.0
147
2.0
 71
     0
 72
     0
 73
     0
 74
     0
 75
     0
 76
     0
 77
     1
 78
     0
170
     0
171
     2
172
     0
173
     0
174
     0
175
     0
176
     0
177
     0
178
     0
  0
ENDTAB
  0
ENDSEC
  0
SECTION
  2
BLOCKS
  0
BLOCK
  8
0
  2
$MODEL_SPACE
 70
     0
 10
0.0
 20
0.0
 30
0.0
  3
$MODEL_SPACE
  1

  0
ENDBLK
  5
421
  8
0
  0
BLOCK
 67
     1
  8
0
  2
$PAPER_SPACE
 70
     0
 10
0.0
 20
0.0
 30
0.0
  3
$PAPER_SPACE
  1

  0
ENDBLK
  5
41F
 67
     1
  8
0
  0
BLOCK
  8
0
  2
*D0
 70
     1
 10
0.0
 20
0.0
 30
0.0
  3
*D0
  1

  0
LINE
  5
1271
  8
DIM
 62
     0
 10
325.21555515080428
 20
550.95492323970427
 30
0.0
 11
325.21555515080428
 21
552.6729779054798
 31
0.0
  0
LINE
  5
1272
  8
DIM
 62
     0
 10
313.21555515080428
 20
513.25492323970343
 30
0.0
 11
313.21555515080428
 21
552.6729779054798
 31
0.0
  0
LINE
  5
1273
  8
DIM
 62
     0
 10
308.20555515080429
 20
549.33297790547965
 30
0.0
 11
303.1955551508043
 21
549.33297790547965
 31
0.0
  0
LINE
  5
1274
  8
DIM
 62
     0
 10
330.22555515080433
 20
549.33297790547965
 30
0.0
 11
349.32872257102372
 21
549.33297790547965
 31
0.0
  0
SOLID
  5
1275
  8
DIM
 62
     0
 10
308.20555515080429
 20
550.16797790547969
 30
0.0
 11
308.20555515080429
 21
548.49797790547973
 31
0.0
 12
313.21555515080428
 22
549.33297790547965
 32
0.0
 13
313.21555515080428
 23
549.33297790547965
 33
0.0
  0
SOLID
  5
1276
  8
DIM
 62
     0
 10
330.22555515080433
 20
550.16797790547969
 30
0.0
 11
330.22555515080433
 21
548.49797790547973
 31
0.0
 12
325.21555515080428
 22
549.33297790547965
 32
0.0
 13
325.21555515080428
 23
549.33297790547965
 33
0.0
  0
TEXT
  5
1277
  8
DRG
 62
     0
 10
338.8315797138809
 20
552.6729779054798
 30
0.0
 40
5.0099999999999989
  1
12
  0
POINT
  5
1278
  8
DEFPOINTS
 62
     0
 10
325.21555515080428
 20
547.61492323970435
 30
0.0
  0
POINT
  5
1279
  8
DEFPOINTS
 62
     0
 10
313.21555515080428
 20
509.91492323970328
 30
0.0
  0
POINT
  5
127A
  8
DEFPOINTS
 62
     0
 10
313.21555515080428
 20
549.33297790547965
 30
0.0
  0
ENDBLK
  5
E0E
  8
0
  0
BLOCK
  8
0
  2
*D1
 70
     1
 10
0.0
 20
0.0
 30
0.0
  3
*D1
  1

  0
LINE
  5
1299
  8
DIM
 62
     0
 10
313.21555515080428
 20
513.25492323970332
 30
0.0
 11
313.21555515080428
 21
526.79355541943994
 31
0.0
  0
LINE
  5
129A
  8
DIM
 62
     0
 10
321.21475515080448
 20
502.04608817805098
 30
0.0
 11
321.21475515080448
 21
526.79355541943994
 31
0.0
  0
LINE
  5
129B
  8
DIM
 62
     0
 10
308.20555515080429
 20
523.45355541943979
 30
0.0
 11
303.1955551508043
 21
523.45355541943979
 31
0.0
  0
LINE
  5
129C
  8
DIM
 62
     0
 10
326.22475515080453
 20
523.45355541943979
 30
0.0
 11
343.51272581013268
 21
523.45355541943979
 31
0.0
  0
SOLID
  5
129D
  8
DIM
 62
     0
 10
308.20555515080429
 20
524.28855541943994
 30
0.0
 11
308.20555515080429
 21
522.61855541943976
 31
0.0
 12
313.21555515080428
 22
523.45355541943979
 32
0.0
 13
313.21555515080428
 23
523.45355541943979
 33
0.0
  0
SOLID
  5
129E
  8
DIM
 62
     0
 10
326.22475515080453
 20
524.28855541943994
 30
0.0
 11
326.22475515080453
 21
522.61855541943976
 31
0.0
 12
321.21475515080448
 22
523.45355541943979
 32
0.0
 13
321.21475515080448
 23
523.45355541943979
 33
0.0
  0
TEXT
  5
129F
  8
DRG
 62
     0
 10
336.83272581013262
 20
526.79355541943994
 30
0.0
 40
5.0099999999999989
  1
8
  0
POINT
  5
12A0
  8
DEFPOINTS
 62
     0
 10
313.21555515080428
 20
509.91492323970328
 30
0.0
  0
POINT
  5
12A1
  8
DEFPOINTS
 62
     0
 10
321.21475515080448
 20
498.706088178051
 30
0.0
  0
POINT
  5
12A2
  8
DEFPOINTS
 62
     0
 10
321.21475515080448
 20
523.45355541943979
 30
0.0
  0
ENDBLK
  5
E1C
  8
0
  0
BLOCK
  8
0
  2
*D2
 70
     1
 10
0.0
 20
0.0
 30
0.0
  3
*D2
  1

  0
LINE
  5
1204
  8
DIM
 62
     0
 10
325.21555515080428
 20
608.95492323970404
 30
0.0
 11
325.21555515080428
 21
724.377957281862
 31
0.0
  0
LINE
  5
1205
  8
DIM
 62
     0
 10
432.71555515080382
 20
593.45492323970359
 30
0.0
 11
432.71555515080382
 21
724.377957281862
 31
0.0
  0
LINE
  5
1206
  8
DIM
 62
     0
 10
330.22555515080433
 20
721.03795728186185
 30
0.0
 11
427.70555515080389
 21
721.03795728186185
 31
0.0
  0
SOLID
  5
1207
  8
DIM
 62
     0
 10
330.22555515080433
 20
721.87295728186189
 30
0.0
 11
330.22555515080433
 21
720.20295728186193
 31
0.0
 12
325.21555515080428
 22
721.03795728186185
 32
0.0
 13
325.21555515080428
 23
721.03795728186185
 33
0.0
  0
SOLID
  5
1208
  8
DIM
 62
     0
 10
427.70555515080389
 20
721.87295728186189
 30
0.0
 11
427.70555515080389
 21
720.20295728186193
 31
0.0
 12
432.71555515080382
 22
721.03795728186185
 32
0.0
 13
432.71555515080382
 23
721.03795728186185
 33
0.0
  0
TEXT
  5
1209
  8
DRG
 62
     0
 10
373.00126943651833
 20
724.377957281862
 30
0.0
 40
5.0099999999999989
  1
108
  0
POINT
  5
120A
  8
DEFPOINTS
 62
     0
 10
325.21555515080428
 20
605.61492323970413
 30
0.0
  0
POINT
  5
120B
  8
DEFPOINTS
 62
     0
 10
432.71555515080382
 20
590.11492323970356
 30
0.0
  0
POINT
  5
120C
  8
DEFPOINTS
 62
     0
 10
432.71555515080382
 20
721.03795728186185
 30
0.0
  0
ENDBLK
  5
1203
  8
0
  0
BLOCK
  8
0
  2
*U3
 70
     1
 10
0.0
 20
0.0
 30
0.0
  3
*U3
  1

  0
ENDBLK
  5
1361
  8
0
  0
BLOCK
  8
0
  2
LOGO
 70
     0
 10
0.0
 20
0.0
 30
0.0
  3
LOGO
  1

  0
INSERT
  5
138C
  8
DRG
  6
CONTINUOUS
 62
     7
  2
*U6
 10
0.0
 20
0.0
 30
0.0
1001
ACAD
1002
{
1000
R14_HATCH_DATA
1000
138C
1011
1.0
1021
-8.3124059436964058E+180
1031
-4.5071222847674981E+227
1021
0.0
1031
0.0
1011
0.0
1021
-8.3124059436964058E+180
1031
-4.5071222847674981E+227
1021
1.0
1031
0.0
1011
0.0
1021
-8.3124059436964058E+180
1031
-4.5071222847674981E+227
1021
0.0
1031
1.0
1040
0.0
1010
0.0
1020
0.0
1030
1.0
1000
SOLID
1070
     1
1070
     1
1071
       17
1071
        7
1070
     1
1070
     1
1071
        9
1040
18.821661727211438
1040
85.569427875032716
1040
-0.4142135623730951
1040
26.821661727211438
1040
93.569427875032716
1040
0.0
1040
28.191279411133561
1040
93.56942787503273
1040
0.0
1040
28.191279411133561
1040
102.0369718403326
1040
0.2674368359602434
1040
18.821661727211438
1040
97.915857504065912
1040
0.0
1040
18.821661727211438
1040
102.0369718403326
1040
0.0
1040
7.7802673214059723
1040
102.0369718403326
1040
0.0
1040
7.7802673214059723
1040
62.115696081838671
1040
0.0
1040
18.821661727211438
1040
62.115696081838678
1040
0.0
1071
        9
1005
13AF
1005
13B6
1005
13B5
1005
13B4
1005
13B3
1005
13AE
1005
139E
1005
13A0
1005
139C
1071
        7
1070
     1
1070
     1
1071
        8
1040
29.838142899665851
1040
72.897331735467191
1040
0.4142135623730863
1040
41.838142899665847
1040
60.89733173546756
1040
0.0
1040
47.650196927116667
1040
60.89733173546756
1040
0.4142126981028046
1040
59.650196927064421
1040
72.897296325816569
1040
0.0348233422700972
1040
59.650196927064421
1040
90.096337111694368
1040
0.4142126981028142
1040
47.650196927116667
1040
102.0963017020437
1040
0.0
1040
41.838142899665847
1040
102.0963017020437
1040
0.4142135623730893
1040
29.838142899665851
1040
90.096301702044016
1040
0.0348231985322414
1071
        8
1005
1390
1005
13B7
1005
13B2
1005
13B1
1005
139D
1005
13AD
1005
138F
1005
13EE
1071
       22
1070
     1
1070
     1
1071
        4
1040
40.882971825549703
1040
90.337990088334166
1040
-1.0
1040
48.605370470334492
1040
90.337990088334735
1040
-0.0248818291691539
1040
48.605370470334492
1040
72.655643349175492
1040
-1.0
1040
40.882971825549703
1040
72.655643349177595
1040
-0.0248818291691501
1071
        4
1005
1392
1005
13ED
1005
1391
1005
13B0
1071
        7
1070
     1
1070
     1
1071
       18
1040
67.331191210151701
1040
68.89733173546756
1040
0.4142135623730951
1040
75.331191210151701
1040
60.89733173546756
1040
0.0
1040
80.675802928262684
1040
60.89733173546756
1040
0.1450058980834471
1040
84.501142256151084
1040
62.072518178885289
1040
0.0
1040
84.501142256151084
1040
70.214764581409185
1040
-0.0833071563303517
1040
83.501142256151255
1040
69.876055965300111
1040
0.0
1040
80.482556033578916
1040
69.876055965300111
1040
-0.4142135623730951
1040
77.482556033578931
1040
72.876055965300111
1040
0.0
1040
77.482556033578931
1040
94.593352860836134
1040
0.0
1040
84.553623006881026
1040
94.593352860836134
1040
0.0
1040
84.553623006881026
1040
101.9948050433795
1040
0.0
1040
77.482556033578931
1040
101.9948050433795
1040
0.0
1040
77.482556033578931
1040
107.1280725498991
1040
0.0
1040
67.331191210151701
1040
107.1280725498991
1040
0.0
1040
67.331191210151701
1040
101.9948050433795
1040
0.0
1040
62.478989637268562
1040
101.9948050433795
1040
0.0
1040
62.478989637268569
1040
94.593352860836134
1040
0.0
1040
67.331191210151687
1040
94.593352860836134
1040
0.0
1071
       18
1005
13EB
1005
13FF
1005
13EC
1005
13F7
1005
13F5
1005
13F6
1005
13F2
1005
13F4
1005
13F3
1005
13EF
1005
13C1
1005
13D5
1005
13C4
1005
13C2
1005
13FC
1005
13EA
1005
13F1
1005
13F0
1071
        7
1070
     1
1070
     1
1071
        8
1040
85.849782736700035
1040
72.897331735467475
1040
0.4142135623730931
1040
97.849782736700035
1040
60.89733173546756
1040
0.0
1040
103.66183676415081
1040
60.89733173546756
1040
0.4142126981028048
1040
115.6618367640986
1040
72.897296325816569
1040
0.0348233422700971
1040
115.6618367640986
1040
90.096337111694325
1040
0.4142126981028151
1040
103.66183676415081
1040
102.0963017020437
1040
0.0
1040
97.849782736700035
1040
102.0963017020437
1040
0.4142135623730893
1040
85.849782736700035
1040
90.096301702044016
1040
0.0348231985322409
1071
        8
1005
13C0
1005
1400
1005
13FE
1005
13FA
1005
13C3
1005
13E9
1005
13BF
1005
1427
1071
       22
1070
     1
1070
     1
1071
        4
1040
96.894611662583884
1040
90.337990088335033
1040
-1.0
1040
104.6170103073686
1040
90.337990088334763
1040
-0.0248818291691539
1040
104.6170103073686
1040
72.655643349175506
1040
-1.0
1040
96.894611662583884
1040
72.655643349177595
1040
-0.0248818291691514
1071
        4
1005
13FD
1005
13F8
1005
13FB
1005
13F9
1071
        7
1070
     1
1070
     1
1071
        9
1040
119.0096173095521
1040
62.115696081838678
1040
0.0
1040
130.05101171535759
1040
62.115696081838671
1040
0.0
1040
130.05101171535759
1040
85.569427875032716
1040
-0.4142135623730946
1040
138.05101171535759
1040
93.569427875032716
1040
0.0
1040
139.4206293992797
1040
93.56942787503273
1040
0.0
1040
139.4206293992797
1040
102.0369718403325
1040
0.2674368359602435
1040
130.05101171535759
1040
97.915857504065855
1040
0.0
1040
130.05101171535759
1040
102.0369718403326
1040
0.0
1040
119.0096173095521
1040
102.0369718403326
1040
0.0
1071
        9
1005
1426
1005
142C
1005
142B
1005
1428
1005
142A
1005
1429
1005
1402
1005
1411
1005
1401
1071
        7
1070
     0
1070
     1
1071
        4
1040
153.2899770207527
1040
102.0369718403326
1040
142.11987082690661
1040
102.0369718403326
1040
142.11987082690661
1040
62.115696081838678
1040
153.2899770207527
1040
62.115696081838678
1071
        4
1005
1425
1005
1406
1005
140A
1005
1405
1071
        7
1070
     0
1070
     1
1071
        9
1040
161.3332883364622
1040
62.115696081838678
1040
171.78072804963571
1040
62.115696081838678
1040
165.4162645291251
1040
78.311404477182364
1040
176.9709164189357
1040
78.31140447718235
1040
176.9709164189357
1040
86.855763084496857
1040
165.4162645291251
1040
86.855763084496886
1040
171.38205787173379
1040
102.0369718403326
1040
160.9346181585602
1040
102.0369718403326
1040
153.2899770207527
1040
82.583583780839575
1071
        9
1005
1432
1005
1431
1005
1430
1005
142D
1005
1404
1005
1420
1005
1403
1005
142F
1005
142E
1071
        7
1070
     1
1070
     1
1071
       21
1040
152.52515784094209
1040
47.648154099737518
1040
-0.8501159182110916
1040
160.04745823702251
1040
46.421288526219293
1040
0.0
1040
160.04745823702251
1040
45.21828747592599
1040
0.0
1040
171.0912486890569
1040
45.21828747592599
1040
0.4103700463812956
1040
159.0922846938046
1040
57.06060729124669
1040
0.0
1040
153.28023066635379
1040
57.06060729124669
1040
0.3231315706904765
1040
141.8917942032017
1040
48.84260609145101
1040
0.1954153765693974
1040
142.3184035466634
1040
43.115005509834923
1040
0.2113556324406552
1040
155.72873071743231
1040
33.145354604103439
1040
-0.2264685134690167
1040
160.04745823702251
1040
29.300230626583549
1040
0.0
1040
160.04745823702251
1040
27.619948938379359
1040
-1.0
1040
152.32505959223769
1040
27.619948938379359
1040
0.0
1040
152.32505959223769
1040
29.959298931438969
1040
0.0
1040
141.28023066635379
1040
29.95929893143898
1040
0.0
1040
141.28023066635379
1040
27.861637324670479
1040
0.4142135623730951
1040
153.28023066635379
1040
15.861637324670481
1040
0.0
1040
159.0922846938046
1040
15.861637324670481
1040
0.4142135623730951
1040
171.0922846938046
1040
27.861637324670479
1040
0.0
1040
171.0922846938046
1040
29.95929893143904
1040
0.3201720163042325
1040
161.4128172083947
1040
39.98989916707626
1040
-0.1549843570040388
1040
153.4809683549079
1040
44.585756161105429
1040
-0.2969707756967668
1071
       21
1005
1421
1005
1423
1005
141E
1005
141F
1005
1424
1005
1409
1005
1416
1005
1407
1005
141C
1005
1419
1005
141B
1005
141A
1005
1408
1005
140E
1005
13B9
1005
13BD
1005
13BA
1005
141D
1005
1418
1005
1417
1005
1422
1071
        7
1070
     1
1070
     1
1071
        9
1040
116.19314081319391
1040
17.28637227261407
1040
0.0
1040
127.2345352189994
1040
17.28637227261407
1040
0.0
1040
127.2345352189994
1040
40.740104065808097
1040
-0.4142135623730953
1040
135.23453521899941
1040
48.740104065808111
1040
0.0
1040
136.6041529029215
1040
48.740104065808111
1040
0.0
1040
136.6041529029215
1040
57.207648031108022
1040
0.2674368359602446
1040
127.2345352189994
1040
53.086533694841222
1040
0.0
1040
127.2345352189994
1040
57.207648031108022
1040
0.0
1040
116.19314081319391
1040
57.207648031108022
1040
0.0
1071
        9
1005
140F
1005
1413
1005
1412
1005
140C
1005
140D
1005
140B
1005
1410
1005
1415
1005
1414
1071
        7
1070
     1
1070
     1
1071
       18
1040
111.2523129779601
1040
45.06060729124669
1040
0.4142135623730951
1040
99.252312977960173
1040
57.06060729124669
1040
0.0
1040
93.440258950509346
1040
57.06060729124669
1040
0.3935971290544443
1040
81.470405744524527
1040
45.910674481046733
1040
0.0
1040
92.485087876393209
1040
45.910674481046733
1040
0.0
1040
92.485087876393209
1040
47.313129977668268
1040
-1.0
1040
100.2074865211779
1040
47.313129977668268
1040
0.0
1040
100.207486521178
1040
42.948196427274922
1040
0.0
1040
93.358174068518778
1040
42.948196427274922
1040
0.3803366342075343
1040
81.440258950509346
1040
32.349374231810209
1040
0.0
1040
81.440258950509346
1040
27.861637324670479
1040
0.212203934851876
1040
85.398663329684837
1040
18.95474449545469
1040
0.2715779457989354
1040
94.991749269489972
1040
17.839408458597308
1040
0.2212147422997974
1040
102.1211660476033
1040
23.542010892025001
1040
0.0
1040
102.1211660476033
1040
21.102600968374279
1040
0.048558820350044
1040
102.6710305977499
1040
17.89352120355198
1040
0.0
1040
111.8021775281067
1040
17.893521203552009
1040
-0.0850534761391249
1040
111.2523129779601
1040
23.54201089202471
1040
0.0
1071
       18
1005
13BE
1005
13E5
1005
13C7
1005
13E6
1005
13E7
1005
13E4
1005
13E8
1005
13E3
1005
13C5
1005
13DB
1005
13C6
1005
13B8
1005
13D7
1005
13DF
1005
13DE
1005
13DD
1005
13E0
1005
13D6
1071
       22
1070
     1
1070
     1
1071
        6
1040
101.5095597489034
1040
37.384730871555568
1040
0.0
1040
101.5095597489034
1040
29.984856014372749
1040
-0.4101584254678068
1040
95.863486513980718
1040
23.758749615986972
1040
-0.4142135623730822
1040
92.002287191588479
1040
27.619948938379359
1040
0.0
1040
92.002287191588479
1040
33.041326503689838
1040
-0.3592987923427892
1040
97.969021393668683
1040
37.384730871555568
1040
0.0
1071
        6
1005
13E1
1005
13D9
1005
13DC
1005
13DA
1005
13D8
1005
13E2
1071
        7
1070
     1
1070
     1
1071
       14
1040
74.280536421539182
1040
35.629722934820848
1040
0.0
1040
74.280536421539182
1040
45.06060729124669
1040
0.4142135623730951
1040
62.280536421539182
1040
57.06060729124669
1040
0.0
1040
56.468482394088369
1040
57.06060729124669
1040
0.4142135623730892
1040
44.468482394088362
1040
45.060607291246939
1040
0.0348231985322411
1040
44.468482394088362
1040
27.861637324670291
1040
0.4142135623730907
1040
56.468482394088369
1040
15.861637324670481
1040
0.0
1040
62.280536421539182
1040
15.861637324670481
1040
0.4142135623730951
1040
74.280536421539182
1040
27.861637324670479
1040
0.0
1040
74.280536421539196
1040
30.816887788353831
1040
0.0
1040
63.235709964757
1040
30.81688778835381
1040
0.0
1040
63.235709964757007
1040
27.61994893837937
1040
-1.0
1040
55.513311319972217
1040
27.61994893837937
1040
0.0
1040
55.513311319972232
1040
35.629722934820848
1040
0.0
1071
       14
1005
13CF
1005
13D4
1005
138E
1005
13A2
1005
138D
1005
13BC
1005
13BB
1005
13CE
1005
13C9
1005
13CB
1005
13CD
1005
13CC
1005
13CA
1005
13C8
1071
       22
1070
     1
1070
     1
1071
        4
1040
63.235709964756971
1040
41.923431282527652
1040
0.0
1040
55.51331131997221
1040
41.923431282527638
1040
0.0
1040
55.513311319972217
1040
46.690614073903141
1040
-1.0
1040
63.235709964757007
1040
46.690614073903127
1040
0.0
1071
        4
1005
13D0
1005
13D2
1005
13D1
1005
13D3
1071
        7
1070
     1
1070
     1
1071
       15
1040
37.639779947293832
1040
57.06060729124669
1040
0.0
1040
27.267121908897028
1040
57.06060729124669
1040
0.0
1040
27.267121908897021
1040
51.255838552818979
1040
0.3392741364964821
1040
18.58303542025671
1040
58.127888502333931
1040
0.3975671648689696
1040
7.030577403887583
1040
46.170226698962978
1040
0.0322586733839356
1040
7.0565934473582743
1040
30.23514359210488
1040
0.381674351628262
1040
18.58303542025671
1040
18.945146626805109
1040
0.3392741364964824
1040
27.267121908897021
1040
25.817196576320061
1040
0.0
1040
27.267121908897021
1040
13.51984597021351
1040
-1.0
1040
19.544723264112228
1040
13.51984597021351
1040
0.0
1040
19.544723264112239
1040
14.846027306936771
1040
0.0
1040
7.7279273094568479
1040
14.846027306936771
1040
0.435111756420548
1040
18.100585347853119
1040
3.392610111620797
1040
0.0
1040
25.69916102541525
1040
3.392610111620797
1040
0.3589835117613411
1040
37.639779947293839
1040
13.760967175618781
1040
0.0
1071
       15
1005
13A8
1005
13AC
1005
13AB
1005
139F
1005
13A1
1005
1393
1005
13A7
1005
1394
1005
139A
1005
139B
1005
1396
1005
1397
1005
1399
1005
1398
1005
1395
1071
       22
1070
     1
1070
     1
1071
        6
1040
27.387732575171409
1040
32.086434320449378
1040
-0.3635850888704513
1040
22.683854862926161
1040
25.455509253088579
1040
-0.4081657147783189
1040
17.256300807526252
1040
30.5191262631974
1040
0.0
1040
17.256300807526252
1040
46.312783983787632
1040
-0.4081657147783226
1040
22.683854862926282
1040
51.376400993896397
1040
-0.3635850888704468
1040
27.387732575171409
1040
44.745475926535612
1040
0.0
1071
        6
1005
13A6
1005
13A5
1005
13A4
1005
13A9
1005
13AA
1005
13A3
1070
     0
1070
     1
1040
0.2228598800114194
1071
       17
1040
17.63743802729277
1040
76.626905651017751
1040
0.0
1040
33.91754890401171
1040
77.741205688022092
1040
0.0
1040
33.91754890401171
1040
77.741205688022092
1040
0.0
1040
69.153945982282949
1040
79.301225382558854
1040
0.0
1040
91.455465417142008
1040
80.861243290751887
1040
0.0
1040
91.455465417142008
1040
80.861243290751887
1040
0.0
1040
120.67045393727309
1040
80.861243290751887
1040
0.0
1040
151.44655150816561
1040
79.746945040091759
1040
0.0
1040
157.69097519808881
1040
82.198402263350317
1040
0.0
1040
149.43941532211869
1040
47.209401108474808
1040
0.0
1040
122.2315629880345
1040
49.21514046054449
1040
0.0
1040
107.73557316557979
1040
43.19792419067948
1040
0.0
1040
107.73557316557979
1040
43.19792419067948
1040
0.0
1040
69.376961114066034
1040
40.30074552354403
1040
0.0
1040
69.376961114066034
1040
40.30074552354403
1040
0.0
1040
30.572318798986078
1040
42.306483089269697
1040
0.0
1040
30.572318798986078
1040
42.306483089269697
1040
0.0
1002
}
  0
ARC
  5
138D
  8
DRG
 62
     7
 10
56.468482394088369
 20
27.861637324670479
 30
0.0
 40
12.0
 50
180.0
 51
270.0
  0
ARC
  5
138E
  8
DRG
 62
     7
 10
56.468482394088369
 20
45.06060729124669
 30
0.0
 40
12.0
 50
90.0
 51
180.0
  0
ARC
  5
138F
  8
DRG
 62
     7
 10
47.650196927116667
 20
72.89733173546756
 30
0.0
 40
12.0
 50
270.0
 51
0.0
  0
ARC
  5
1390
  8
DRG
 62
     7
 10
47.650196927116667
 20
90.096301702043775
 30
0.0
 40
12.0
 50
0.0
 51
90.0
  0
ARC
  5
1391
  8
DRG
 62
     7
 10
44.74417114794209
 20
72.655643349176444
 30
0.0
 40
3.8611993223923942
 50
180.0
 51
0.0
  0
ARC
  5
1392
  8
DRG
 62
     7
 10
44.74417114794209
 20
90.337990088334877
 30
0.0
 40
3.8611993223923942
 50
0.0
 51
180.0
  0
ARC
  5
1393
  8
DRG
 62
     7
 10
19.137584483414571
 20
31.0402274344309
 30
0.0
 40
12.107786932649869
 50
183.81258486583951
 51
267.37487616930952
  0
LINE
  5
1394
  8
DRG
 62
     7
 10
27.267121908897021
 20
13.51984597021351
 30
0.0
 11
27.267121908897021
 21
25.817196576319979
 31
0.0
  0
LINE
  5
1395
  8
DRG
 62
     7
 10
37.639779947293839
 20
13.760967175618591
 30
0.0
 11
37.639779947293839
 21
57.06060729124669
 31
0.0
  0
LINE
  5
1396
  8
DRG
 62
     7
 10
7.7279273094568453
 20
14.846027306936771
 30
0.0
 11
19.544723264112228
 21
14.846027306936771
 31
0.0
  0
ARC
  5
1397
  8
DRG
 62
     7
 10
18.249110221157022
 20
13.95076893658401
 30
0.0
 40
10.559203445863639
 50
175.13635846835899
 51
269.19405577571678
  0
ARC
  5
1398
  8
DRG
 62
     7
 10
25.379351800633462
 20
15.82074347040526
 30
0.0
 40
12.432247452652581
 50
271.47404887186468
 51
350.4632534986161
  0
LINE
  5
1399
  8
DRG
 62
     7
 10
18.100585347854121
 20
3.392610111620797
 30
0.0
 11
25.699161025414639
 21
3.392610111620797
 31
0.0
  0
ARC
  5
139A
  8
DRG
 62
     7
 10
23.40592258650463
 20
13.51984597021351
 30
0.0
 40
3.8611993223923942
 50
180.0
 51
0.0
  0
LINE
  5
139B
  8
DRG
 62
     7
 10
19.544723264112228
 20
13.51984597021351
 30
0.0
 11
19.544723264112228
 21
14.846027306936771
 31
0.0
  0
LINE
  5
139C
  8
DRG
 62
     7
 10
18.821661727211438
 20
62.115696081838678
 30
0.0
 11
18.821661727211438
 21
85.569427875032716
 31
0.0
  0
ARC
  5
139D
  8
DRG
 62
     7
 10
41.838142899665847
 20
72.89733173546756
 30
0.0
 40
12.0
 50
180.0
 51
270.0
  0
LINE
  5
139E
  8
DRG
 62
     7
 10
7.7802673214059723
 20
102.0369718403326
 30
0.0
 11
7.7802673214059723
 21
62.115696081838678
 31
0.0
  0
ARC
  5
139F
  8
DRG
 62
     7
 10
19.137584483414571
 20
46.032807694708133
 30
0.0
 40
12.107786932649869
 50
92.625123830690427
 51
179.34969965531249
  0
LINE
  5
13A0
  8
DRG
 62
     7
 10
7.7802673214059723
 20
62.115696081838678
 30
0.0
 11
18.821661727211438
 21
62.115696081838678
 31
0.0
  0
ARC
  5
13A1
  8
DRG
 62
     7
 10
130.4096373956734
 20
38.404095866101891
 30
0.0
 40
123.62323904739679
 50
176.39825231050591
 51
183.7888327716102
  0
ARC
  5
13A2
  8
DRG
 62
     7
 10
167.7922598686371
 20
36.46112230795859
 30
0.0
 40
123.62323904739679
 50
176.01116722839041
 51
183.98883277160959
  0
LINE
  5
13A3
  8
DRG
 62
     7
 10
27.387732575171409
 20
32.086434320449371
 30
0.0
 11
27.387732575171409
 21
44.745475926535619
 31
0.0
  0
LINE
  5
13A4
  8
DRG
 62
     7
 10
17.256300807526252
 20
30.519126263197901
 30
0.0
 11
17.256300807526252
 21
46.312783983787199
 31
0.0
  0
ARC
  5
13A5
  8
DRG
 62
     7
 10
22.554825927420261
 20
30.757839296791811
 30
0.0
 40
5.3038997311936118
 50
182.57958705316651
 51
271.39398239048438
  0
ARC
  5
13A6
  8
DRG
 62
     7
 10
21.079116203706629
 20
31.577778829510549
 30
0.0
 40
6.3290892655085571
 50
284.68766481341447
 51
4.6097118352224014
  0
ARC
  5
13A7
  8
DRG
 62
     7
 10
18.444167318675341
 20
28.04361904615444
 30
0.0
 40
9.0995321151857773
 50
270.87442572940842
 51
345.83740798549388
  0
LINE
  5
13A8
  8
DRG
 62
     7
 10
37.639779947293839
 20
57.06060729124669
 30
0.0
 11
27.267121908897021
 21
57.06060729124669
 31
0.0
  0
ARC
  5
13A9
  8
DRG
 62
     7
 10
22.554825927420261
 20
46.074070950193168
 30
0.0
 40
5.3038997311936118
 50
88.606017609515575
 51
177.42041294683341
  0
ARC
  5
13AA
  8
DRG
 62
     7
 10
21.079116203706629
 20
45.254131417474468
 30
0.0
 40
6.3290892655085571
 50
355.39028816477759
 51
75.312335186585557
  0
ARC
  5
13AB
  8
DRG
 62
     7
 10
18.444167318675341
 20
49.029416082984589
 30
0.0
 40
9.0995321151857773
 50
14.16259201450603
 51
89.125574270591571
  0
LINE
  5
13AC
  8
DRG
 62
     7
 10
27.267121908897021
 20
51.255838552819107
 30
0.0
 11
27.267121908897021
 21
57.06060729124669
 31
0.0
  0
LINE
  5
13AD
  8
DRG
 62
     7
 10
41.838142899665847
 20
60.89733173546756
 30
0.0
 11
47.650196927116667
 21
60.89733173546756
 31
0.0
  0
LINE
  5
13AE
  8
DRG
 62
     7
 10
7.7802673214059723
 20
102.0369718403326
 30
0.0
 11
18.821661727211438
 21
102.0369718403326
 31
0.0
  0
ARC
  5
13AF
  8
DRG
 62
     7
 10
26.821661727211438
 20
85.569427875032716
 30
0.0
 40
8.0
 50
90.0
 51
180.0
  0
ARC
  5
13B0
  8
DRG
 62
     7
 10
218.4362314981995
 20
81.496816718755667
 30
0.0
 40
177.77324423808651
 50
177.14934059322539
 51
182.85065940677461
  0
ARC
  5
13B1
  8
DRG
 62
     7
 10
153.16192037421459
 20
81.496816718755667
 30
0.0
 40
123.62323904739679
 50
176.01116722839041
 51
183.98883277160959
  0
ARC
  5
13B2
  8
DRG
 62
     7
 10
41.838142899665847
 20
90.096301702043775
 30
0.0
 40
12.0
 50
90.0
 51
180.0
  0
LINE
  5
13B3
  8
DRG
 62
     7
 10
18.821661727211438
 20
97.915857504065912
 30
0.0
 11
18.821661727211438
 21
102.0369718403326
 31
0.0
  0
ARC
  5
13B4
  8
DRG
 62
     7
 10
27.083354510939952
 20
91.844139685506846
 30
0.0
 40
10.2528691067876
 50
83.7965056449153
 51
143.68693404466879
  0
LINE
  5
13B5
  8
DRG
 62
     7
 10
28.191279411133561
 20
102.0369718403326
 30
0.0
 11
28.191279411133561
 21
93.569427875032716
 31
0.0
  0
LINE
  5
13B6
  8
DRG
 62
     7
 10
28.191279411133561
 20
93.569427875032716
 30
0.0
 11
26.821661727211438
 21
93.569427875032716
 31
0.0
  0
LINE
  5
13B7
  8
DRG
 62
     7
 10
41.838142899665847
 20
102.0963017020437
 30
0.0
 11
47.650196927116667
 21
102.0963017020437
 31
0.0
  0
ARC
  5
13B8
  8
DRG
 62
     7
 10
91.146199293645054
 20
26.576636016635941
 30
0.0
 40
9.5460672539884595
 50
232.98068850611
 51
293.75592135571679
  0
ARC
  5
13B9
  8
DRG
 62
     7
 10
153.28023066635379
 20
27.861637324670479
 30
0.0
 40
12.0
 50
180.0
 51
270.0
  0
ARC
  5
13BA
  8
DRG
 62
     7
 10
159.0922846938046
 20
27.861637324670479
 30
0.0
 40
12.0
 50
270.0
 51
0.0
  0
ARC
  5
13BB
  8
DRG
 62
     7
 10
62.280536421539182
 20
27.861637324670479
 30
0.0
 40
12.0
 50
270.0
 51
0.0
  0
LINE
  5
13BC
  8
DRG
 62
     7
 10
56.468482394088369
 20
15.861637324670481
 30
0.0
 11
62.280536421539182
 21
15.861637324670481
 31
0.0
  0
LINE
  5
13BD
  8
DRG
 62
     7
 10
153.28023066635379
 20
15.861637324670481
 30
0.0
 11
159.0922846938046
 21
15.861637324670481
 31
0.0
  0
ARC
  5
13BE
  8
DRG
 62
     7
 10
99.252312977960173
 20
45.06060729124669
 30
0.0
 40
12.0
 50
0.0
 51
90.0
  0
ARC
  5
13BF
  8
DRG
 62
     7
 10
103.66183676415081
 20
72.89733173546756
 30
0.0
 40
12.0
 50
270.0
 51
0.0
  0
ARC
  5
13C0
  8
DRG
 62
     7
 10
103.66183676415081
 20
90.096301702043775
 30
0.0
 40
12.0
 50
0.0
 51
90.0
  0
ARC
  5
13C1
  8
DRG
 62
     7
 10
75.331191210151701
 20
68.89733173546756
 30
0.0
 40
8.0
 50
180.0
 51
270.0
  0
LINE
  5
13C2
  8
DRG
 62
     7
 10
84.501142256151084
 20
62.072518178885268
 30
0.0
 11
84.501142256151084
 21
70.214764581409213
 31
0.0
  0
ARC
  5
13C3
  8
DRG
 62
     7
 10
97.849782736700035
 20
72.89733173546756
 30
0.0
 40
12.0
 50
180.0
 51
270.0
  0
ARC
  5
13C4
  8
DRG
 62
     7
 10
80.604973725058926
 20
67.941395133310024
 30
0.0
 40
7.044419488421358
 50
270.57609896713558
 51
303.5789717876612
  0
ARC
  5
13C5
  8
DRG
 62
     7
 10
93.358174068518778
 20
30.948196427274919
 30
0.0
 40
12.0
 50
90.0
 51
173.29457252003729
  0
ARC
  5
13C6
  8
DRG
 62
     7
 10
93.44025895050936
 20
27.861637324670479
 30
0.0
 40
12.0
 50
180.0
 51
227.9226718038604
  0
ARC
  5
13C7
  8
DRG
 62
     7
 10
93.44025895050936
 20
45.06060729124669
 30
0.0
 40
12.0
 50
90.0
 51
175.93782586434531
  0
LINE
  5
13C8
  8
DRG
 62
     7
 10
74.280536421539182
 20
45.06060729124669
 30
0.0
 11
74.280536421539182
 21
35.629722934820848
 31
0.0
  0
LINE
  5
13C9
  8
DRG
 62
     7
 10
63.235709964757007
 20
30.816887788353821
 30
0.0
 11
74.280536421539182
 21
30.816887788353821
 31
0.0
  0
LINE
  5
13CA
  8
DRG
 62
     7
 10
55.513311319972217
 20
35.629722934820848
 30
0.0
 11
74.280536421539182
 21
35.629722934820848
 31
0.0
  0
LINE
  5
13CB
  8
DRG
 62
     7
 10
63.235709964757007
 20
30.816887788353821
 30
0.0
 11
63.235709964757007
 21
27.619948938379359
 31
0.0
  0
LINE
  5
13CC
  8
DRG
 62
     7
 10
55.513311319972217
 20
35.629722934820848
 30
0.0
 11
55.513311319972217
 21
27.619948938379359
 31
0.0
  0
ARC
  5
13CD
  8
DRG
 62
     7
 10
59.374510642364612
 20
27.619948938379359
 30
0.0
 40
3.8611993223923942
 50
180.0
 51
0.0
  0
LINE
  5
13CE
  8
DRG
 62
     7
 10
74.280536421539182
 20
30.816887788353821
 30
0.0
 11
74.280536421539182
 21
27.861637324670479
 31
0.0
  0
ARC
  5
13CF
  8
DRG
 62
     7
 10
62.280536421539182
 20
45.06060729124669
 30
0.0
 40
12.0
 50
0.0
 51
90.0
  0
LINE
  5
13D0
  8
DRG
 62
     7
 10
55.513311319972217
 20
41.923431282527652
 30
0.0
 11
63.235709964757007
 21
41.923431282527652
 31
0.0
  0
ARC
  5
13D1
  8
DRG
 62
     7
 10
59.374510642364612
 20
46.690614073903127
 30
0.0
 40
3.8611993223923942
 50
0.0
 51
180.0
  0
LINE
  5
13D2
  8
DRG
 62
     7
 10
55.513311319972217
 20
46.690614073903127
 30
0.0
 11
55.513311319972217
 21
41.923431282527652
 31
0.0
  0
LINE
  5
13D3
  8
DRG
 62
     7
 10
63.235709964757007
 20
46.690614073903127
 30
0.0
 11
63.235709964757007
 21
41.923431282527652
 31
0.0
  0
LINE
  5
13D4
  8
DRG
 62
     7
 10
56.468482394088369
 20
57.06060729124669
 30
0.0
 11
62.280536421539182
 21
57.06060729124669
 31
0.0
  0
LINE
  5
13D5
  8
DRG
 62
     7
 10
75.331191210151701
 20
60.89733173546756
 30
0.0
 11
80.675802928264815
 21
60.89733173546756
 31
0.0
  0
LINE
  5
13D6
  8
DRG
 62
     7
 10
111.2523129779601
 20
45.06060729124669
 30
0.0
 11
111.2523129779601
 21
21.10260096837424
 31
0.0
  0
ARC
  5
13D7
  8
DRG
 62
     7
 10
92.427187023305351
 20
28.353548776339029
 30
0.0
 40
10.822390038051561
 50
283.70766965543032
 51
333.6028219757398
  0
ARC
  5
13D8
  8
DRG
 62
     7
 10
97.617648860406234
 20
31.597336783954741
 30
0.0
 40
5.7980507916306081
 50
86.525641605078704
 51
165.57884810514051
  0
ARC
  5
13D9
  8
DRG
 62
     7
 10
95.530005668639475
 20
29.734254501986349
 30
0.0
 40
5.9848030975807349
 50
273.19424815916329
 51
2.3998464036014582
  0
LINE
  5
13DA
  8
DRG
 62
     7
 10
92.002287191588479
 20
27.619948938379359
 30
0.0
 11
92.002287191588479
 21
33.041326503689788
 31
0.0
  0
LINE
  5
13DB
  8
DRG
 62
     7
 10
81.440258950509346
 20
32.349374231809861
 30
0.0
 11
81.440258950509346
 21
27.861637324670479
 31
0.0
  0
ARC
  5
13DC
  8
DRG
 62
     7
 10
95.863486513980874
 20
27.619948938379359
 30
0.0
 40
3.8611993223923942
 50
180.0
 51
270.0
  0
LINE
  5
13DD
  8
DRG
 62
     7
 10
102.6710305977499
 20
17.89352120355198
 30
0.0
 11
111.8021775281067
 21
17.893521203552009
 31
0.0
  0
ARC
  5
13DE
  8
DRG
 62
     7
 10
118.87875205644769
 20
22.322305930199491
 30
0.0
 40
16.801915635954131
 50
175.83705377070211
 51
195.28307330703629
  0
LINE
  5
13DF
  8
DRG
 62
     7
 10
102.1211660476033
 20
23.542010892025068
 30
0.0
 11
102.1211660476033
 21
21.102600968374329
 31
0.0
  0
ARC
  5
13E0
  8
DRG
 62
     7
 10
128.00989898680459
 20
22.322305930199519
 30
0.0
 40
16.801915635954131
 50
175.83705377070211
 51
195.28307330703629
  0
LINE
  5
13E1
  8
DRG
 62
     7
 10
101.5095597489034
 20
37.384730871555568
 30
0.0
 11
101.5095597489034
 21
29.483652989600269
 31
0.0
  0
LINE
  5
13E2
  8
DRG
 62
     7
 10
101.5095597489034
 20
37.384730871555568
 30
0.0
 11
97.266276327143615
 21
37.384730871555568
 31
0.0
  0
LINE
  5
13E3
  8
DRG
 62
     7
 10
100.2074865211779
 20
42.948196427274922
 30
0.0
 11
93.358174068518778
 21
42.948196427274922
 31
0.0
  0
ARC
  5
13E4
  8
DRG
 62
     7
 10
96.346287198785603
 20
47.313129977668268
 30
0.0
 40
3.8611993223923942
 50
0.0
 51
180.0
  0
LINE
  5
13E5
  8
DRG
 62
     7
 10
93.44025895050936
 20
57.06060729124669
 30
0.0
 11
99.252312977960173
 21
57.06060729124669
 31
0.0
  0
LINE
  5
13E6
  8
DRG
 62
     7
 10
92.485087876393209
 20
45.910674481046733
 30
0.0
 11
81.470405744524555
 21
45.910674481046733
 31
0.0
  0
LINE
  5
13E7
  8
DRG
 62
     7
 10
92.485087876393209
 20
47.313129977668268
 30
0.0
 11
92.485087876393209
 21
45.910674481046733
 31
0.0
  0
LINE
  5
13E8
  8
DRG
 62
     7
 10
100.2074865211779
 20
47.313129977668268
 30
0.0
 11
100.2074865211779
 21
42.948196427274922
 31
0.0
  0
LINE
  5
13E9
  8
DRG
 62
     7
 10
97.849782736700035
 20
60.89733173546756
 30
0.0
 11
103.66183676415081
 21
60.89733173546756
 31
0.0
  0
LINE
  5
13EA
  8
DRG
 62
     7
 10
80.482556033578916
 20
69.876055965300111
 30
0.0
 11
83.501142256151056
 21
69.876055965300111
 31
0.0
  0
LINE
  5
13EB
  8
DRG
 62
     7
 10
77.482556033578931
 20
94.593352860836134
 30
0.0
 11
84.553623006881026
 21
94.593352860836134
 31
0.0
  0
LINE
  5
13EC
  8
DRG
 62
     7
 10
77.482556033578931
 20
101.9948050433795
 30
0.0
 11
84.553623006881026
 21
101.9948050433795
 31
0.0
  0
ARC
  5
13ED
  8
DRG
 62
     7
 10
-128.9478892023152
 20
81.496816718755667
 30
0.0
 40
177.77324423808651
 50
357.1493405932253
 51
2.8506594067746178
  0
ARC
  5
13EE
  8
DRG
 62
     7
 10
-63.673578078330422
 20
81.496816718755667
 30
0.0
 40
123.62323904739679
 50
356.01116722839038
 51
3.9888327716095779
  0
LINE
  5
13EF
  8
DRG
 62
     7
 10
67.331191210151701
 20
94.593352860836134
 30
0.0
 11
67.331191210151701
 21
68.89733173546756
 31
0.0
  0
LINE
  5
13F0
  8
DRG
 62
     7
 10
77.482556033578931
 20
94.593352860836134
 30
0.0
 11
77.482556033578931
 21
72.876055965300111
 31
0.0
  0
ARC
  5
13F1
  8
DRG
 62
     7
 10
80.482556033578916
 20
72.876055965300111
 30
0.0
 40
3.0
 50
180.0
 51
270.0
  0
LINE
  5
13F2
  8
DRG
 62
     7
 10
62.478989637268569
 20
101.9948050433795
 30
0.0
 11
67.331191210151701
 21
101.9948050433795
 31
0.0
  0
LINE
  5
13F3
  8
DRG
 62
     7
 10
62.478989637268569
 20
94.593352860836134
 30
0.0
 11
67.331191210151701
 21
94.593352860836134
 31
0.0
  0
LINE
  5
13F4
  8
DRG
 62
     7
 10
62.478989637268569
 20
94.593352860836134
 30
0.0
 11
62.478989637268569
 21
101.9948050433795
 31
0.0
  0
LINE
  5
13F5
  8
DRG
 62
     7
 10
67.331191210151701
 20
107.1280725498991
 30
0.0
 11
77.482556033578931
 21
107.1280725498991
 31
0.0
  0
LINE
  5
13F6
  8
DRG
 62
     7
 10
67.331191210151701
 20
107.1280725498991
 30
0.0
 11
67.331191210151701
 21
101.9948050433795
 31
0.0
  0
LINE
  5
13F7
  8
DRG
 62
     7
 10
77.482556033578931
 20
101.9948050433795
 30
0.0
 11
77.482556033578931
 21
107.1280725498991
 31
0.0
  0
ARC
  5
13F8
  8
DRG
 62
     7
 10
-72.936249365281071
 20
81.496816718755667
 30
0.0
 40
177.77324423808651
 50
357.1493405932253
 51
2.8506594067746178
  0
ARC
  5
13F9
  8
DRG
 62
     7
 10
274.44787133523357
 20
81.496816718755667
 30
0.0
 40
177.77324423808651
 50
177.14934059322539
 51
182.85065940677461
  0
ARC
  5
13FA
  8
DRG
 62
     7
 10
209.1735602112488
 20
81.496816718755667
 30
0.0
 40
123.62323904739679
 50
176.01116722839041
 51
183.98883277160959
  0
ARC
  5
13FB
  8
DRG
 62
     7
 10
100.75581098497619
 20
72.655643349176444
 30
0.0
 40
3.8611993223923942
 50
180.0
 51
0.0
  0
ARC
  5
13FC
  8
DRG
 62
     7
 10
82.991751330883176
 20
73.025526152493626
 30
0.0
 40
3.1903983410800212
 50
279.18737892597682
 51
298.2359877234839
  0
ARC
  5
13FD
  8
DRG
 62
     7
 10
100.75581098497619
 20
90.337990088334877
 30
0.0
 40
3.8611993223923942
 50
0.0
 51
180.0
  0
ARC
  5
13FE
  8
DRG
 62
     7
 10
97.849782736700035
 20
90.096301702043775
 30
0.0
 40
12.0
 50
90.0
 51
180.0
  0
LINE
  5
13FF
  8
DRG
 62
     7
 10
84.553623006881026
 20
101.9948050433795
 30
0.0
 11
84.553623006881026
 21
94.593352860836134
 31
0.0
  0
LINE
  5
1400
  8
DRG
 62
     7
 10
97.849782736700035
 20
102.0963017020437
 30
0.0
 11
103.66183676415081
 21
102.0963017020437
 31
0.0
  0
LINE
  5
1401
  8
DRG
 62
     7
 10
130.05101171535759
 20
62.115696081838678
 30
0.0
 11
130.05101171535759
 21
85.569427875032716
 31
0.0
  0
LINE
  5
1402
  8
DRG
 62
     7
 10
119.0096173095521
 20
102.0369718403326
 30
0.0
 11
119.0096173095521
 21
62.115696081838678
 31
0.0
  0
LINE
  5
1403
  8
DRG
 62
     7
 10
165.4162645291251
 20
78.31140447718235
 30
0.0
 11
171.78072804963571
 21
62.115696081838678
 31
0.0
  0
LINE
  5
1404
  8
DRG
 62
     7
 10
153.2899770207527
 20
82.583583780839604
 30
0.0
 11
161.3332883364622
 21
62.115696081838678
 31
0.0
  0
LINE
  5
1405
  8
DRG
 62
     7
 10
153.2899770207527
 20
102.0369718403326
 30
0.0
 11
153.2899770207527
 21
62.115696081838678
 31
0.0
  0
LINE
  5
1406
  8
DRG
 62
     7
 10
142.11987082690661
 20
102.0369718403326
 30
0.0
 11
142.11987082690661
 21
62.115696081838678
 31
0.0
  0
ARC
  5
1407
  8
DRG
 62
     7
 10
160.28928843394391
 20
53.283870983727013
 30
0.0
 40
20.648450998997479
 50
209.50344874889601
 51
257.2400493880096
  0
LINE
  5
1408
  8
DRG
 62
     7
 10
141.28023066635379
 20
29.95929893143898
 30
0.0
 11
152.32505959223769
 21
29.95929893143898
 31
0.0
  0
ARC
  5
1409
  8
DRG
 62
     7
 10
153.28023066635379
 20
45.06060729124669
 30
0.0
 40
12.0
 50
90.0
 51
161.62913043773071
  0
LINE
  5
140A
  8
DRG
 62
     7
 10
153.2899770207527
 20
62.115696081838678
 30
0.0
 11
142.11987082690661
 21
62.115696081838678
 31
0.0
  0
LINE
  5
140B
  8
DRG
 62
     7
 10
127.2345352189994
 20
17.28637227261407
 30
0.0
 11
127.2345352189994
 21
40.740104065808111
 31
0.0
  0
LINE
  5
140C
  8
DRG
 62
     7
 10
116.19314081319391
 20
57.207648031108022
 30
0.0
 11
116.19314081319391
 21
17.28637227261407
 31
0.0
  0
LINE
  5
140D
  8
DRG
 62
     7
 10
116.19314081319391
 20
17.28637227261407
 30
0.0
 11
127.2345352189994
 21
17.28637227261407
 31
0.0
  0
LINE
  5
140E
  8
DRG
 62
     7
 10
141.28023066635379
 20
29.95929893143898
 30
0.0
 11
141.28023066635379
 21
27.861637324670479
 31
0.0
  0
ARC
  5
140F
  8
DRG
 62
     7
 10
135.496228002728
 20
47.014815876282221
 30
0.0
 40
10.2528691067876
 50
83.7965056449153
 51
143.68693404466879
  0
ARC
  5
1410
  8
DRG
 62
     7
 10
135.23453521899941
 20
40.740104065808111
 30
0.0
 40
8.0
 50
90.0
 51
180.0
  0
LINE
  5
1411
  8
DRG
 62
     7
 10
119.0096173095521
 20
62.115696081838678
 30
0.0
 11
130.05101171535759
 21
62.115696081838678
 31
0.0
  0
LINE
  5
1412
  8
DRG
 62
     7
 10
116.19314081319391
 20
57.207648031108022
 30
0.0
 11
127.2345352189994
 21
57.207648031108022
 31
0.0
  0
LINE
  5
1413
  8
DRG
 62
     7
 10
127.2345352189994
 20
53.0865336948413
 30
0.0
 11
127.2345352189994
 21
57.207648031108079
 31
0.0
  0
LINE
  5
1414
  8
DRG
 62
     7
 10
136.6041529029215
 20
57.207648031108022
 30
0.0
 11
136.6041529029215
 21
48.740104065808111
 31
0.0
  0
LINE
  5
1415
  8
DRG
 62
     7
 10
136.6041529029215
 20
48.740104065808111
 30
0.0
 11
135.23453521899941
 21
48.740104065808111
 31
0.0
  0
ARC
  5
1416
  8
DRG
 62
     7
 10
149.15275272984229
 20
46.50373678022958
 30
0.0
 40
7.6283568598071962
 50
162.14543119997589
 51
216.29372603558031
  0
ARC
  5
1417
  8
DRG
 62
     7
 10
164.68224204875119
 20
54.775095406185869
 30
0.0
 40
15.14236331012172
 50
222.29150451995909
 51
257.53093545652467
  0
ARC
  5
1418
  8
DRG
 62
     7
 10
159.223234097084
 20
28.191351553125511
 30
0.0
 40
12.0
 50
8.4721667757414814
 51
79.486612768212169
  0
LINE
  5
1419
  8
DRG
 62
     7
 10
160.04745823702251
 20
29.300230626583438
 30
0.0
 11
160.04745823702251
 21
27.619948938379359
 31
0.0
  0
LINE
  5
141A
  8
DRG
 62
     7
 10
152.32505959223769
 20
27.619948938379359
 30
0.0
 11
152.32505959223769
 21
29.95929893143898
 31
0.0
  0
ARC
  5
141B
  8
DRG
 62
     7
 10
156.18625891463009
 20
27.619948938379359
 30
0.0
 40
3.8611993223923942
 50
180.0
 51
0.0
  0
ARC
  5
141C
  8
DRG
 62
     7
 10
153.8611380906755
 20
26.699836406787622
 30
0.0
 40
6.7106338785129491
 50
22.799249772319211
 51
73.841024038773142
  0
LINE
  5
141D
  8
DRG
 62
     7
 10
171.0922846938046
 20
29.95929893143915
 30
0.0
 11
171.0922846938046
 21
27.861637324670479
 31
0.0
  0
LINE
  5
141E
  8
DRG
 62
     7
 10
171.0912486890569
 20
45.21828747592599
 30
0.0
 11
160.04745823702251
 21
45.21828747592599
 31
0.0
  0
ARC
  5
141F
  8
DRG
 62
     7
 10
159.0922846938046
 20
45.06060729124669
 30
0.0
 40
12.0
 50
0.7528890912800703
 51
90.0
  0
LINE
  5
1420
  8
DRG
 62
     7
 10
161.3332883364622
 20
62.115696081838678
 30
0.0
 11
171.78072804963571
 21
62.115696081838678
 31
0.0
  0
ARC
  5
1421
  8
DRG
 62
     7
 10
156.18625891463009
 20
46.421288526219307
 30
0.0
 40
3.8611993223923942
 50
0.0
 51
161.4735686305323
  0
ARC
  5
1422
  8
DRG
 62
     7
 10
155.35373214152469
 20
46.850626662257177
 30
0.0
 40
2.938857360854815
 50
164.25399710017811
 51
230.4135202949499
  0
LINE
  5
1423
  8
DRG
 62
     7
 10
160.04745823702251
 20
46.421288526219307
 30
0.0
 11
160.04745823702251
 21
45.21828747592599
 31
0.0
  0
LINE
  5
1424
  8
DRG
 62
     7
 10
153.28023066635379
 20
57.06060729124669
 30
0.0
 11
159.0922846938046
 21
57.06060729124669
 31
0.0
  0
LINE
  5
1425
  8
DRG
 62
     7
 10
142.11987082690661
 20
102.0369718403326
 30
0.0
 11
153.2899770207527
 21
102.0369718403326
 31
0.0
  0
ARC
  5
1426
  8
DRG
 62
     7
 10
138.05101171535759
 20
85.569427875032716
 30
0.0
 40
8.0
 50
90.0
 51
180.0
  0
ARC
  5
1427
  8
DRG
 62
     7
 10
-7.66193824129624
 20
81.496816718755667
 30
0.0
 40
123.62323904739679
 50
356.01116722839038
 51
3.9888327716095779
  0
ARC
  5
1428
  8
DRG
 62
     7
 10
138.3127044990861
 20
91.844139685506775
 30
0.0
 40
10.2528691067876
 50
83.7965056449153
 51
143.68693404466879
  0
LINE
  5
1429
  8
DRG
 62
     7
 10
119.0096173095521
 20
102.0369718403326
 30
0.0
 11
130.05101171535759
 21
102.0369718403326
 31
0.0
  0
LINE
  5
142A
  8
DRG
 62
     7
 10
130.05101171535759
 20
97.915857504065855
 30
0.0
 11
130.05101171535759
 21
102.0369718403326
 31
0.0
  0
LINE
  5
142B
  8
DRG
 62
     7
 10
139.4206293992797
 20
102.0369718403326
 30
0.0
 11
139.4206293992797
 21
93.569427875032716
 31
0.0
  0
LINE
  5
142C
  8
DRG
 62
     7
 10
139.4206293992797
 20
93.569427875032716
 30
0.0
 11
138.05101171535759
 21
93.569427875032716
 31
0.0
  0
LINE
  5
142D
  8
DRG
 62
     7
 10
153.2899770207527
 20
82.583583780839604
 30
0.0
 11
160.9346181585602
 21
102.0369718403326
 31
0.0
  0
LINE
  5
142E
  8
DRG
 62
     7
 10
176.9709164189357
 20
78.31140447718235
 30
0.0
 11
176.9709164189357
 21
86.855763084496857
 31
0.0
  0
LINE
  5
142F
  8
DRG
 62
     7
 10
176.9709164189357
 20
78.31140447718235
 30
0.0
 11
165.4162645291251
 21
78.31140447718235
 31
0.0
  0
LINE
  5
1430
  8
DRG
 62
     7
 10
160.9346181585602
 20
102.0369718403326
 30
0.0
 11
171.38205787173379
 21
102.0369718403326
 31
0.0
  0
LINE
  5
1431
  8
DRG
 62
     7
 10
165.4162645291251
 20
86.855763084496857
 30
0.0
 11
171.38205787173379
 21
102.0369718403326
 31
0.0
  0
LINE
  5
1432
  8
DRG
 62
     7
 10
176.9709164189357
 20
86.855763084496857
 30
0.0
 11
165.4162645291251
 21
86.855763084496857
 31
0.0
  0
ENDBLK
  5
1434
  8
0
  0
BLOCK
  8
0
  2
ROTORK_GEARS_LOGO
 70
     0
 10
0.0
 20
0.0
 30
0.0
  3
ROTORK_GEARS_LOGO
  1

  0
INSERT
  5
1436
  8
0
  2
LOGO
 10
16.592937132437999
 20
3.1720898939720419
 30
0.0
  0
ENDBLK
  5
1438
  8
0
  0
BLOCK
  8
0
  2
*U6
 70
     1
 10
0.0
 20
0.0
 30
0.0
  3
*U6
  1

  0
SOLID
  5
151E
  8
DRG
  6
CONTINUOUS
 62
     7
 10
27.591723902900771
 20
3.5869302298372978
 30
0.0
 11
18.100585347853119
 21
3.392610111620797
 31
0.0
 12
25.69916102541524
 22
3.392610111620797
 32
0.0
 13
25.69916102541524
 23
3.392610111620797
 33
0.0
210
0.0
220
0.0
230
1.0
  0
SOLID
  5
151F
  8
DRG
  6
CONTINUOUS
 62
     7
 10
16.187882817280752
 20
3.5947021638827041
 30
0.0
 11
18.100585347853119
 21
3.392610111620797
 31
0.0
 12
27.591723902900771
 22
3.5869302298372978
 32
0.0
 13
27.591723902900771
 23
3.5869302298372978
 33
0.0
210
0.0
220
0.0
230
1.0
  0
SOLID
  5
1520
  8
DRG
  6
CONTINUOUS
 62
     7
 10
29.43247673073007
 20
4.067745766627044
 30
0.0
 11
16.187882817280752
 21
3.5947021638827041
 31
0.0
 12
27.591723902900771
 22
3.5869302298372978
 32
0.0
 13
27.591723902900771
 23
3.5869302298372978
 33
0.0
210
0.0
220
0.0
230
1.0
  0
SOLID
  5
1521
  8
DRG
  6
CONTINUOUS
 62
     7
 10
14.34356828270448
 20
4.1403907798498434
 30
0.0
 11
16.187882817280752
 21
3.5947021638827041
 31
0.0
 12
29.43247673073007
 22
4.067745766627044
 32
0.0
 13
29.43247673073007
 23
4.067745766627044
 33
0.0
210
0.0
220
0.0
230
1.0
  0
SOLID
  5
1522
  8
DRG
  6
CONTINUOUS
 62
     7
 10
31.178312160316999
 20
4.823796827322667
 30
0.0
 11
14.34356828270448
 21
4.1403907798498434
 31
0.0
 12
29.43247673073007
 22
4.067745766627044
 32
0.0
 13
29.43247673073007
 23
4.067745766627044
 33
0.0
  0
SOLID
  5
1523
  8
DRG
  6
CONTINUOUS
 62
     7
 10
12.628832942518519
 20
5.011570945580659
 30
0.0
 11
14.34356828270448
 21
4.1403907798498434
 31
0.0
 12
31.178312160316999
 22
4.823796827322667
 32
0.0
 13
31.178312160316999
 23
4.823796827322667
 33
0.0
210
0.0
220
0.0
230
1.0
  0
SOLID
  5
1524
  8
DRG
  6
CONTINUOUS
 62
     7
 10
32.788345649587569
 20
5.83737796221381
 30
0.0
 11
12.628832942518519
 21
5.011570945580659
 31
0.0
 12
31.178312160316999
 22
4.823796827322667
 32
0.0
 13
31.178312160316999
 23
4.823796827322667
 33
0.0
210
0.0
220
0.0
230
1.0
  0
SOLID
  5
1525
  8
DRG
  6
CONTINUOUS
 62
     7
 10
11.10056877931466
 20
6.1793383948239633
 30
0.0
 11
12.628832942518519
 21
5.011570945580659
 31
0.0
 12
32.788345649587569
 22
5.83737796221381
 32
0.0
 13
32.788345649587569
 23
5.83737796221381
 33
0.0
210
0.0
220
0.0
230
1.0
  0
SOLID
  5
1526
  8
DRG
  6
CONTINUOUS
 62
     7
 10
34.22487291048742
 20
7.084752798528684
 30
0.0
 11
11.10056877931466
 21
6.1793383948239633
 31
0.0
 12
32.788345649587569
 22
5.83737796221381
 32
0.0
 13
32.788345649587569
 23
5.83737796221381
 33
0.0
210
0.0
220
0.0
230
1.0
  0
SOLID
  5
1527
  8
DRG
  6
CONTINUOUS
 62
     7
 10
9.8094809813111574
 20
7.6049486030828204
 30
0.0
 11
11.10056877931466
 21
6.1793383948239633
 31
0.0
 12
34.22487291048742
 22
7.084752798528684
 32
0.0
 13
34.22487291048742
 23
7.084752798528684
 33
0.0
  0
SOLID
  5
1528
  8
DRG
  6
CONTINUOUS
 62
     7
 10
35.454252880266083
 20
8.5367099065339396
 30
0.0
 11
9.8094809813111574
 21
7.6049486030828204
 31
0.0
 12
34.22487291048742
 22
7.084752798528684
 32
0.0
 13
34.22487291048742
 23
7.084752798528684
 33
0.0
210
0.0
220
0.0
230
1.0
  0
SOLID
  5
1529
  8
DRG
  6
CONTINUOUS
 62
     7
 10
8.7984056310258474
 20
9.2411022645984033
 30
0.0
 11
9.8094809813111574
 21
7.6049486030828204
 31
0.0
 12
35.454252880266083
 22
8.5367099065339396
 32
0.0
 13
35.454252880266083
 23
8.5367099065339396
 33
0.0
210
0.0
220
0.0
230
1.0
  0
SOLID
  5
152A
  8
DRG
  6
CONTINUOUS
 62
     7
 10
23.40592258650463
 20
9.658646647821115
 30
0.0
 11
8.7984056310258474
 21
9.2411022645984033
 31
0.0
 12
35.454252880266083
 22
8.5367099065339396
 32
0.0
 13
35.454252880266083
 23
8.5367099065339396
 33
0.0
210
0.0
220
0.0
230
1.0
  0
SOLID
  5
152B
  8
DRG
  6
CONTINUOUS
 62
     7
 10
22.406570664932531
 20
9.7902138242648444
 30
0.0
 11
8.7984056310258474
 21
9.2411022645984033
 31
0.0
 12
23.40592258650463
 22
9.658646647821115
 32
0.0
 13
23.40592258650463
 23
9.658646647821115
 33
0.0
  0
SOLID
  5
152C
  8
DRG
  6
CONTINUOUS
 62
     7
 10
24.405274508076729
 20
9.7902138242648462
 30
0.0
 11
23.40592258650463
 21
9.658646647821115
 31
0.0
 12
35.454252880266083
 22
8.5367099065339396
 32
0.0
 13
35.454252880266083
 23
8.5367099065339396
 33
0.0
210
0.0
220
0.0
230
1.0
  0
SOLID
  5
152D
  8
DRG
  6
CONTINUOUS
 62
     7
 10
36.447695538829151
 20
10.1592468822997
 30
0.0
 11
24.405274508076729
 21
9.7902138242648462
 31
0.0
 12
35.454252880266083
 22
8.5367099065339396
 32
0.0
 13
35.454252880266083
 23
8.5367099065339396
 33
0.0
210
0.0
220
0.0
230
1.0
  0
SOLID
  5
152E
  8
DRG
  6
CONTINUOUS
 62
     7
 10
21.475322925308429
 20
10.175949267946431
 30
0.0
 11
8.7984056310258474
 21
9.2411022645984033
 31
0.0
 12
22.406570664932531
 22
9.7902138242648444
 32
0.0
 13
22.406570664932531
 23
9.7902138242648444
 33
0.0
210
0.0
220
0.0
230
1.0
  0
SOLID
  5
152F
  8
DRG
  6
CONTINUOUS
 62
     7
 10
25.336522247700831
 20
10.175949267946431
 30
0.0
 11
24.405274508076729
 21
9.7902138242648462
 31
0.0
 12
36.447695538829151
 22
10.1592468822997
 32
0.0
 13
36.447695538829151
 23
10.1592468822997
 33
0.0
210
0.0
220
0.0
230
1.0
  0
SOLID
  5
1530
  8
DRG
  6
CONTINUOUS
 62
     7
 10
20.675642362128059
 20
10.78956574583694
 30
0.0
 11
8.7984056310258474
 21
9.2411022645984033
 31
0.0
 12
21.475322925308429
 22
10.175949267946431
 32
0.0
 13
21.475322925308429
 23
10.175949267946431
 33
0.0
210
0.0
220
0.0
230
1.0
  0
SOLID
  5
1531
  8
DRG
  6
CONTINUOUS
 62
     7
 10
26.136202810881191
 20
10.78956574583694
 30
0.0
 11
25.336522247700831
 21
10.175949267946431
 31
0.0
 12
36.447695538829151
 22
10.1592468822997
 32
0.0
 13
36.447695538829151
 23
10.1592468822997
 33
0.0
210
0.0
220
0.0
230
1.0
  0
SOLID
  5
1532
  8
DRG
  6
CONTINUOUS
 62
     7
 10
8.10088847740281
 20
11.033514602328481
 30
0.0
 11
8.7984056310258474
 21
9.2411022645984033
 31
0.0
 12
20.675642362128059
 22
10.78956574583694
 32
0.0
 13
20.675642362128059
 23
10.78956574583694
 33
0.0
  0
SOLID
  5
1533
  8
DRG
  6
CONTINUOUS
 62
     7
 10
20.062025884237549
 20
11.5892463090173
 30
0.0
 11
8.10088847740281
 21
11.033514602328481
 31
0.0
 12
20.675642362128059
 22
10.78956574583694
 32
0.0
 13
20.675642362128059
 23
10.78956574583694
 33
0.0
210
0.0
220
0.0
230
1.0
  0
SOLID
  5
1534
  8
DRG
  6
CONTINUOUS
 62
     7
 10
26.7498192887717
 20
11.589246309017311
 30
0.0
 11
26.136202810881191
 21
10.78956574583694
 31
0.0
 12
36.447695538829151
 22
10.1592468822997
 32
0.0
 13
36.447695538829151
 23
10.1592468822997
 33
0.0
210
0.0
220
0.0
230
1.0
  0
SOLID
  5
1535
  8
DRG
  6
CONTINUOUS
 62
     7
 10
37.18193612279525
 20
11.914366627057049
 30
0.0
 11
26.7498192887717
 21
11.589246309017311
 31
0.0
 12
36.447695538829151
 22
10.1592468822997
 32
0.0
 13
36.447695538829151
 23
10.1592468822997
 33
0.0
  0
SOLID
  5
1536
  8
DRG
  6
CONTINUOUS
 62
     7
 10
19.67629044055596
 20
12.5204940486414
 30
0.0
 11
8.10088847740281
 21
11.033514602328481
 31
0.0
 12
20.062025884237549
 22
11.5892463090173
 32
0.0
 13
20.062025884237549
 23
11.5892463090173
 33
0.0
210
0.0
220
0.0
230
1.0
  0
SOLID
  5
1537
  8
DRG
  6
CONTINUOUS
 62
     7
 10
27.13555473245329
 20
12.52049404864141
 30
0.0
 11
26.7498192887717
 21
11.589246309017311
 31
0.0
 12
37.18193612279525
 22
11.914366627057049
 32
0.0
 13
37.18193612279525
 23
11.914366627057049
 33
0.0
210
0.0
220
0.0
230
1.0
  0
SOLID
  5
1538
  8
DRG
  6
CONTINUOUS
 62
     7
 10
7.7400719452999134
 20
12.9227164439025
 30
0.0
 11
8.10088847740281
 21
11.033514602328481
 31
0.0
 12
19.67629044055596
 22
12.5204940486414
 32
0.0
 13
19.67629044055596
 23
12.5204940486414
 33
0.0
210
0.0
220
0.0
230
1.0
  0
SOLID
  5
1539
  8
DRG
  6
CONTINUOUS
 62
     7
 10
19.544723264112228
 20
13.51984597021351
 30
0.0
 11
7.7400719452999134
 21
12.9227164439025
 31
0.0
 12
19.67629044055596
 22
12.5204940486414
 32
0.0
 13
19.67629044055596
 23
12.5204940486414
 33
0.0
210
0.0
220
0.0
230
1.0
  0
SOLID
  5
153A
  8
DRG
  6
CONTINUOUS
 62
     7
 10
27.267121908897021
 20
13.51984597021351
 30
0.0
 11
27.13555473245329
 21
12.52049404864141
 31
0.0
 12
37.18193612279525
 22
11.914366627057049
 32
0.0
 13
37.18193612279525
 23
11.914366627057049
 33
0.0
210
0.0
220
0.0
230
1.0
  0
SOLID
  5
153B
  8
DRG
  6
CONTINUOUS
 62
     7
 10
37.639779947293839
 20
13.760967175618781
 30
0.0
 11
27.267121908897021
 21
13.51984597021351
 31
0.0
 12
37.18193612279525
 22
11.914366627057049
 32
0.0
 13
37.18193612279525
 23
11.914366627057049
 33
0.0
210
0.0
220
0.0
230
1.0
  0
SOLID
  5
153C
  8
DRG
  6
CONTINUOUS
 62
     7
 10
19.544723264112228
 20
13.51984597021351
 30
0.0
 11
19.544723264112239
 21
14.846027306936771
 31
0.0
 12
7.7279273094568479
 22
14.846027306936771
 32
0.0
 13
7.7279273094568479
 23
14.846027306936771
 33
0.0
210
0.0
220
0.0
230
1.0
  0
SOLID
  5
153D
  8
DRG
  6
CONTINUOUS
 62
     7
 10
7.7279273094568479
 20
14.846027306936771
 30
0.0
 11
7.7400719452999134
 21
12.9227164439025
 31
0.0
 12
19.544723264112228
 22
13.51984597021351
 32
0.0
 13
19.544723264112228
 23
13.51984597021351
 33
0.0
  0
SOLID
  5
153E
  8
DRG
  6
CONTINUOUS
 62
     7
 10
151.40301708587111
 20
16.00937723752882
 30
0.0
 11
153.28023066635379
 21
15.861637324670481
 31
0.0
 12
159.0922846938046
 22
15.861637324670481
 32
0.0
 13
159.0922846938046
 23
15.861637324670481
 33
0.0
  0
SOLID
  5
153F
  8
DRG
  6
CONTINUOUS
 62
     7
 10
54.591268813605609
 20
16.00937723752882
 30
0.0
 11
56.468482394088369
 21
15.861637324670481
 31
0.0
 12
62.280536421539182
 22
15.861637324670481
 32
0.0
 13
62.280536421539182
 23
15.861637324670481
 33
0.0
210
0.0
220
0.0
230
1.0
  0
SOLID
  5
1540
  8
DRG
  6
CONTINUOUS
 62
     7
 10
64.157750002021956
 20
16.009377237528831
 30
0.0
 11
54.591268813605609
 21
16.00937723752882
 31
0.0
 12
62.280536421539182
 22
15.861637324670481
 32
0.0
 13
62.280536421539182
 23
15.861637324670481
 33
0.0
210
0.0
220
0.0
230
1.0
  0
SOLID
  5
1541
  8
DRG
  6
CONTINUOUS
 62
     7
 10
160.96949827428739
 20
16.009377237528831
 30
0.0
 11
151.40301708587111
 21
16.00937723752882
 31
0.0
 12
159.0922846938046
 22
15.861637324670481
 32
0.0
 13
159.0922846938046
 23
15.861637324670481
 33
0.0
210
0.0
220
0.0
230
1.0
  0
SOLID
  5
1542
  8
DRG
  6
CONTINUOUS
 62
     7
 10
52.760278461589031
 20
16.448959129128621
 30
0.0
 11
54.591268813605609
 21
16.00937723752882
 31
0.0
 12
64.157750002021956
 22
16.009377237528831
 32
0.0
 13
64.157750002021956
 23
16.009377237528831
 33
0.0
210
0.0
220
0.0
230
1.0
  0
SOLID
  5
1543
  8
DRG
  6
CONTINUOUS
 62
     7
 10
162.800488626304
 20
16.448959129128632
 30
0.0
 11
151.40301708587111
 21
16.00937723752882
 31
0.0
 12
160.96949827428739
 22
16.009377237528831
 32
0.0
 13
160.96949827428739
 23
16.009377237528831
 33
0.0
  0
SOLID
  5
1544
  8
DRG
  6
CONTINUOUS
 62
     7
 10
65.988740354038555
 20
16.448959129128632
 30
0.0
 11
52.760278461589031
 21
16.448959129128621
 31
0.0
 12
64.157750002021956
 22
16.009377237528831
 32
0.0
 13
64.157750002021956
 23
16.009377237528831
 33
0.0
  0
SOLID
  5
1545
  8
DRG
  6
CONTINUOUS
 62
     7
 10
149.5720267338545
 20
16.448959129128632
 30
0.0
 11
151.40301708587111
 21
16.00937723752882
 31
0.0
 12
162.800488626304
 22
16.448959129128632
 32
0.0
 13
162.800488626304
 23
16.448959129128632
 33
0.0
210
0.0
220
0.0
230
1.0
  0
SOLID
  5
1546
  8
DRG
  6
CONTINUOUS
 62
     7
 10
51.020596397213851
 20
17.169559034410039
 30
0.0
 11
52.760278461589031
 21
16.448959129128621
 31
0.0
 12
65.988740354038555
 22
16.448959129128632
 32
0.0
 13
65.988740354038555
 23
16.448959129128632
 33
0.0
210
0.0
220
0.0
230
1.0
  0
SOLID
  5
1547
  8
DRG
  6
CONTINUOUS
 62
     7
 10
67.728422418413743
 20
17.16955903441006
 30
0.0
 11
51.020596397213851
 21
17.169559034410039
 31
0.0
 12
65.988740354038555
 22
16.448959129128632
 32
0.0
 13
65.988740354038555
 23
16.448959129128632
 33
0.0
  0
SOLID
  5
1548
  8
DRG
  6
CONTINUOUS
 62
     7
 10
164.54017069067919
 20
17.16955903441006
 30
0.0
 11
149.5720267338545
 21
16.448959129128632
 31
0.0
 12
162.800488626304
 22
16.448959129128632
 32
0.0
 13
162.800488626304
 23
16.448959129128632
 33
0.0
210
0.0
220
0.0
230
1.0
  0
SOLID
  5
1549
  8
DRG
  6
CONTINUOUS
 62
     7
 10
147.83234466947931
 20
17.16955903441006
 30
0.0
 11
149.5720267338545
 21
16.448959129128632
 31
0.0
 12
164.54017069067919
 22
17.16955903441006
 32
0.0
 13
164.54017069067919
 23
17.16955903441006
 33
0.0
210
0.0
220
0.0
230
1.0
  0
SOLID
  5
154A
  8
DRG
  6
CONTINUOUS
 62
     7
 10
93.395207810878105
 20
17.299278596169501
 30
0.0
 11
90.043755964704772
 21
17.09444119032354
 31
0.0
 12
91.728558738884544
 22
17.048348788901301
 32
0.0
 13
91.728558738884544
 23
17.048348788901301
 33
0.0
  0
SOLID
  5
154B
  8
DRG
  6
CONTINUOUS
 62
     7
 10
88.393319299007203
 20
17.436118976949761
 30
0.0
 11
90.043755964704772
 21
17.09444119032354
 31
0.0
 12
93.395207810878105
 22
17.299278596169501
 32
0.0
 13
93.395207810878105
 23
17.299278596169501
 33
0.0
210
0.0
220
0.0
230
1.0
  0
SOLID
  5
154C
  8
DRG
  6
CONTINUOUS
 62
     7
 10
94.991749269489972
 20
17.839408458597301
 30
0.0
 11
88.393319299007203
 21
17.436118976949761
 31
0.0
 12
93.395207810878105
 22
17.299278596169501
 32
0.0
 13
93.395207810878105
 23
17.299278596169501
 33
0.0
210
0.0
220
0.0
230
1.0
  0
SOLID
  5
154D
  8
DRG
  6
CONTINUOUS
 62
     7
 10
86.828697268901934
 20
18.062731137909029
 30
0.0
 11
88.393319299007203
 21
17.436118976949761
 31
0.0
 12
94.991749269489972
 22
17.839408458597301
 32
0.0
 13
94.991749269489972
 23
17.839408458597301
 33
0.0
  0
SOLID
  5
154E
  8
DRG
  6
CONTINUOUS
 62
     7
 10
49.415059366578753
 20
18.15343339217106
 30
0.0
 11
51.020596397213851
 21
17.169559034410039
 31
0.0
 12
67.728422418413743
 22
17.16955903441006
 32
0.0
 13
67.728422418413743
 23
17.16955903441006
 33
0.0
210
0.0
220
0.0
230
1.0
  0
SOLID
  5
154F
  8
DRG
  6
CONTINUOUS
 62
     7
 10
69.333959449048862
 20
18.153433392171099
 30
0.0
 11
49.415059366578753
 21
18.15343339217106
 31
0.0
 12
67.728422418413743
 22
17.16955903441006
 32
0.0
 13
67.728422418413743
 23
17.16955903441006
 33
0.0
210
0.0
220
0.0
230
1.0
  0
SOLID
  5
1550
  8
DRG
  6
CONTINUOUS
 62
     7
 10
166.1457077213143
 20
18.153433392171099
 30
0.0
 11
147.83234466947931
 21
17.16955903441006
 31
0.0
 12
164.54017069067919
 22
17.16955903441006
 32
0.0
 13
164.54017069067919
 23
17.16955903441006
 33
0.0
210
0.0
220
0.0
230
1.0
  0
SOLID
  5
1551
  8
DRG
  6
CONTINUOUS
 62
     7
 10
146.22680763884421
 20
18.153433392171099
 30
0.0
 11
147.83234466947931
 21
17.16955903441006
 31
0.0
 12
166.1457077213143
 22
18.153433392171099
 32
0.0
 13
166.1457077213143
 23
18.153433392171099
 33
0.0
210
0.0
220
0.0
230
1.0
  0
SOLID
  5
1552
  8
DRG
  6
CONTINUOUS
 62
     7
 10
96.774922223832405
 20
18.44288155552006
 30
0.0
 11
86.828697268901934
 21
18.062731137909029
 31
0.0
 12
94.991749269489972
 22
17.839408458597301
 32
0.0
 13
94.991749269489972
 23
17.839408458597301
 33
0.0
  0
SOLID
  5
1553
  8
DRG
  6
CONTINUOUS
 62
     7
 10
85.398663329684837
 20
18.95474449545469
 30
0.0
 11
86.828697268901934
 21
18.062731137909029
 31
0.0
 12
96.774922223832405
 22
18.44288155552006
 32
0.0
 13
96.774922223832405
 23
18.44288155552006
 33
0.0
210
0.0
220
0.0
230
1.0
  0
SOLID
  5
1554
  8
DRG
  6
CONTINUOUS
 62
     7
 10
16.63887701418912
 20
19.193077338746122
 30
0.0
 11
18.58303542025671
 21
18.945146626805109
 31
0.0
 12
20.271303339863209
 22
19.129413603414459
 32
0.0
 13
20.271303339863209
 23
19.129413603414459
 33
0.0
210
0.0
220
0.0
230
1.0
  0
SOLID
  5
1555
  8
DRG
  6
CONTINUOUS
 62
     7
 10
98.426543494326594
 20
19.34622686195554
 30
0.0
 11
85.398663329684837
 21
18.95474449545469
 31
0.0
 12
96.774922223832405
 22
18.44288155552006
 32
0.0
 13
96.774922223832405
 23
18.44288155552006
 33
0.0
210
0.0
220
0.0
230
1.0
  0
SOLID
  5
1556
  8
DRG
  6
CONTINUOUS
 62
     7
 10
47.983201019849858
 20
19.37635595043184
 30
0.0
 11
49.415059366578753
 21
18.15343339217106
 31
0.0
 12
69.333959449048862
 22
18.153433392171099
 32
0.0
 13
69.333959449048862
 23
18.153433392171099
 33
0.0
  0
SOLID
  5
1557
  8
DRG
  6
CONTINUOUS
 62
     7
 10
70.76581779577775
 20
19.376355950431901
 30
0.0
 11
47.983201019849858
 21
19.37635595043184
 31
0.0
 12
69.333959449048862
 22
18.153433392171099
 32
0.0
 13
69.333959449048862
 23
18.153433392171099
 33
0.0
210
0.0
220
0.0
230
1.0
  0
SOLID
  5
1558
  8
DRG
  6
CONTINUOUS
 62
     7
 10
167.57756606804321
 20
19.376355950431901
 30
0.0
 11
146.22680763884421
 21
18.153433392171099
 31
0.0
 12
166.1457077213143
 22
18.153433392171099
 32
0.0
 13
166.1457077213143
 23
18.153433392171099
 33
0.0
210
0.0
220
0.0
230
1.0
  0
SOLID
  5
1559
  8
DRG
  6
CONTINUOUS
 62
     7
 10
144.79494929211521
 20
19.376355950431911
 30
0.0
 11
146.22680763884421
 21
18.153433392171099
 31
0.0
 12
167.57756606804321
 22
19.376355950431901
 32
0.0
 13
167.57756606804321
 23
19.376355950431901
 33
0.0
210
0.0
220
0.0
230
1.0
  0
SOLID
  5
155A
  8
DRG
  6
CONTINUOUS
 62
     7
 10
102.3181837587821
 20
19.484710699009419
 30
0.0
 11
102.6710305977499
 21
17.89352120355198
 31
0.0
 12
111.8021775281067
 22
17.893521203552009
 32
0.0
 13
111.8021775281067
 23
17.893521203552009
 33
0.0
210
0.0
220
0.0
230
1.0
  0
SOLID
  5
155B
  8
DRG
  6
CONTINUOUS
 62
     7
 10
21.895927098915749
 20
19.624186812635841
 30
0.0
 11
16.63887701418912
 21
19.193077338746122
 31
0.0
 12
20.271303339863209
 22
19.129413603414459
 32
0.0
 13
20.271303339863209
 23
19.129413603414459
 33
0.0
210
0.0
220
0.0
230
1.0
  0
SOLID
  5
155C
  8
DRG
  6
CONTINUOUS
 62
     7
 10
14.76019055141534
 20
19.751430918834409
 30
0.0
 11
16.63887701418912
 21
19.193077338746122
 31
0.0
 12
21.895927098915749
 22
19.624186812635841
 32
0.0
 13
21.895927098915749
 23
19.624186812635841
 33
0.0
210
0.0
220
0.0
230
1.0
  0
SOLID
  5
155D
  8
DRG
  6
CONTINUOUS
 62
     7
 10
23.40031659456379
 20
20.41223194613077
 30
0.0
 11
14.76019055141534
 21
19.751430918834409
 31
0.0
 12
21.895927098915749
 22
19.624186812635841
 32
0.0
 13
21.895927098915749
 23
19.624186812635841
 33
0.0
210
0.0
220
0.0
230
1.0
  0
SOLID
  5
155E
  8
DRG
  6
CONTINUOUS
 62
     7
 10
84.027895067150837
 20
20.41802219979682
 30
0.0
 11
85.398663329684837
 21
18.95474449545469
 31
0.0
 12
98.426543494326594
 22
19.34622686195554
 32
0.0
 13
98.426543494326594
 23
19.34622686195554
 33
0.0
210
0.0
220
0.0
230
1.0
  0
SOLID
  5
155F
  8
DRG
  6
CONTINUOUS
 62
     7
 10
99.896639117703884
 20
20.522111389421919
 30
0.0
 11
84.027895067150837
 21
20.41802219979682
 31
0.0
 12
98.426543494326594
 22
19.34622686195554
 32
0.0
 13
98.426543494326594
 23
19.34622686195554
 33
0.0
210
0.0
220
0.0
230
1.0
  0
SOLID
  5
1560
  8
DRG
  6
CONTINUOUS
 62
     7
 10
12.996201983781489
 20
20.605577205523009
 30
0.0
 11
14.76019055141534
 21
19.751430918834409
 31
0.0
 12
23.40031659456379
 22
20.41223194613077
 32
0.0
 13
23.40031659456379
 23
20.41223194613077
 33
0.0
210
0.0
220
0.0
230
1.0
  0
SOLID
  5
1561
  8
DRG
  6
CONTINUOUS
 62
     7
 10
111.2870334115631
 20
20.69438210209054
 30
0.0
 11
102.3181837587821
 21
19.484710699009419
 31
0.0
 12
111.8021775281067
 22
17.893521203552009
 32
0.0
 13
111.8021775281067
 23
17.893521203552009
 33
0.0
210
0.0
220
0.0
230
1.0
  0
SOLID
  5
1562
  8
DRG
  6
CONTINUOUS
 62
     7
 10
46.76027846158906
 20
20.80821429716071
 30
0.0
 11
47.983201019849858
 21
19.37635595043184
 31
0.0
 12
70.76581779577775
 22
19.376355950431901
 32
0.0
 13
70.76581779577775
 23
19.376355950431901
 33
0.0
  0
SOLID
  5
1563
  8
DRG
  6
CONTINUOUS
 62
     7
 10
168.800488626304
 20
20.808214297160799
 30
0.0
 11
144.79494929211521
 21
19.376355950431911
 31
0.0
 12
167.57756606804321
 22
19.376355950431901
 32
0.0
 13
167.57756606804321
 23
19.376355950431901
 33
0.0
210
0.0
220
0.0
230
1.0
  0
SOLID
  5
1564
  8
DRG
  6
CONTINUOUS
 62
     7
 10
71.988740354038555
 20
20.808214297160799
 30
0.0
 11
46.76027846158906
 21
20.80821429716071
 31
0.0
 12
70.76581779577775
 22
19.376355950431901
 32
0.0
 13
70.76581779577775
 23
19.376355950431901
 33
0.0
  0
SOLID
  5
1565
  8
DRG
  6
CONTINUOUS
 62
     7
 10
143.57202673385439
 20
20.808214297160799
 30
0.0
 11
144.79494929211521
 21
19.376355950431911
 31
0.0
 12
168.800488626304
 22
20.808214297160799
 32
0.0
 13
168.800488626304
 23
20.808214297160799
 33
0.0
210
0.0
220
0.0
230
1.0
  0
SOLID
  5
1566
  8
DRG
  6
CONTINUOUS
 62
     7
 10
102.1211660476033
 20
21.102600968374279
 30
0.0
 11
102.3181837587821
 21
19.484710699009419
 31
0.0
 12
111.2870334115631
 22
20.69438210209054
 32
0.0
 13
111.2870334115631
 23
20.69438210209054
 33
0.0
210
0.0
220
0.0
230
1.0
  0
SOLID
  5
1567
  8
DRG
  6
CONTINUOUS
 62
     7
 10
24.732069813226289
 20
21.466099229816571
 30
0.0
 11
12.996201983781489
 21
20.605577205523009
 31
0.0
 12
23.40031659456379
 22
20.41223194613077
 32
0.0
 13
23.40031659456379
 23
20.41223194613077
 33
0.0
  0
SOLID
  5
1568
  8
DRG
  6
CONTINUOUS
 62
     7
 10
11.39313191169536
 20
21.733135580858232
 30
0.0
 11
12.996201983781489
 21
20.605577205523009
 31
0.0
 12
24.732069813226289
 22
21.466099229816571
 32
0.0
 13
24.732069813226289
 23
21.466099229816571
 33
0.0
210
0.0
220
0.0
230
1.0
  0
SOLID
  5
1569
  8
DRG
  6
CONTINUOUS
 62
     7
 10
101.14072764655459
 20
21.93495578856496
 30
0.0
 11
84.027895067150837
 21
20.41802219979682
 31
0.0
 12
99.896639117703884
 22
20.522111389421919
 32
0.0
 13
99.896639117703884
 23
20.522111389421919
 33
0.0
210
0.0
220
0.0
230
1.0
  0
SOLID
  5
156A
  8
DRG
  6
CONTINUOUS
 62
     7
 10
82.919900870315985
 20
22.089110506672171
 30
0.0
 11
84.027895067150837
 21
20.41802219979682
 31
0.0
 12
101.14072764655459
 22
21.93495578856496
 32
0.0
 13
101.14072764655459
 23
21.93495578856496
 33
0.0
  0
SOLID
  5
156B
  8
DRG
  6
CONTINUOUS
 62
     7
 10
45.776404103828007
 20
22.413751327795801
 30
0.0
 11
46.76027846158906
 21
20.80821429716071
 31
0.0
 12
71.988740354038555
 22
20.808214297160799
 32
0.0
 13
71.988740354038555
 23
20.808214297160799
 33
0.0
210
0.0
220
0.0
230
1.0
  0
SOLID
  5
156C
  8
DRG
  6
CONTINUOUS
 62
     7
 10
72.972614711799594
 20
22.413751327795911
 30
0.0
 11
45.776404103828007
 21
22.413751327795801
 31
0.0
 12
71.988740354038555
 22
20.808214297160799
 32
0.0
 13
71.988740354038555
 23
20.808214297160799
 33
0.0
210
0.0
220
0.0
230
1.0
  0
SOLID
  5
156D
  8
DRG
  6
CONTINUOUS
 62
     7
 10
169.78436298406501
 20
22.413751327795911
 30
0.0
 11
143.57202673385439
 21
20.808214297160799
 31
0.0
 12
168.800488626304
 22
20.808214297160799
 32
0.0
 13
168.800488626304
 23
20.808214297160799
 33
0.0
210
0.0
220
0.0
230
1.0
  0
SOLID
  5
156E
  8
DRG
  6
CONTINUOUS
 62
     7
 10
142.5881523760934
 20
22.413751327795921
 30
0.0
 11
143.57202673385439
 21
20.808214297160799
 31
0.0
 12
169.78436298406501
 22
22.413751327795911
 32
0.0
 13
169.78436298406501
 23
22.413751327795911
 33
0.0
210
0.0
220
0.0
230
1.0
  0
SOLID
  5
156F
  8
DRG
  6
CONTINUOUS
 62
     7
 10
25.844798136495001
 20
22.74907957480897
 30
0.0
 11
11.39313191169536
 21
21.733135580858232
 31
0.0
 12
24.732069813226289
 22
21.466099229816571
 32
0.0
 13
24.732069813226289
 23
21.466099229816571
 33
0.0
210
0.0
220
0.0
230
1.0
  0
SOLID
  5
1570
  8
DRG
  6
CONTINUOUS
 62
     7
 10
9.9929844969679333
 20
23.104561394688101
 30
0.0
 11
11.39313191169536
 21
21.733135580858232
 31
0.0
 12
25.844798136495001
 22
22.74907957480897
 32
0.0
 13
25.844798136495001
 23
22.74907957480897
 33
0.0
210
0.0
220
0.0
230
1.0
  0
SOLID
  5
1571
  8
DRG
  6
CONTINUOUS
 62
     7
 10
111.2523129779601
 20
23.54201089202471
 30
0.0
 11
102.1211660476033
 21
21.102600968374279
 31
0.0
 12
111.2870334115631
 22
20.69438210209054
 32
0.0
 13
111.2870334115631
 23
20.69438210209054
 33
0.0
210
0.0
220
0.0
230
1.0
  0
SOLID
  5
1572
  8
DRG
  6
CONTINUOUS
 62
     7
 10
102.1211660476033
 20
23.542010892025001
 30
0.0
 11
82.919900870315985
 21
22.089110506672171
 31
0.0
 12
101.14072764655459
 22
21.93495578856496
 32
0.0
 13
101.14072764655459
 23
21.93495578856496
 33
0.0
210
0.0
220
0.0
230
1.0
  0
SOLID
  5
1573
  8
DRG
  6
CONTINUOUS
 62
     7
 10
102.1211660476033
 20
23.542010892025001
 30
0.0
 11
102.1211660476033
 21
21.102600968374279
 31
0.0
 12
111.2523129779601
 22
23.54201089202471
 32
0.0
 13
111.2523129779601
 23
23.54201089202471
 33
0.0
210
0.0
220
0.0
230
1.0
  0
SOLID
  5
1574
  8
DRG
  6
CONTINUOUS
 62
     7
 10
156.18625891463009
 20
23.758749615986972
 30
0.0
 11
142.5881523760934
 21
22.413751327795921
 31
0.0
 12
169.78436298406501
 22
22.413751327795911
 32
0.0
 13
169.78436298406501
 23
22.413751327795911
 33
0.0
210
0.0
220
0.0
230
1.0
  0
SOLID
  5
1575
  8
DRG
  6
CONTINUOUS
 62
     7
 10
95.863486513980718
 20
23.758749615986972
 30
0.0
 11
102.1211660476033
 21
23.542010892025001
 31
0.0
 12
111.2523129779601
 22
23.54201089202471
 32
0.0
 13
111.2523129779601
 23
23.54201089202471
 33
0.0
210
0.0
220
0.0
230
1.0
  0
SOLID
  5
1576
  8
DRG
  6
CONTINUOUS
 62
     7
 10
95.863486513980718
 20
23.758749615986972
 30
0.0
 11
82.919900870315985
 21
22.089110506672171
 31
0.0
 12
102.1211660476033
 22
23.542010892025001
 32
0.0
 13
102.1211660476033
 23
23.542010892025001
 33
0.0
210
0.0
220
0.0
230
1.0
  0
SOLID
  5
1577
  8
DRG
  6
CONTINUOUS
 62
     7
 10
59.374510642364612
 20
23.758749615986979
 30
0.0
 11
45.776404103828007
 21
22.413751327795801
 31
0.0
 12
72.972614711799594
 22
22.413751327795911
 32
0.0
 13
72.972614711799594
 23
22.413751327795911
 33
0.0
210
0.0
220
0.0
230
1.0
  0
SOLID
  5
1578
  8
DRG
  6
CONTINUOUS
 62
     7
 10
155.18690699305799
 20
23.890316792430699
 30
0.0
 11
142.5881523760934
 21
22.413751327795921
 31
0.0
 12
156.18625891463009
 22
23.758749615986972
 32
0.0
 13
156.18625891463009
 23
23.758749615986972
 33
0.0
210
0.0
220
0.0
230
1.0
  0
SOLID
  5
1579
  8
DRG
  6
CONTINUOUS
 62
     7
 10
157.18561083620219
 20
23.890316792430699
 30
0.0
 11
156.18625891463009
 21
23.758749615986972
 31
0.0
 12
169.78436298406501
 22
22.413751327795911
 32
0.0
 13
169.78436298406501
 23
22.413751327795911
 33
0.0
210
0.0
220
0.0
230
1.0
  0
SOLID
  5
157A
  8
DRG
  6
CONTINUOUS
 62
     7
 10
58.375158720792513
 20
23.89031679243071
 30
0.0
 11
45.776404103828007
 21
22.413751327795801
 31
0.0
 12
59.374510642364612
 22
23.758749615986979
 32
0.0
 13
59.374510642364612
 23
23.758749615986979
 33
0.0
210
0.0
220
0.0
230
1.0
  0
SOLID
  5
157B
  8
DRG
  6
CONTINUOUS
 62
     7
 10
60.373862563936711
 20
23.89031679243071
 30
0.0
 11
59.374510642364612
 21
23.758749615986979
 31
0.0
 12
72.972614711799594
 22
22.413751327795911
 32
0.0
 13
72.972614711799594
 23
22.413751327795911
 33
0.0
210
0.0
220
0.0
230
1.0
  0
SOLID
  5
157C
  8
DRG
  6
CONTINUOUS
 62
     7
 10
94.864134592408647
 20
23.890316792430731
 30
0.0
 11
82.919900870315985
 21
22.089110506672171
 31
0.0
 12
95.863486513980718
 22
23.758749615986972
 32
0.0
 13
95.863486513980718
 23
23.758749615986972
 33
0.0
210
0.0
220
0.0
230
1.0
  0
SOLID
  5
157D
  8
DRG
  6
CONTINUOUS
 62
     7
 10
82.105613684769864
 20
23.921356027624689
 30
0.0
 11
82.919900870315985
 21
22.089110506672171
 31
0.0
 12
94.864134592408647
 22
23.890316792430731
 32
0.0
 13
94.864134592408647
 23
23.890316792430731
 33
0.0
210
0.0
220
0.0
230
1.0
  0
SOLID
  5
157E
  8
DRG
  6
CONTINUOUS
 62
     7
 10
97.173405164404457
 20
23.979508094530029
 30
0.0
 11
95.863486513980718
 21
23.758749615986972
 31
0.0
 12
111.2523129779601
 22
23.54201089202471
 32
0.0
 13
111.2523129779601
 23
23.54201089202471
 33
0.0
210
0.0
220
0.0
230
1.0
  0
SOLID
  5
157F
  8
DRG
  6
CONTINUOUS
 62
     7
 10
45.055804198546561
 20
24.153433392170971
 30
0.0
 11
45.776404103828007
 21
22.413751327795801
 31
0.0
 12
58.375158720792513
 22
23.89031679243071
 32
0.0
 13
58.375158720792513
 23
23.89031679243071
 33
0.0
  0
SOLID
  5
1580
  8
DRG
  6
CONTINUOUS
 62
     7
 10
73.693214617081026
 20
24.15343339217111
 30
0.0
 11
60.373862563936711
 21
23.89031679243071
 31
0.0
 12
72.972614711799594
 22
22.413751327795911
 32
0.0
 13
72.972614711799594
 23
22.413751327795911
 33
0.0
210
0.0
220
0.0
230
1.0
  0
SOLID
  5
1581
  8
DRG
  6
CONTINUOUS
 62
     7
 10
170.5049628893465
 20
24.15343339217111
 30
0.0
 11
157.18561083620219
 21
23.890316792430699
 31
0.0
 12
169.78436298406501
 22
22.413751327795911
 32
0.0
 13
169.78436298406501
 23
22.413751327795911
 33
0.0
210
0.0
220
0.0
230
1.0
  0
SOLID
  5
1582
  8
DRG
  6
CONTINUOUS
 62
     7
 10
141.867552470812
 20
24.15343339217111
 30
0.0
 11
142.5881523760934
 21
22.413751327795921
 31
0.0
 12
155.18690699305799
 22
23.890316792430699
 32
0.0
 13
155.18690699305799
 23
23.890316792430699
 33
0.0
210
0.0
220
0.0
230
1.0
  0
SOLID
  5
1583
  8
DRG
  6
CONTINUOUS
 62
     7
 10
26.699742183985649
 20
24.216483255703061
 30
0.0
 11
9.9929844969679333
 21
23.104561394688101
 31
0.0
 12
25.844798136495001
 22
22.74907957480897
 32
0.0
 13
25.844798136495001
 23
22.74907957480897
 33
0.0
210
0.0
220
0.0
230
1.0
  0
SOLID
  5
1584
  8
DRG
  6
CONTINUOUS
 62
     7
 10
154.25565925343389
 20
24.276052236112282
 30
0.0
 11
141.867552470812
 21
24.15343339217111
 31
0.0
 12
155.18690699305799
 22
23.890316792430699
 32
0.0
 13
155.18690699305799
 23
23.890316792430699
 33
0.0
210
0.0
220
0.0
230
1.0
  0
SOLID
  5
1585
  8
DRG
  6
CONTINUOUS
 62
     7
 10
158.11685857582631
 20
24.276052236112289
 30
0.0
 11
157.18561083620219
 21
23.890316792430699
 31
0.0
 12
170.5049628893465
 22
24.15343339217111
 32
0.0
 13
170.5049628893465
 23
24.15343339217111
 33
0.0
210
0.0
220
0.0
230
1.0
  0
SOLID
  5
1586
  8
DRG
  6
CONTINUOUS
 62
     7
 10
57.443910981168422
 20
24.276052236112289
 30
0.0
 11
45.055804198546561
 21
24.153433392170971
 31
0.0
 12
58.375158720792513
 22
23.89031679243071
 32
0.0
 13
58.375158720792513
 23
23.89031679243071
 33
0.0
210
0.0
220
0.0
230
1.0
  0
SOLID
  5
1587
  8
DRG
  6
CONTINUOUS
 62
     7
 10
61.305110303560809
 20
24.276052236112299
 30
0.0
 11
60.373862563936711
 21
23.89031679243071
 31
0.0
 12
73.693214617081026
 22
24.15343339217111
 32
0.0
 13
73.693214617081026
 23
24.15343339217111
 33
0.0
210
0.0
220
0.0
230
1.0
  0
SOLID
  5
1588
  8
DRG
  6
CONTINUOUS
 62
     7
 10
93.932886852784591
 20
24.276052236112349
 30
0.0
 11
82.105613684769864
 21
23.921356027624689
 31
0.0
 12
94.864134592408647
 22
23.890316792430731
 32
0.0
 13
94.864134592408647
 23
23.890316792430731
 33
0.0
210
0.0
220
0.0
230
1.0
  0
SOLID
  5
1589
  8
DRG
  6
CONTINUOUS
 62
     7
 10
98.402359265448993
 20
24.483782815394029
 30
0.0
 11
97.173405164404457
 21
23.979508094530029
 31
0.0
 12
111.2523129779601
 22
23.54201089202471
 32
0.0
 13
111.2523129779601
 23
23.54201089202471
 33
0.0
210
0.0
220
0.0
230
1.0
  0
SOLID
  5
158A
  8
DRG
  6
CONTINUOUS
 62
     7
 10
8.8324468561460723
 20
24.6839201031652
 30
0.0
 11
9.9929844969679333
 21
23.104561394688101
 31
0.0
 12
26.699742183985649
 22
24.216483255703061
 32
0.0
 13
26.699742183985649
 23
24.216483255703061
 33
0.0
  0
SOLID
  5
158B
  8
DRG
  6
CONTINUOUS
 62
     7
 10
153.45597869025349
 20
24.889668714002791
 30
0.0
 11
141.867552470812
 21
24.15343339217111
 31
0.0
 12
154.25565925343389
 22
24.276052236112282
 32
0.0
 13
154.25565925343389
 23
24.276052236112282
 33
0.0
210
0.0
220
0.0
230
1.0
  0
SOLID
  5
158C
  8
DRG
  6
CONTINUOUS
 62
     7
 10
158.9165391390066
 20
24.889668714002799
 30
0.0
 11
158.11685857582631
 21
24.276052236112289
 31
0.0
 12
170.5049628893465
 22
24.15343339217111
 32
0.0
 13
170.5049628893465
 23
24.15343339217111
 33
0.0
  0
SOLID
  5
158D
  8
DRG
  6
CONTINUOUS
 62
     7
 10
56.644230417988048
 20
24.889668714002799
 30
0.0
 11
45.055804198546561
 21
24.153433392170971
 31
0.0
 12
57.443910981168422
 22
24.276052236112289
 32
0.0
 13
57.443910981168422
 23
24.276052236112289
 33
0.0
  0
SOLID
  5
158E
  8
DRG
  6
CONTINUOUS
 62
     7
 10
62.104790866741169
 20
24.889668714002809
 30
0.0
 11
61.305110303560809
 21
24.276052236112299
 31
0.0
 12
73.693214617081026
 22
24.15343339217111
 32
0.0
 13
73.693214617081026
 23
24.15343339217111
 33
0.0
210
0.0
220
0.0
230
1.0
  0
SOLID
  5
158F
  8
DRG
  6
CONTINUOUS
 62
     7
 10
93.13320628960426
 20
24.889668714002859
 30
0.0
 11
82.105613684769864
 21
23.921356027624689
 31
0.0
 12
93.932886852784591
 22
24.276052236112349
 32
0.0
 13
93.932886852784591
 23
24.276052236112349
 33
0.0
210
0.0
220
0.0
230
1.0
  0
SOLID
  5
1590
  8
DRG
  6
CONTINUOUS
 62
     7
 10
99.489802543822094
 20
25.246729925551559
 30
0.0
 11
98.402359265448993
 21
24.483782815394029
 31
0.0
 12
111.2523129779601
 22
23.54201089202471
 32
0.0
 13
111.2523129779601
 23
23.54201089202471
 33
0.0
210
0.0
220
0.0
230
1.0
  0
SOLID
  5
1591
  8
DRG
  6
CONTINUOUS
 62
     7
 10
22.683854862926161
 20
25.455509253088579
 30
0.0
 11
8.8324468561460723
 21
24.6839201031652
 31
0.0
 12
26.699742183985649
 22
24.216483255703061
 32
0.0
 13
26.699742183985649
 23
24.216483255703061
 33
0.0
210
0.0
220
0.0
230
1.0
  0
SOLID
  5
1592
  8
DRG
  6
CONTINUOUS
 62
     7
 10
21.516111098510319
 20
25.556644831790699
 30
0.0
 11
8.8324468561460723
 21
24.6839201031652
 31
0.0
 12
22.683854862926161
 22
25.455509253088579
 32
0.0
 13
22.683854862926161
 23
25.455509253088579
 33
0.0
  0
SOLID
  5
1593
  8
DRG
  6
CONTINUOUS
 62
     7
 10
152.84236221236301
 20
25.689349277183162
 30
0.0
 11
141.867552470812
 21
24.15343339217111
 31
0.0
 12
153.45597869025349
 22
24.889668714002791
 32
0.0
 13
153.45597869025349
 23
24.889668714002791
 33
0.0
210
0.0
220
0.0
230
1.0
  0
SOLID
  5
1594
  8
DRG
  6
CONTINUOUS
 62
     7
 10
159.5301556168971
 20
25.689349277183162
 30
0.0
 11
158.9165391390066
 21
24.889668714002799
 31
0.0
 12
170.5049628893465
 22
24.15343339217111
 32
0.0
 13
170.5049628893465
 23
24.15343339217111
 33
0.0
210
0.0
220
0.0
230
1.0
  0
SOLID
  5
1595
  8
DRG
  6
CONTINUOUS
 62
     7
 10
56.030613940097538
 20
25.689349277183169
 30
0.0
 11
45.055804198546561
 21
24.153433392170971
 31
0.0
 12
56.644230417988048
 22
24.889668714002799
 32
0.0
 13
56.644230417988048
 23
24.889668714002799
 33
0.0
210
0.0
220
0.0
230
1.0
  0
SOLID
  5
1596
  8
DRG
  6
CONTINUOUS
 62
     7
 10
62.718407344631679
 20
25.689349277183169
 30
0.0
 11
62.104790866741169
 21
24.889668714002809
 31
0.0
 12
73.693214617081026
 22
24.15343339217111
 32
0.0
 13
73.693214617081026
 23
24.15343339217111
 33
0.0
210
0.0
220
0.0
230
1.0
  0
SOLID
  5
1597
  8
DRG
  6
CONTINUOUS
 62
     7
 10
92.519589811713786
 20
25.689349277183219
 30
0.0
 11
82.105613684769864
 21
23.921356027624689
 31
0.0
 12
93.13320628960426
 22
24.889668714002859
 32
0.0
 13
93.13320628960426
 23
24.889668714002859
 33
0.0
210
0.0
220
0.0
230
1.0
  0
SOLID
  5
1598
  8
DRG
  6
CONTINUOUS
 62
     7
 10
27.267121908897021
 20
25.817196576320061
 30
0.0
 11
22.683854862926161
 21
25.455509253088579
 31
0.0
 12
26.699742183985649
 22
24.216483255703061
 32
0.0
 13
26.699742183985649
 23
24.216483255703061
 33
0.0
210
0.0
220
0.0
230
1.0
  0
SOLID
  5
1599
  8
DRG
  6
CONTINUOUS
 62
     7
 10
27.267121908897021
 20
25.817196576320061
 30
0.0
 11
27.267121908897021
 21
13.51984597021351
 31
0.0
 12
37.639779947293839
 22
13.760967175618781
 32
0.0
 13
37.639779947293839
 23
13.760967175618781
 33
0.0
  0
SOLID
  5
159A
  8
DRG
  6
CONTINUOUS
 62
     7
 10
81.607766753409166
 20
25.863606192389771
 30
0.0
 11
82.105613684769864
 21
23.921356027624689
 31
0.0
 12
92.519589811713786
 22
25.689349277183219
 32
0.0
 13
92.519589811713786
 23
25.689349277183219
 33
0.0
210
0.0
220
0.0
230
1.0
  0
SOLID
  5
159B
  8
DRG
  6
CONTINUOUS
 62
     7
 10
20.399095162792051
 20
25.911791708396589
 30
0.0
 11
8.8324468561460723
 21
24.6839201031652
 31
0.0
 12
21.516111098510319
 22
25.556644831790699
 32
0.0
 13
21.516111098510319
 23
25.556644831790699
 33
0.0
  0
SOLID
  5
159C
  8
DRG
  6
CONTINUOUS
 62
     7
 10
44.616222306946739
 20
25.984423744187549
 30
0.0
 11
45.055804198546561
 21
24.153433392170971
 31
0.0
 12
56.030613940097538
 22
25.689349277183169
 32
0.0
 13
56.030613940097538
 23
25.689349277183169
 33
0.0
210
0.0
220
0.0
230
1.0
  0
SOLID
  5
159D
  8
DRG
  6
CONTINUOUS
 62
     7
 10
170.9445447809463
 20
25.984423744187708
 30
0.0
 11
159.5301556168971
 21
25.689349277183162
 31
0.0
 12
170.5049628893465
 22
24.15343339217111
 32
0.0
 13
170.5049628893465
 23
24.15343339217111
 33
0.0
210
0.0
220
0.0
230
1.0
  0
SOLID
  5
159E
  8
DRG
  6
CONTINUOUS
 62
     7
 10
74.13279650868084
 20
25.984423744187708
 30
0.0
 11
62.718407344631679
 21
25.689349277183169
 31
0.0
 12
73.693214617081026
 22
24.15343339217111
 32
0.0
 13
73.693214617081026
 23
24.15343339217111
 33
0.0
210
0.0
220
0.0
230
1.0
  0
SOLID
  5
159F
  8
DRG
  6
CONTINUOUS
 62
     7
 10
141.4279705792122
 20
25.984423744187708
 30
0.0
 11
141.867552470812
 21
24.15343339217111
 31
0.0
 12
152.84236221236301
 22
25.689349277183162
 32
0.0
 13
152.84236221236301
 23
25.689349277183162
 33
0.0
210
0.0
220
0.0
230
1.0
  0
SOLID
  5
15A0
  8
DRG
  6
CONTINUOUS
 62
     7
 10
24.051224454271221
 20
25.98993993797998
 30
0.0
 11
22.683854862926161
 21
25.455509253088579
 31
0.0
 12
27.267121908897021
 22
25.817196576320061
 32
0.0
 13
27.267121908897021
 23
25.817196576320061
 33
0.0
210
0.0
220
0.0
230
1.0
  0
SOLID
  5
15A1
  8
DRG
  6
CONTINUOUS
 62
     7
 10
100.382160469876
 20
26.230761687429851
 30
0.0
 11
99.489802543822094
 21
25.246729925551559
 31
0.0
 12
111.2523129779601
 22
23.54201089202471
 32
0.0
 13
111.2523129779601
 23
23.54201089202471
 33
0.0
210
0.0
220
0.0
230
1.0
  0
SOLID
  5
15A2
  8
DRG
  6
CONTINUOUS
 62
     7
 10
7.9419277727893016
 20
26.429828837316059
 30
0.0
 11
8.8324468561460723
 21
24.6839201031652
 31
0.0
 12
20.399095162792051
 22
25.911791708396589
 32
0.0
 13
20.399095162792051
 23
25.911791708396589
 33
0.0
210
0.0
220
0.0
230
1.0
  0
SOLID
  5
15A3
  8
DRG
  6
CONTINUOUS
 62
     7
 10
19.387358884110071
 20
26.503605536395071
 30
0.0
 11
7.9419277727893016
 21
26.429828837316059
 31
0.0
 12
20.399095162792051
 22
25.911791708396589
 32
0.0
 13
20.399095162792051
 23
25.911791708396589
 33
0.0
210
0.0
220
0.0
230
1.0
  0
SOLID
  5
15A4
  8
DRG
  6
CONTINUOUS
 62
     7
 10
152.45662676868139
 20
26.62059701680726
 30
0.0
 11
141.4279705792122
 21
25.984423744187708
 31
0.0
 12
152.84236221236301
 22
25.689349277183162
 32
0.0
 13
152.84236221236301
 23
25.689349277183162
 33
0.0
210
0.0
220
0.0
230
1.0
  0
SOLID
  5
15A5
  8
DRG
  6
CONTINUOUS
 62
     7
 10
159.91589106057879
 20
26.62059701680727
 30
0.0
 11
159.5301556168971
 21
25.689349277183162
 31
0.0
 12
170.9445447809463
 22
25.984423744187708
 32
0.0
 13
170.9445447809463
 23
25.984423744187708
 33
0.0
210
0.0
220
0.0
230
1.0
  0
SOLID
  5
15A6
  8
DRG
  6
CONTINUOUS
 62
     7
 10
55.644878496415949
 20
26.62059701680727
 30
0.0
 11
44.616222306946739
 21
25.984423744187549
 31
0.0
 12
56.030613940097538
 22
25.689349277183169
 32
0.0
 13
56.030613940097538
 23
25.689349277183169
 33
0.0
210
0.0
220
0.0
230
1.0
  0
SOLID
  5
15A7
  8
DRG
  6
CONTINUOUS
 62
     7
 10
63.104142788313268
 20
26.62059701680727
 30
0.0
 11
62.718407344631679
 21
25.689349277183169
 31
0.0
 12
74.13279650868084
 22
25.984423744187708
 32
0.0
 13
74.13279650868084
 23
25.984423744187708
 33
0.0
210
0.0
220
0.0
230
1.0
  0
SOLID
  5
15A8
  8
DRG
  6
CONTINUOUS
 62
     7
 10
92.133854368032203
 20
26.620597016807292
 30
0.0
 11
81.607766753409166
 21
25.863606192389771
 31
0.0
 12
92.519589811713786
 22
25.689349277183219
 32
0.0
 13
92.519589811713786
 23
25.689349277183219
 33
0.0
210
0.0
220
0.0
230
1.0
  0
SOLID
  5
15A9
  8
DRG
  6
CONTINUOUS
 62
     7
 10
25.258677615930779
 20
26.825028327725018
 30
0.0
 11
24.051224454271221
 21
25.98993993797998
 31
0.0
 12
27.267121908897021
 22
25.817196576320061
 32
0.0
 13
27.267121908897021
 23
25.817196576320061
 33
0.0
210
0.0
220
0.0
230
1.0
  0
SOLID
  5
15AA
  8
DRG
  6
CONTINUOUS
 62
     7
 10
18.530312536779942
 20
27.303183839714741
 30
0.0
 11
7.9419277727893016
 21
26.429828837316059
 31
0.0
 12
19.387358884110071
 22
26.503605536395071
 32
0.0
 13
19.387358884110071
 23
26.503605536395071
 33
0.0
210
0.0
220
0.0
230
1.0
  0
SOLID
  5
15AB
  8
DRG
  6
CONTINUOUS
 62
     7
 10
101.0354696874371
 20
27.38739829536954
 30
0.0
 11
100.382160469876
 21
26.230761687429851
 31
0.0
 12
111.2523129779601
 22
23.54201089202471
 32
0.0
 13
111.2523129779601
 23
23.54201089202471
 33
0.0
210
0.0
220
0.0
230
1.0
  0
SOLID
  5
15AC
  8
DRG
  6
CONTINUOUS
 62
     7
 10
92.002287191588479
 20
27.619948938379359
 30
0.0
 11
81.607766753409166
 21
25.863606192389771
 31
0.0
 12
92.133854368032203
 22
26.620597016807292
 32
0.0
 13
92.133854368032203
 23
26.620597016807292
 33
0.0
210
0.0
220
0.0
230
1.0
  0
SOLID
  5
15AD
  8
DRG
  6
CONTINUOUS
 62
     7
 10
152.32505959223769
 20
27.619948938379359
 30
0.0
 11
141.4279705792122
 21
25.984423744187708
 31
0.0
 12
152.45662676868139
 22
26.62059701680726
 32
0.0
 13
152.45662676868139
 23
26.62059701680726
 33
0.0
210
0.0
220
0.0
230
1.0
  0
SOLID
  5
15AE
  8
DRG
  6
CONTINUOUS
 62
     7
 10
160.04745823702251
 20
27.619948938379359
 30
0.0
 11
159.91589106057879
 21
26.62059701680727
 31
0.0
 12
170.9445447809463
 22
25.984423744187708
 32
0.0
 13
170.9445447809463
 23
25.984423744187708
 33
0.0
210
0.0
220
0.0
230
1.0
  0
SOLID
  5
15AF
  8
DRG
  6
CONTINUOUS
 62
     7
 10
55.513311319972217
 20
27.61994893837937
 30
0.0
 11
44.616222306946739
 21
25.984423744187549
 31
0.0
 12
55.644878496415949
 22
26.62059701680727
 32
0.0
 13
55.644878496415949
 23
26.62059701680727
 33
0.0
  0
SOLID
  5
15B0
  8
DRG
  6
CONTINUOUS
 62
     7
 10
63.235709964757007
 20
27.61994893837937
 30
0.0
 11
63.104142788313268
 21
26.62059701680727
 31
0.0
 12
74.13279650868084
 22
25.984423744187708
 32
0.0
 13
74.13279650868084
 23
25.984423744187708
 33
0.0
  0
SOLID
  5
15B1
  8
DRG
  6
CONTINUOUS
 62
     7
 10
44.468482394088362
 20
27.861637324670291
 30
0.0
 11
44.616222306946739
 21
25.984423744187549
 31
0.0
 12
55.513311319972217
 22
27.61994893837937
 32
0.0
 13
55.513311319972217
 23
27.61994893837937
 33
0.0
  0
SOLID
  5
15B2
  8
DRG
  6
CONTINUOUS
 62
     7
 10
171.0922846938046
 20
27.861637324670479
 30
0.0
 11
160.04745823702251
 21
27.619948938379359
 31
0.0
 12
170.9445447809463
 22
25.984423744187708
 32
0.0
 13
170.9445447809463
 23
25.984423744187708
 33
0.0
210
0.0
220
0.0
230
1.0
  0
SOLID
  5
15B3
  8
DRG
  6
CONTINUOUS
 62
     7
 10
74.280536421539182
 20
27.861637324670479
 30
0.0
 11
63.235709964757007
 21
27.61994893837937
 31
0.0
 12
74.13279650868084
 22
25.984423744187708
 32
0.0
 13
74.13279650868084
 23
25.984423744187708
 33
0.0
210
0.0
220
0.0
230
1.0
  0
SOLID
  5
15B4
  8
DRG
  6
CONTINUOUS
 62
     7
 10
141.28023066635379
 20
27.861637324670479
 30
0.0
 11
141.4279705792122
 21
25.984423744187708
 31
0.0
 12
152.32505959223769
 22
27.619948938379359
 32
0.0
 13
152.32505959223769
 23
27.619948938379359
 33
0.0
  0
SOLID
  5
15B5
  8
DRG
  6
CONTINUOUS
 62
     7
 10
81.440258950509346
 20
27.861637324670479
 30
0.0
 11
81.607766753409166
 21
25.863606192389771
 31
0.0
 12
92.002287191588479
 22
27.619948938379359
 32
0.0
 13
92.002287191588479
 23
27.619948938379359
 33
0.0
210
0.0
220
0.0
230
1.0
  0
SOLID
  5
15B6
  8
DRG
  6
CONTINUOUS
 62
     7
 10
26.241246459003619
 20
27.915841888747771
 30
0.0
 11
25.258677615930779
 21
26.825028327725018
 31
0.0
 12
27.267121908897021
 22
25.817196576320061
 32
0.0
 13
27.267121908897021
 23
25.817196576320061
 33
0.0
210
0.0
220
0.0
230
1.0
  0
SOLID
  5
15B7
  8
DRG
  6
CONTINUOUS
 62
     7
 10
26.241246459003619
 20
27.915841888747771
 30
0.0
 11
27.267121908897021
 21
25.817196576320061
 31
0.0
 12
37.639779947293839
 22
13.760967175618781
 32
0.0
 13
37.639779947293839
 23
13.760967175618781
 33
0.0
210
0.0
220
0.0
230
1.0
  0
SOLID
  5
15B8
  8
DRG
  6
CONTINUOUS
 62
     7
 10
17.869811786171208
 20
28.271477526081021
 30
0.0
 11
7.9419277727893016
 21
26.429828837316059
 31
0.0
 12
18.530312536779942
 22
27.303183839714741
 32
0.0
 13
18.530312536779942
 23
27.303183839714741
 33
0.0
  0
SOLID
  5
15B9
  8
DRG
  6
CONTINUOUS
 62
     7
 10
7.3447609166631631
 20
28.296540730392032
 30
0.0
 11
7.9419277727893016
 21
26.429828837316059
 31
0.0
 12
17.869811786171208
 22
28.271477526081021
 32
0.0
 13
17.869811786171208
 23
28.271477526081021
 33
0.0
210
0.0
220
0.0
230
1.0
  0
SOLID
  5
15BA
  8
DRG
  6
CONTINUOUS
 62
     7
 10
101.4175439347101
 20
28.659656306209889
 30
0.0
 11
101.0354696874371
 21
27.38739829536954
 31
0.0
 12
111.2523129779601
 22
23.54201089202471
 32
0.0
 13
111.2523129779601
 23
23.54201089202471
 33
0.0
210
0.0
220
0.0
230
1.0
  0
SOLID
  5
15BB
  8
DRG
  6
CONTINUOUS
 62
     7
 10
26.946063157671311
 20
29.203688610049579
 30
0.0
 11
26.241246459003619
 21
27.915841888747771
 31
0.0
 12
37.639779947293839
 22
13.760967175618781
 32
0.0
 13
37.639779947293839
 23
13.760967175618781
 33
0.0
210
0.0
220
0.0
230
1.0
  0
SOLID
  5
15BC
  8
DRG
  6
CONTINUOUS
 62
     7
 10
160.04745823702251
 20
29.300230626583549
 30
0.0
 11
160.04745823702251
 21
27.619948938379359
 31
0.0
 12
171.0922846938046
 22
27.861637324670479
 32
0.0
 13
171.0922846938046
 23
27.861637324670479
 33
0.0
210
0.0
220
0.0
230
1.0
  0
SOLID
  5
15BD
  8
DRG
  6
CONTINUOUS
 62
     7
 10
17.43811357904055
 20
29.36119793176848
 30
0.0
 11
7.3447609166631631
 21
28.296540730392032
 31
0.0
 12
17.869811786171208
 22
28.271477526081021
 32
0.0
 13
17.869811786171208
 23
28.271477526081021
 33
0.0
210
0.0
220
0.0
230
1.0
  0
SOLID
  5
15BE
  8
DRG
  6
CONTINUOUS
 62
     7
 10
152.32505959223769
 20
29.959298931438969
 30
0.0
 11
141.28023066635379
 21
27.861637324670479
 31
0.0
 12
152.32505959223769
 22
27.619948938379359
 32
0.0
 13
152.32505959223769
 23
27.619948938379359
 33
0.0
210
0.0
220
0.0
230
1.0
  0
SOLID
  5
15BF
  8
DRG
  6
CONTINUOUS
 62
     7
 10
141.28023066635379
 20
29.95929893143898
 30
0.0
 11
141.28023066635379
 21
27.861637324670479
 31
0.0
 12
152.32505959223769
 22
29.959298931438969
 32
0.0
 13
152.32505959223769
 23
29.959298931438969
 33
0.0
210
0.0
220
0.0
230
1.0
  0
SOLID
  5
15C0
  8
DRG
  6
CONTINUOUS
 62
     7
 10
171.0922846938046
 20
29.95929893143904
 30
0.0
 11
160.04745823702251
 21
29.300230626583549
 31
0.0
 12
171.0922846938046
 22
27.861637324670479
 32
0.0
 13
171.0922846938046
 23
27.861637324670479
 33
0.0
210
0.0
220
0.0
230
1.0
  0
SOLID
  5
15C1
  8
DRG
  6
CONTINUOUS
 62
     7
 10
101.5095597489034
 20
29.984856014372749
 30
0.0
 11
101.4175439347101
 21
28.659656306209889
 31
0.0
 12
111.2523129779601
 22
23.54201089202471
 32
0.0
 13
111.2523129779601
 23
23.54201089202471
 33
0.0
  0
SOLID
  5
15C2
  8
DRG
  6
CONTINUOUS
 62
     7
 10
7.0565934473582743
 20
30.23514359210488
 30
0.0
 11
7.3447609166631631
 21
28.296540730392032
 31
0.0
 12
17.43811357904055
 22
29.36119793176848
 32
0.0
 13
17.43811357904055
 23
29.36119793176848
 33
0.0
210
0.0
220
0.0
230
1.0
  0
SOLID
  5
15C3
  8
DRG
  6
CONTINUOUS
 62
     7
 10
17.256300807526252
 20
30.5191262631974
 30
0.0
 11
7.0565934473582743
 21
30.23514359210488
 31
0.0
 12
17.43811357904055
 22
29.36119793176848
 32
0.0
 13
17.43811357904055
 23
29.36119793176848
 33
0.0
210
0.0
220
0.0
230
1.0
  0
SOLID
  5
15C4
  8
DRG
  6
CONTINUOUS
 62
     7
 10
159.3203063536362
 20
30.602411060542401
 30
0.0
 11
160.04745823702251
 21
29.300230626583549
 31
0.0
 12
171.0922846938046
 22
29.95929893143904
 32
0.0
 13
171.0922846938046
 23
29.95929893143904
 33
0.0
210
0.0
220
0.0
230
1.0
  0
SOLID
  5
15C5
  8
DRG
  6
CONTINUOUS
 62
     7
 10
27.335204540726242
 20
30.619274969224719
 30
0.0
 11
26.946063157671311
 21
29.203688610049579
 31
0.0
 12
37.639779947293839
 22
13.760967175618781
 32
0.0
 13
37.639779947293839
 23
13.760967175618781
 33
0.0
210
0.0
220
0.0
230
1.0
  0
SOLID
  5
15C6
  8
DRG
  6
CONTINUOUS
 62
     7
 10
63.235709964757
 20
30.81688778835381
 30
0.0
 11
63.235709964757007
 21
27.61994893837937
 31
0.0
 12
74.280536421539182
 22
27.861637324670479
 32
0.0
 13
74.280536421539182
 23
27.861637324670479
 33
0.0
210
0.0
220
0.0
230
1.0
  0
SOLID
  5
15C7
  8
DRG
  6
CONTINUOUS
 62
     7
 10
74.280536421539196
 20
30.816887788353831
 30
0.0
 11
63.235709964757
 21
30.81688778835381
 31
0.0
 12
74.280536421539182
 22
27.861637324670479
 32
0.0
 13
74.280536421539182
 23
27.861637324670479
 33
0.0
210
0.0
220
0.0
230
1.0
  0
SOLID
  5
15C8
  8
DRG
  6
CONTINUOUS
 62
     7
 10
158.32349423287391
 20
31.711820516063149
 30
0.0
 11
159.3203063536362
 21
30.602411060542401
 31
0.0
 12
171.0922846938046
 22
29.95929893143904
 32
0.0
 13
171.0922846938046
 23
29.95929893143904
 33
0.0
210
0.0
220
0.0
230
1.0
  0
SOLID
  5
15C9
  8
DRG
  6
CONTINUOUS
 62
     7
 10
170.6773093972524
 20
31.7696415103639
 30
0.0
 11
158.32349423287391
 21
31.711820516063149
 31
0.0
 12
171.0922846938046
 22
29.95929893143904
 32
0.0
 13
171.0922846938046
 23
29.95929893143904
 33
0.0
210
0.0
220
0.0
230
1.0
  0
SOLID
  5
15CA
  8
DRG
  6
CONTINUOUS
 62
     7
 10
27.387732575171409
 20
32.086434320449378
 30
0.0
 11
27.335204540726242
 21
30.619274969224719
 31
0.0
 12
37.639779947293839
 22
13.760967175618781
 32
0.0
 13
37.639779947293839
 23
13.760967175618781
 33
0.0
210
0.0
220
0.0
230
1.0
  0
SOLID
  5
15CB
  8
DRG
  6
CONTINUOUS
 62
     7
 10
81.440258950509346
 20
32.349374231810209
 30
0.0
 11
81.440258950509346
 21
27.861637324670479
 31
0.0
 12
92.002287191588479
 22
27.619948938379359
 32
0.0
 13
92.002287191588479
 23
27.619948938379359
 33
0.0
210
0.0
220
0.0
230
1.0
  0
SOLID
  5
15CC
  8
DRG
  6
CONTINUOUS
 62
     7
 10
157.10626025321309
 20
32.573658774007562
 30
0.0
 11
158.32349423287391
 21
31.711820516063149
 31
0.0
 12
170.6773093972524
 22
31.7696415103639
 32
0.0
 13
170.6773093972524
 23
31.7696415103639
 33
0.0
210
0.0
220
0.0
230
1.0
  0
SOLID
  5
15CD
  8
DRG
  6
CONTINUOUS
 62
     7
 10
92.002287191588479
 20
33.041326503689838
 30
0.0
 11
81.440258950509346
 21
32.349374231810209
 31
0.0
 12
92.002287191588479
 22
27.619948938379359
 32
0.0
 13
92.002287191588479
 23
27.619948938379359
 33
0.0
210
0.0
220
0.0
230
1.0
  0
SOLID
  5
15CE
  8
DRG
  6
CONTINUOUS
 62
     7
 10
155.72873071743231
 20
33.145354604103439
 30
0.0
 11
157.10626025321309
 21
32.573658774007562
 31
0.0
 12
170.6773093972524
 22
31.7696415103639
 32
0.0
 13
170.6773093972524
 23
31.7696415103639
 33
0.0
210
0.0
220
0.0
230
1.0
  0
SOLID
  5
15CF
  8
DRG
  6
CONTINUOUS
 62
     7
 10
169.98794975822989
 20
33.494265538349083
 30
0.0
 11
155.72873071743231
 21
33.145354604103439
 31
0.0
 12
170.6773093972524
 22
31.7696415103639
 32
0.0
 13
170.6773093972524
 23
31.7696415103639
 33
0.0
210
0.0
220
0.0
230
1.0
  0
SOLID
  5
15D0
  8
DRG
  6
CONTINUOUS
 62
     7
 10
44.202306277704807
 20
33.59256797502097
 30
0.0
 11
44.468482394088362
 21
27.861637324670291
 31
0.0
 12
55.513311319972217
 22
27.61994893837937
 32
0.0
 13
55.513311319972217
 23
27.61994893837937
 33
0.0
210
0.0
220
0.0
230
1.0
  0
SOLID
  5
15D1
  8
DRG
  6
CONTINUOUS
 62
     7
 10
153.369705253798
 20
33.829362578962773
 30
0.0
 11
155.72873071743231
 21
33.145354604103439
 31
0.0
 12
169.98794975822989
 22
33.494265538349083
 32
0.0
 13
169.98794975822989
 23
33.494265538349083
 33
0.0
210
0.0
220
0.0
230
1.0
  0
SOLID
  5
15D2
  8
DRG
  6
CONTINUOUS
 62
     7
 10
81.820749237344913
 20
34.247867360112373
 30
0.0
 11
81.440258950509346
 21
32.349374231810209
 31
0.0
 12
92.002287191588479
 22
33.041326503689838
 32
0.0
 13
92.002287191588479
 23
33.041326503689838
 33
0.0
210
0.0
220
0.0
230
1.0
  0
SOLID
  5
15D3
  8
DRG
  6
CONTINUOUS
 62
     7
 10
92.479240148315725
 20
34.283253552925949
 30
0.0
 11
81.820749237344913
 21
34.247867360112373
 31
0.0
 12
92.002287191588479
 22
33.041326503689838
 32
0.0
 13
92.002287191588479
 23
33.041326503689838
 33
0.0
210
0.0
220
0.0
230
1.0
  0
SOLID
  5
15D4
  8
DRG
  6
CONTINUOUS
 62
     7
 10
151.10859018591131
 20
34.788647050598478
 30
0.0
 11
153.369705253798
 21
33.829362578962773
 31
0.0
 12
169.98794975822989
 22
33.494265538349083
 32
0.0
 13
169.98794975822989
 23
33.494265538349083
 33
0.0
210
0.0
220
0.0
230
1.0
  0
SOLID
  5
15D5
  8
DRG
  6
CONTINUOUS
 62
     7
 10
169.04071950537289
 20
35.091857350386633
 30
0.0
 11
151.10859018591131
 21
34.788647050598478
 31
0.0
 12
169.98794975822989
 22
33.494265538349083
 32
0.0
 13
169.98794975822989
 23
33.494265538349083
 33
0.0
210
0.0
220
0.0
230
1.0
  0
SOLID
  5
15D6
  8
DRG
  6
CONTINUOUS
 62
     7
 10
93.226716747323209
 20
35.383774180852313
 30
0.0
 11
81.820749237344913
 21
34.247867360112373
 31
0.0
 12
92.479240148315725
 22
34.283253552925949
 32
0.0
 13
92.479240148315725
 23
34.283253552925949
 33
0.0
210
0.0
220
0.0
230
1.0
  0
SOLID
  5
15D7
  8
DRG
  6
CONTINUOUS
 62
     7
 10
6.8194686220556227
 20
35.544827589343662
 30
0.0
 11
7.0565934473582743
 21
30.23514359210488
 31
0.0
 12
17.256300807526252
 22
30.5191262631974
 32
0.0
 13
17.256300807526252
 23
30.5191262631974
 33
0.0
  0
SOLID
  5
15D8
  8
DRG
  6
CONTINUOUS
 62
     7
 10
55.513311319972232
 20
35.629722934820848
 30
0.0
 11
44.202306277704807
 21
33.59256797502097
 31
0.0
 12
55.513311319972217
 22
27.61994893837937
 32
0.0
 13
55.513311319972217
 23
27.61994893837937
 33
0.0
210
0.0
220
0.0
230
1.0
  0
SOLID
  5
15D9
  8
DRG
  6
CONTINUOUS
 62
     7
 10
148.97737973443
 20
36.009634380280168
 30
0.0
 11
151.10859018591131
 21
34.788647050598478
 31
0.0
 12
169.04071950537289
 22
35.091857350386633
 32
0.0
 13
169.04071950537289
 23
35.091857350386633
 33
0.0
210
0.0
220
0.0
230
1.0
  0
SOLID
  5
15DA
  8
DRG
  6
CONTINUOUS
 62
     7
 10
82.501617102078072
 20
36.060453349068602
 30
0.0
 11
81.820749237344913
 21
34.247867360112373
 31
0.0
 12
93.226716747323209
 22
35.383774180852313
 32
0.0
 13
93.226716747323209
 23
35.383774180852313
 33
0.0
210
0.0
220
0.0
230
1.0
  0
SOLID
  5
15DB
  8
DRG
  6
CONTINUOUS
 62
     7
 10
94.205364320613299
 20
36.284948884141627
 30
0.0
 11
82.501617102078072
 21
36.060453349068602
 31
0.0
 12
93.226716747323209
 22
35.383774180852313
 32
0.0
 13
93.226716747323209
 23
35.383774180852313
 33
0.0
210
0.0
220
0.0
230
1.0
  0
SOLID
  5
15DC
  8
DRG
  6
CONTINUOUS
 62
     7
 10
167.85830970219251
 20
36.524146360035118
 30
0.0
 11
148.97737973443
 21
36.009634380280168
 31
0.0
 12
169.04071950537289
 22
35.091857350386633
 32
0.0
 13
169.04071950537289
 23
35.091857350386633
 33
0.0
210
0.0
220
0.0
230
1.0
  0
SOLID
  5
15DD
  8
DRG
  6
CONTINUOUS
 62
     7
 10
95.363659659179305
 20
36.939333195698268
 30
0.0
 11
82.501617102078072
 21
36.060453349068602
 31
0.0
 12
94.205364320613299
 22
36.284948884141627
 32
0.0
 13
94.205364320613299
 23
36.284948884141627
 33
0.0
210
0.0
220
0.0
230
1.0
  0
SOLID
  5
15DE
  8
DRG
  6
CONTINUOUS
 62
     7
 10
96.640621573827801
 20
37.312475510495823
 30
0.0
 11
82.501617102078072
 21
36.060453349068602
 31
0.0
 12
95.363659659179305
 22
36.939333195698268
 32
0.0
 13
95.363659659179305
 23
36.939333195698268
 33
0.0
210
0.0
220
0.0
230
1.0
  0
SOLID
  5
15DF
  8
DRG
  6
CONTINUOUS
 62
     7
 10
101.5095597489034
 20
37.384730871555568
 30
0.0
 11
101.5095597489034
 21
29.984856014372749
 31
0.0
 12
111.2523129779601
 22
23.54201089202471
 32
0.0
 13
111.2523129779601
 23
23.54201089202471
 33
0.0
210
0.0
220
0.0
230
1.0
  0
SOLID
  5
15E0
  8
DRG
  6
CONTINUOUS
 62
     7
 10
147.0062300017226
 20
37.475047898367571
 30
0.0
 11
148.97737973443
 21
36.009634380280168
 31
0.0
 12
167.85830970219251
 22
36.524146360035118
 32
0.0
 13
167.85830970219251
 23
36.524146360035118
 33
0.0
210
0.0
220
0.0
230
1.0
  0
SOLID
  5
15E1
  8
DRG
  6
CONTINUOUS
 62
     7
 10
83.465136107217845
 20
37.739941408961009
 30
0.0
 11
96.640621573827801
 21
37.312475510495823
 31
0.0
 12
97.969021393668683
 22
37.384730871555568
 32
0.0
 13
97.969021393668683
 23
37.384730871555568
 33
0.0
210
0.0
220
0.0
230
1.0
  0
SOLID
  5
15E2
  8
DRG
  6
CONTINUOUS
 62
     7
 10
83.465136107217845
 20
37.739941408961009
 30
0.0
 11
82.501617102078072
 21
36.060453349068602
 31
0.0
 12
96.640621573827801
 22
37.312475510495823
 32
0.0
 13
96.640621573827801
 23
37.312475510495823
 33
0.0
210
0.0
220
0.0
230
1.0
  0
SOLID
  5
15E3
  8
DRG
  6
CONTINUOUS
 62
     7
 10
166.4690451787491
 20
37.756821837895572
 30
0.0
 11
147.0062300017226
 21
37.475047898367571
 31
0.0
 12
167.85830970219251
 22
36.524146360035118
 32
0.0
 13
167.85830970219251
 23
36.524146360035118
 33
0.0
210
0.0
220
0.0
230
1.0
  0
SOLID
  5
15E4
  8
DRG
  6
CONTINUOUS
 62
     7
 10
164.90620600547979
 20
38.760354831031322
 30
0.0
 11
147.0062300017226
 21
37.475047898367571
 31
0.0
 12
166.4690451787491
 22
37.756821837895572
 32
0.0
 13
166.4690451787491
 23
37.756821837895572
 33
0.0
  0
SOLID
  5
15E5
  8
DRG
  6
CONTINUOUS
 62
     7
 10
145.22303227045461
 20
39.164152364925791
 30
0.0
 11
147.0062300017226
 21
37.475047898367571
 31
0.0
 12
164.90620600547979
 22
38.760354831031322
 32
0.0
 13
164.90620600547979
 23
38.760354831031322
 33
0.0
210
0.0
220
0.0
230
1.0
  0
SOLID
  5
15E6
  8
DRG
  6
CONTINUOUS
 62
     7
 10
84.686220975134489
 20
39.242605962988861
 30
0.0
 11
83.465136107217845
 21
37.739941408961009
 31
0.0
 12
97.969021393668683
 22
37.384730871555568
 32
0.0
 13
97.969021393668683
 23
37.384730871555568
 33
0.0
210
0.0
220
0.0
230
1.0
  0
SOLID
  5
15E7
  8
DRG
  6
CONTINUOUS
 62
     7
 10
84.686220975134489
 20
39.242605962988861
 30
0.0
 11
97.969021393668683
 21
37.384730871555568
 31
0.0
 12
101.5095597489034
 22
37.384730871555568
 32
0.0
 13
101.5095597489034
 23
37.384730871555568
 33
0.0
210
0.0
220
0.0
230
1.0
  0
SOLID
  5
15E8
  8
DRG
  6
CONTINUOUS
 62
     7
 10
44.202306277704807
 20
39.329676640896288
 30
0.0
 11
55.513311319972232
 21
35.629722934820848
 31
0.0
 12
74.280536421539182
 22
35.629722934820848
 32
0.0
 13
74.280536421539182
 23
35.629722934820848
 33
0.0
210
0.0
220
0.0
230
1.0
  0
SOLID
  5
15E9
  8
DRG
  6
CONTINUOUS
 62
     7
 10
44.202306277704807
 20
39.329676640896288
 30
0.0
 11
44.202306277704807
 21
33.59256797502097
 31
0.0
 12
55.513311319972232
 22
35.629722934820848
 32
0.0
 13
55.513311319972232
 23
35.629722934820848
 33
0.0
210
0.0
220
0.0
230
1.0
  0
SOLID
  5
15EA
  8
DRG
  6
CONTINUOUS
 62
     7
 10
163.20723026339141
 20
39.510705534110834
 30
0.0
 11
145.22303227045461
 21
39.164152364925791
 31
0.0
 12
164.90620600547979
 22
38.760354831031322
 32
0.0
 13
164.90620600547979
 23
38.760354831031322
 33
0.0
210
0.0
220
0.0
230
1.0
  0
SOLID
  5
15EB
  8
DRG
  6
CONTINUOUS
 62
     7
 10
161.4128172083947
 20
39.98989916707626
 30
0.0
 11
145.22303227045461
 21
39.164152364925791
 31
0.0
 12
163.20723026339141
 22
39.510705534110834
 32
0.0
 13
163.20723026339141
 23
39.510705534110834
 33
0.0
210
0.0
220
0.0
230
1.0
  0
SOLID
  5
15EC
  8
DRG
  6
CONTINUOUS
 62
     7
 10
86.133080684833345
 20
40.529325045398402
 30
0.0
 11
84.686220975134489
 21
39.242605962988861
 31
0.0
 12
101.5095597489034
 22
37.384730871555568
 32
0.0
 13
101.5095597489034
 23
37.384730871555568
 33
0.0
210
0.0
220
0.0
230
1.0
  0
SOLID
  5
15ED
  8
DRG
  6
CONTINUOUS
 62
     7
 10
159.18695030849
 20
40.665065806460063
 30
0.0
 11
145.22303227045461
 21
39.164152364925791
 31
0.0
 12
161.4128172083947
 22
39.98989916707626
 32
0.0
 13
161.4128172083947
 23
39.98989916707626
 33
0.0
210
0.0
220
0.0
230
1.0
  0
SOLID
  5
15EE
  8
DRG
  6
CONTINUOUS
 62
     7
 10
127.2345352189994
 20
40.740104065808097
 30
0.0
 11
116.19314081319391
 21
17.28637227261407
 31
0.0
 12
127.2345352189994
 22
17.28637227261407
 32
0.0
 13
127.2345352189994
 23
17.28637227261407
 33
0.0
210
0.0
220
0.0
230
1.0
  0
SOLID
  5
15EF
  8
DRG
  6
CONTINUOUS
 62
     7
 10
6.8107912610745549
 20
40.859796736640241
 30
0.0
 11
6.8194686220556227
 21
35.544827589343662
 31
0.0
 12
17.256300807526252
 22
30.5191262631974
 32
0.0
 13
17.256300807526252
 23
30.5191262631974
 33
0.0
210
0.0
220
0.0
230
1.0
  0
SOLID
  5
15F0
  8
DRG
  6
CONTINUOUS
 62
     7
 10
143.65301834881751
 20
41.053047368257502
 30
0.0
 11
145.22303227045461
 21
39.164152364925791
 31
0.0
 12
159.18695030849
 22
40.665065806460063
 32
0.0
 13
159.18695030849
 23
40.665065806460063
 33
0.0
  0
SOLID
  5
15F1
  8
DRG
  6
CONTINUOUS
 62
     7
 10
87.768046153177011
 20
41.566598844310938
 30
0.0
 11
86.133080684833345
 21
40.529325045398402
 31
0.0
 12
101.5095597489034
 22
37.384730871555568
 32
0.0
 13
101.5095597489034
 23
37.384730871555568
 33
0.0
210
0.0
220
0.0
230
1.0
  0
SOLID
  5
15F2
  8
DRG
  6
CONTINUOUS
 62
     7
 10
157.0907498111003
 20
41.67317141688541
 30
0.0
 11
143.65301834881751
 21
41.053047368257502
 31
0.0
 12
159.18695030849
 22
40.665065806460063
 32
0.0
 13
159.18695030849
 23
40.665065806460063
 33
0.0
210
0.0
220
0.0
230
1.0
  0
SOLID
  5
15F3
  8
DRG
  6
CONTINUOUS
 62
     7
 10
55.51331131997221
 20
41.923431282527638
 30
0.0
 11
44.202306277704807
 21
39.329676640896288
 31
0.0
 12
74.280536421539182
 22
35.629722934820848
 32
0.0
 13
74.280536421539182
 23
35.629722934820848
 33
0.0
210
0.0
220
0.0
230
1.0
  0
SOLID
  5
15F4
  8
DRG
  6
CONTINUOUS
 62
     7
 10
63.235709964756971
 20
41.923431282527652
 30
0.0
 11
55.51331131997221
 21
41.923431282527638
 31
0.0
 12
74.280536421539182
 22
35.629722934820848
 32
0.0
 13
74.280536421539182
 23
35.629722934820848
 33
0.0
210
0.0
220
0.0
230
1.0
  0
SOLID
  5
15F5
  8
DRG
  6
CONTINUOUS
 62
     7
 10
127.3882529757736
 20
42.300826641937121
 30
0.0
 11
116.19314081319391
 21
17.28637227261407
 31
0.0
 12
127.2345352189994
 22
40.740104065808097
 32
0.0
 13
127.2345352189994
 23
40.740104065808097
 33
0.0
210
0.0
220
0.0
230
1.0
  0
SOLID
  5
15F6
  8
DRG
  6
CONTINUOUS
 62
     7
 10
89.548550951823515
 20
42.327421871422729
 30
0.0
 11
87.768046153177011
 21
41.566598844310938
 31
0.0
 12
101.5095597489034
 22
37.384730871555568
 32
0.0
 13
101.5095597489034
 23
37.384730871555568
 33
0.0
210
0.0
220
0.0
230
1.0
  0
SOLID
  5
15F7
  8
DRG
  6
CONTINUOUS
 62
     7
 10
91.428239526853417
 20
42.791986051583798
 30
0.0
 11
89.548550951823515
 21
42.327421871422729
 31
0.0
 12
101.5095597489034
 22
37.384730871555568
 32
0.0
 13
101.5095597489034
 23
37.384730871555568
 33
0.0
210
0.0
220
0.0
230
1.0
  0
SOLID
  5
15F8
  8
DRG
  6
CONTINUOUS
 62
     7
 10
93.358174068518778
 20
42.948196427274922
 30
0.0
 11
91.428239526853417
 21
42.791986051583798
 31
0.0
 12
101.5095597489034
 22
37.384730871555568
 32
0.0
 13
101.5095597489034
 23
37.384730871555568
 33
0.0
210
0.0
220
0.0
230
1.0
  0
SOLID
  5
15F9
  8
DRG
  6
CONTINUOUS
 62
     7
 10
101.5095597489034
 20
37.384730871555568
 30
0.0
 11
100.207486521178
 21
42.948196427274922
 31
0.0
 12
93.358174068518778
 22
42.948196427274922
 32
0.0
 13
93.358174068518778
 23
42.948196427274922
 33
0.0
  0
SOLID
  5
15FA
  8
DRG
  6
CONTINUOUS
 62
     7
 10
100.207486521178
 20
42.948196427274922
 30
0.0
 11
101.5095597489034
 21
37.384730871555568
 31
0.0
 12
111.2523129779601
 22
23.54201089202471
 32
0.0
 13
111.2523129779601
 23
23.54201089202471
 33
0.0
  0
SOLID
  5
15FB
  8
DRG
  6
CONTINUOUS
 62
     7
 10
155.17367747190539
 20
42.990428830347881
 30
0.0
 11
143.65301834881751
 21
41.053047368257502
 31
0.0
 12
157.0907498111003
 22
41.67317141688541
 32
0.0
 13
157.0907498111003
 23
41.67317141688541
 33
0.0
210
0.0
220
0.0
230
1.0
  0
SOLID
  5
15FC
  8
DRG
  6
CONTINUOUS
 62
     7
 10
142.3184035466634
 20
43.11500550983493
 30
0.0
 11
143.65301834881751
 21
41.053047368257502
 31
0.0
 12
155.17367747190539
 22
42.990428830347881
 32
0.0
 13
155.17367747190539
 23
42.990428830347881
 33
0.0
  0
SOLID
  5
15FD
  8
DRG
  6
CONTINUOUS
 62
     7
 10
127.84349895890909
 20
43.801571524728807
 30
0.0
 11
116.19314081319391
 21
17.28637227261407
 31
0.0
 12
127.3882529757736
 22
42.300826641937121
 32
0.0
 13
127.3882529757736
 23
42.300826641937121
 33
0.0
210
0.0
220
0.0
230
1.0
  0
SOLID
  5
15FE
  8
DRG
  6
CONTINUOUS
 62
     7
 10
141.7953563081854
 20
44.48865706092365
 30
0.0
 11
142.3184035466634
 21
43.11500550983493
 31
0.0
 12
155.17367747190539
 22
42.990428830347881
 32
0.0
 13
155.17367747190539
 23
42.990428830347881
 33
0.0
210
0.0
220
0.0
230
1.0
  0
SOLID
  5
15FF
  8
DRG
  6
CONTINUOUS
 62
     7
 10
153.4809683549079
 20
44.585756161105429
 30
0.0
 11
141.7953563081854
 21
44.48865706092365
 31
0.0
 12
155.17367747190539
 22
42.990428830347881
 32
0.0
 13
155.17367747190539
 23
42.990428830347881
 33
0.0
  0
SOLID
  5
1600
  8
DRG
  6
CONTINUOUS
 62
     7
 10
27.387732575171409
 20
44.745475926535612
 30
0.0
 11
27.387732575171409
 21
32.086434320449378
 31
0.0
 12
37.639779947293839
 22
13.760967175618781
 32
0.0
 13
37.639779947293839
 23
13.760967175618781
 33
0.0
210
0.0
220
0.0
230
1.0
  0
SOLID
  5
1601
  8
DRG
  6
CONTINUOUS
 62
     7
 10
111.2523129779601
 20
45.06060729124669
 30
0.0
 11
100.207486521178
 21
42.948196427274922
 31
0.0
 12
111.2523129779601
 22
23.54201089202471
 32
0.0
 13
111.2523129779601
 23
23.54201089202471
 33
0.0
  0
SOLID
  5
1602
  8
DRG
  6
CONTINUOUS
 62
     7
 10
74.280536421539182
 20
45.06060729124669
 30
0.0
 11
63.235709964756971
 21
41.923431282527652
 31
0.0
 12
74.280536421539182
 22
35.629722934820848
 32
0.0
 13
74.280536421539182
 23
35.629722934820848
 33
0.0
  0
SOLID
  5
1603
  8
DRG
  6
CONTINUOUS
 62
     7
 10
44.468482394088362
 20
45.06060729124696
 30
0.0
 11
44.202306277704807
 21
39.329676640896288
 31
0.0
 12
55.51331131997221
 22
41.923431282527638
 32
0.0
 13
55.51331131997221
 23
41.923431282527638
 33
0.0
210
0.0
220
0.0
230
1.0
  0
SOLID
  5
1604
  8
DRG
  6
CONTINUOUS
 62
     7
 10
152.91369055756721
 20
45.212615778285837
 30
0.0
 11
141.7953563081854
 21
44.48865706092365
 31
0.0
 12
153.4809683549079
 22
44.585756161105429
 32
0.0
 13
153.4809683549079
 23
44.585756161105429
 33
0.0
210
0.0
220
0.0
230
1.0
  0
SOLID
  5
1605
  8
DRG
  6
CONTINUOUS
 62
     7
 10
141.54546826268481
 20
45.937122787892669
 30
0.0
 11
141.7953563081854
 21
44.48865706092365
 31
0.0
 12
152.91369055756721
 22
45.212615778285837
 32
0.0
 13
152.91369055756721
 23
45.212615778285837
 33
0.0
210
0.0
220
0.0
230
1.0
  0
SOLID
  5
1606
  8
DRG
  6
CONTINUOUS
 62
     7
 10
152.54834175226111
 20
45.975031235545693
 30
0.0
 11
141.54546826268481
 21
45.937122787892669
 31
0.0
 12
152.91369055756721
 22
45.212615778285837
 32
0.0
 13
152.91369055756721
 23
45.212615778285837
 33
0.0
210
0.0
220
0.0
230
1.0
  0
SOLID
  5
1607
  8
DRG
  6
CONTINUOUS
 62
     7
 10
7.0305774038875759
 20
46.17022669896302
 30
0.0
 11
6.8107912610745549
 21
40.859796736640241
 31
0.0
 12
17.256300807526252
 22
30.5191262631974
 32
0.0
 13
17.256300807526252
 23
30.5191262631974
 33
0.0
210
0.0
220
0.0
230
1.0
  0
SOLID
  5
1608
  8
DRG
  6
CONTINUOUS
 62
     7
 10
27.335204540726249
 20
46.212635277760249
 30
0.0
 11
27.387732575171409
 21
44.745475926535612
 31
0.0
 12
37.639779947293839
 22
13.760967175618781
 32
0.0
 13
37.639779947293839
 23
13.760967175618781
 33
0.0
210
0.0
220
0.0
230
1.0
  0
SOLID
  5
1609
  8
DRG
  6
CONTINUOUS
 62
     7
 10
17.256300807526252
 20
46.312783983787632
 30
0.0
 11
7.0305774038875759
 21
46.17022669896302
 31
0.0
 12
17.256300807526252
 22
30.5191262631974
 32
0.0
 13
17.256300807526252
 23
30.5191262631974
 33
0.0
210
0.0
220
0.0
230
1.0
  0
SOLID
  5
160A
  8
DRG
  6
CONTINUOUS
 62
     7
 10
160.04745823702251
 20
46.421288526219293
 30
0.0
 11
160.04745823702251
 21
45.21828747592599
 31
0.0
 12
171.0912486890569
 22
45.21828747592599
 32
0.0
 13
171.0912486890569
 23
45.21828747592599
 33
0.0
210
0.0
220
0.0
230
1.0
  0
SOLID
  5
160B
  8
DRG
  6
CONTINUOUS
 62
     7
 10
63.235709964757007
 20
46.690614073903127
 30
0.0
 11
63.235709964756971
 21
41.923431282527652
 31
0.0
 12
74.280536421539182
 22
45.06060729124669
 32
0.0
 13
74.280536421539182
 23
45.06060729124669
 33
0.0
210
0.0
220
0.0
230
1.0
  0
SOLID
  5
160C
  8
DRG
  6
CONTINUOUS
 62
     7
 10
55.513311319972217
 20
46.690614073903141
 30
0.0
 11
44.468482394088362
 21
45.06060729124696
 31
0.0
 12
55.51331131997221
 22
41.923431282527638
 32
0.0
 13
55.51331131997221
 23
41.923431282527638
 33
0.0
210
0.0
220
0.0
230
1.0
  0
SOLID
  5
160D
  8
DRG
  6
CONTINUOUS
 62
     7
 10
152.41515688108319
 20
46.809907794742699
 30
0.0
 11
141.54546826268481
 21
45.937122787892669
 31
0.0
 12
152.54834175226111
 22
45.975031235545693
 32
0.0
 13
152.54834175226111
 23
45.975031235545693
 33
0.0
  0
SOLID
  5
160E
  8
DRG
  6
CONTINUOUS
 62
     7
 10
111.1045730651018
 20
46.937820871729471
 30
0.0
 11
100.207486521178
 21
42.948196427274922
 31
0.0
 12
111.2523129779601
 22
45.06060729124669
 32
0.0
 13
111.2523129779601
 23
45.06060729124669
 33
0.0
210
0.0
220
0.0
230
1.0
  0
SOLID
  5
160F
  8
DRG
  6
CONTINUOUS
 62
     7
 10
74.13279650868084
 20
46.937820871729471
 30
0.0
 11
63.235709964757007
 21
46.690614073903127
 31
0.0
 12
74.280536421539182
 22
45.06060729124669
 32
0.0
 13
74.280536421539182
 23
45.06060729124669
 33
0.0
210
0.0
220
0.0
230
1.0
  0
SOLID
  5
1610
  8
DRG
  6
CONTINUOUS
 62
     7
 10
44.616222306946753
 20
46.937820871729677
 30
0.0
 11
44.468482394088362
 21
45.06060729124696
 31
0.0
 12
55.513311319972217
 22
46.690614073903141
 32
0.0
 13
55.513311319972217
 23
46.690614073903141
 33
0.0
210
0.0
220
0.0
230
1.0
  0
SOLID
  5
1611
  8
DRG
  6
CONTINUOUS
 62
     7
 10
170.92151587114179
 20
47.077855355594501
 30
0.0
 11
160.04745823702251
 21
46.421288526219293
 31
0.0
 12
171.0912486890569
 22
45.21828747592599
 32
0.0
 13
171.0912486890569
 23
45.21828747592599
 33
0.0
210
0.0
220
0.0
230
1.0
  0
SOLID
  5
1612
  8
DRG
  6
CONTINUOUS
 62
     7
 10
92.485087876393209
 20
47.313129977668268
 30
0.0
 11
81.470405744524527
 21
45.910674481046733
 31
0.0
 12
92.485087876393209
 22
45.910674481046733
 32
0.0
 13
92.485087876393209
 23
45.910674481046733
 33
0.0
210
0.0
220
0.0
230
1.0
  0
SOLID
  5
1613
  8
DRG
  6
CONTINUOUS
 62
     7
 10
100.2074865211779
 20
47.313129977668268
 30
0.0
 11
100.207486521178
 21
42.948196427274922
 31
0.0
 12
111.1045730651018
 22
46.937820871729471
 32
0.0
 13
111.1045730651018
 23
46.937820871729471
 33
0.0
210
0.0
220
0.0
230
1.0
  0
SOLID
  5
1614
  8
DRG
  6
CONTINUOUS
 62
     7
 10
159.92142428177769
 20
47.399756659223272
 30
0.0
 11
160.04745823702251
 21
46.421288526219293
 31
0.0
 12
170.92151587114179
 22
47.077855355594501
 32
0.0
 13
170.92151587114179
 23
47.077855355594501
 33
0.0
210
0.0
220
0.0
230
1.0
  0
SOLID
  5
1615
  8
DRG
  6
CONTINUOUS
 62
     7
 10
141.57801704221129
 20
47.406625280044132
 30
0.0
 11
141.54546826268481
 21
45.937122787892669
 31
0.0
 12
152.41515688108319
 22
46.809907794742699
 32
0.0
 13
152.41515688108319
 23
46.809907794742699
 33
0.0
210
0.0
220
0.0
230
1.0
  0
SOLID
  5
1616
  8
DRG
  6
CONTINUOUS
 62
     7
 10
17.438113579040561
 20
47.470712315216574
 30
0.0
 11
7.0305774038875759
 21
46.17022669896302
 31
0.0
 12
17.256300807526252
 22
46.312783983787632
 32
0.0
 13
17.256300807526252
 23
46.312783983787632
 33
0.0
210
0.0
220
0.0
230
1.0
  0
SOLID
  5
1617
  8
DRG
  6
CONTINUOUS
 62
     7
 10
26.946063157671329
 20
47.628221636935379
 30
0.0
 11
27.335204540726249
 21
46.212635277760249
 31
0.0
 12
37.639779947293839
 22
13.760967175618781
 32
0.0
 13
37.639779947293839
 23
13.760967175618781
 33
0.0
210
0.0
220
0.0
230
1.0
  0
SOLID
  5
1618
  8
DRG
  6
CONTINUOUS
 62
     7
 10
152.52515784094209
 20
47.648154099737518
 30
0.0
 11
141.57801704221129
 21
47.406625280044132
 31
0.0
 12
152.41515688108319
 22
46.809907794742699
 32
0.0
 13
152.41515688108319
 23
46.809907794742699
 33
0.0
210
0.0
220
0.0
230
1.0
  0
SOLID
  5
1619
  8
DRG
  6
CONTINUOUS
 62
     7
 10
81.731819932129795
 20
47.68976224158471
 30
0.0
 11
81.470405744524527
 21
45.910674481046733
 31
0.0
 12
92.485087876393209
 22
47.313129977668268
 32
0.0
 13
92.485087876393209
 23
47.313129977668268
 33
0.0
210
0.0
220
0.0
230
1.0
  0
SOLID
  5
161A
  8
DRG
  6
CONTINUOUS
 62
     7
 10
63.104142788313268
 20
47.689965995475227
 30
0.0
 11
63.235709964757007
 21
46.690614073903127
 31
0.0
 12
74.13279650868084
 22
46.937820871729471
 32
0.0
 13
74.13279650868084
 23
46.937820871729471
 33
0.0
210
0.0
220
0.0
230
1.0
  0
SOLID
  5
161B
  8
DRG
  6
CONTINUOUS
 62
     7
 10
55.644878496415949
 20
47.689965995475241
 30
0.0
 11
44.616222306946753
 21
46.937820871729677
 31
0.0
 12
55.513311319972217
 22
46.690614073903141
 32
0.0
 13
55.513311319972217
 23
46.690614073903141
 33
0.0
210
0.0
220
0.0
230
1.0
  0
SOLID
  5
161C
  8
DRG
  6
CONTINUOUS
 62
     7
 10
7.1897238671107937
 20
47.994218182042239
 30
0.0
 11
7.0305774038875759
 21
46.17022669896302
 31
0.0
 12
17.438113579040561
 22
47.470712315216574
 32
0.0
 13
17.438113579040561
 23
47.470712315216574
 33
0.0
210
0.0
220
0.0
230
1.0
  0
SOLID
  5
161D
  8
DRG
  6
CONTINUOUS
 62
     7
 10
92.616655052836919
 20
48.31248189924036
 30
0.0
 11
81.731819932129795
 21
47.68976224158471
 31
0.0
 12
92.485087876393209
 22
47.313129977668268
 32
0.0
 13
92.485087876393209
 23
47.313129977668268
 33
0.0
210
0.0
220
0.0
230
1.0
  0
SOLID
  5
161E
  8
DRG
  6
CONTINUOUS
 62
     7
 10
100.0759193447342
 20
48.31248189924036
 30
0.0
 11
100.2074865211779
 21
47.313129977668268
 31
0.0
 12
111.1045730651018
 22
46.937820871729471
 32
0.0
 13
111.1045730651018
 23
46.937820871729471
 33
0.0
210
0.0
220
0.0
230
1.0
  0
SOLID
  5
161F
  8
DRG
  6
CONTINUOUS
 62
     7
 10
159.55155020049509
 20
48.314348157748292
 30
0.0
 11
159.92142428177769
 21
47.399756659223272
 31
0.0
 12
170.92151587114179
 22
47.077855355594501
 32
0.0
 13
170.92151587114179
 23
47.077855355594501
 33
0.0
  0
SOLID
  5
1620
  8
DRG
  6
CONTINUOUS
 62
     7
 10
152.9555608782567
 20
48.535868958602258
 30
0.0
 11
141.57801704221129
 21
47.406625280044132
 31
0.0
 12
152.52515784094209
 22
47.648154099737518
 32
0.0
 13
152.52515784094209
 23
47.648154099737518
 33
0.0
210
0.0
220
0.0
230
1.0
  0
SOLID
  5
1621
  8
DRG
  6
CONTINUOUS
 62
     7
 10
17.869811786171251
 20
48.560432720904039
 30
0.0
 11
7.1897238671107937
 21
47.994218182042239
 31
0.0
 12
17.438113579040561
 22
47.470712315216574
 32
0.0
 13
17.438113579040561
 23
47.470712315216574
 33
0.0
210
0.0
220
0.0
230
1.0
  0
SOLID
  5
1622
  8
DRG
  6
CONTINUOUS
 62
     7
 10
62.718407344631679
 20
48.621213735099332
 30
0.0
 11
63.104142788313268
 21
47.689965995475227
 31
0.0
 12
74.13279650868084
 22
46.937820871729471
 32
0.0
 13
74.13279650868084
 23
46.937820871729471
 33
0.0
  0
SOLID
  5
1623
  8
DRG
  6
CONTINUOUS
 62
     7
 10
56.030613940097538
 20
48.621213735099339
 30
0.0
 11
44.616222306946753
 21
46.937820871729677
 31
0.0
 12
55.644878496415949
 22
47.689965995475241
 32
0.0
 13
55.644878496415949
 23
47.689965995475241
 33
0.0
210
0.0
220
0.0
230
1.0
  0
SOLID
  5
1624
  8
DRG
  6
CONTINUOUS
 62
     7
 10
110.664991173502
 20
48.76881122374607
 30
0.0
 11
100.0759193447342
 21
48.31248189924036
 31
0.0
 12
111.1045730651018
 22
46.937820871729471
 32
0.0
 13
111.1045730651018
 23
46.937820871729471
 33
0.0
210
0.0
220
0.0
230
1.0
  0
SOLID
  5
1625
  8
DRG
  6
CONTINUOUS
 62
     7
 10
73.693214617081026
 20
48.76881122374607
 30
0.0
 11
62.718407344631679
 21
48.621213735099332
 31
0.0
 12
74.13279650868084
 22
46.937820871729471
 32
0.0
 13
74.13279650868084
 23
46.937820871729471
 33
0.0
210
0.0
220
0.0
230
1.0
  0
SOLID
  5
1626
  8
DRG
  6
CONTINUOUS
 62
     7
 10
45.055804198546582
 20
48.768811223746262
 30
0.0
 11
44.616222306946753
 21
46.937820871729677
 31
0.0
 12
56.030613940097538
 22
48.621213735099339
 32
0.0
 13
56.030613940097538
 23
48.621213735099339
 33
0.0
210
0.0
220
0.0
230
1.0
  0
SOLID
  5
1627
  8
DRG
  6
CONTINUOUS
 62
     7
 10
141.8917942032017
 20
48.84260609145101
 30
0.0
 11
141.57801704221129
 21
47.406625280044132
 31
0.0
 12
152.9555608782567
 22
48.535868958602258
 32
0.0
 13
152.9555608782567
 23
48.535868958602258
 33
0.0
210
0.0
220
0.0
230
1.0
  0
SOLID
  5
1628
  8
DRG
  6
CONTINUOUS
 62
     7
 10
170.46535120543041
 20
48.888577787754841
 30
0.0
 11
159.55155020049509
 21
48.314348157748292
 31
0.0
 12
170.92151587114179
 22
47.077855355594501
 32
0.0
 13
170.92151587114179
 23
47.077855355594501
 33
0.0
210
0.0
220
0.0
230
1.0
  0
SOLID
  5
1629
  8
DRG
  6
CONTINUOUS
 62
     7
 10
158.96198221796851
 20
49.105356399904181
 30
0.0
 11
159.55155020049509
 21
48.314348157748292
 31
0.0
 12
170.46535120543041
 22
48.888577787754841
 32
0.0
 13
170.46535120543041
 23
48.888577787754841
 33
0.0
210
0.0
220
0.0
230
1.0
  0
SOLID
  5
162A
  8
DRG
  6
CONTINUOUS
 62
     7
 10
93.00239049651853
 20
49.243729638864473
 30
0.0
 11
81.731819932129795
 21
47.68976224158471
 31
0.0
 12
92.616655052836919
 22
48.31248189924036
 32
0.0
 13
92.616655052836919
 23
48.31248189924036
 33
0.0
210
0.0
220
0.0
230
1.0
  0
SOLID
  5
162B
  8
DRG
  6
CONTINUOUS
 62
     7
 10
99.690183901052691
 20
49.243729638864473
 30
0.0
 11
100.0759193447342
 21
48.31248189924036
 31
0.0
 12
110.664991173502
 22
48.76881122374607
 32
0.0
 13
110.664991173502
 23
48.76881122374607
 33
0.0
210
0.0
220
0.0
230
1.0
  0
SOLID
  5
162C
  8
DRG
  6
CONTINUOUS
 62
     7
 10
153.59687126208641
 20
49.28553917727929
 30
0.0
 11
141.8917942032017
 21
48.84260609145101
 31
0.0
 12
152.9555608782567
 22
48.535868958602258
 32
0.0
 13
152.9555608782567
 23
48.535868958602258
 33
0.0
210
0.0
220
0.0
230
1.0
  0
SOLID
  5
162D
  8
DRG
  6
CONTINUOUS
 62
     7
 10
82.256144730442657
 20
49.40981286381988
 30
0.0
 11
81.731819932129795
 21
47.68976224158471
 31
0.0
 12
93.00239049651853
 22
49.243729638864473
 32
0.0
 13
93.00239049651853
 23
49.243729638864473
 33
0.0
210
0.0
220
0.0
230
1.0
  0
SOLID
  5
162E
  8
DRG
  6
CONTINUOUS
 62
     7
 10
62.104790866741169
 20
49.420894298279691
 30
0.0
 11
62.718407344631679
 21
48.621213735099332
 31
0.0
 12
73.693214617081026
 22
48.76881122374607
 32
0.0
 13
73.693214617081026
 23
48.76881122374607
 33
0.0
210
0.0
220
0.0
230
1.0
  0
SOLID
  5
162F
  8
DRG
  6
CONTINUOUS
 62
     7
 10
56.644230417988048
 20
49.420894298279698
 30
0.0
 11
45.055804198546582
 21
48.768811223746262
 31
0.0
 12
56.030613940097538
 22
48.621213735099339
 32
0.0
 13
56.030613940097538
 23
48.621213735099339
 33
0.0
210
0.0
220
0.0
230
1.0
  0
SOLID
  5
1630
  8
DRG
  6
CONTINUOUS
 62
     7
 10
18.530312536779991
 20
49.528726407270312
 30
0.0
 11
7.1897238671107937
 21
47.994218182042239
 31
0.0
 12
17.869811786171251
 22
48.560432720904039
 32
0.0
 13
17.869811786171251
 23
48.560432720904039
 33
0.0
210
0.0
220
0.0
230
1.0
  0
SOLID
  5
1631
  8
DRG
  6
CONTINUOUS
 62
     7
 10
158.19120867863171
 20
49.721142561032508
 30
0.0
 11
158.96198221796851
 21
49.105356399904181
 31
0.0
 12
170.46535120543041
 22
48.888577787754841
 32
0.0
 13
170.46535120543041
 23
48.888577787754841
 33
0.0
210
0.0
220
0.0
230
1.0
  0
SOLID
  5
1632
  8
DRG
  6
CONTINUOUS
 62
     7
 10
7.6220824279870287
 20
49.773358030940919
 30
0.0
 11
7.1897238671107937
 21
47.994218182042239
 31
0.0
 12
18.530312536779991
 22
49.528726407270312
 32
0.0
 13
18.530312536779991
 23
49.528726407270312
 33
0.0
  0
SOLID
  5
1633
  8
DRG
  6
CONTINUOUS
 62
     7
 10
154.40722278586409
 20
49.848224571696171
 30
0.0
 11
141.8917942032017
 21
48.84260609145101
 31
0.0
 12
153.59687126208641
 22
49.28553917727929
 32
0.0
 13
153.59687126208641
 23
49.28553917727929
 33
0.0
210
0.0
220
0.0
230
1.0
  0
SOLID
  5
1634
  8
DRG
  6
CONTINUOUS
 62
     7
 10
57.443910981168422
 20
50.034510776170208
 30
0.0
 11
45.055804198546582
 21
48.768811223746262
 31
0.0
 12
56.644230417988048
 22
49.420894298279698
 32
0.0
 13
56.644230417988048
 23
49.420894298279698
 33
0.0
210
0.0
220
0.0
230
1.0
  0
SOLID
  5
1635
  8
DRG
  6
CONTINUOUS
 62
     7
 10
61.305110303560809
 20
50.034510776170208
 30
0.0
 11
62.104790866741169
 21
49.420894298279691
 31
0.0
 12
73.693214617081026
 22
48.76881122374607
 32
0.0
 13
73.693214617081026
 23
48.76881122374607
 33
0.0
210
0.0
220
0.0
230
1.0
  0
SOLID
  5
1636
  8
DRG
  6
CONTINUOUS
 62
     7
 10
93.616006974409046
 20
50.043410202044832
 30
0.0
 11
82.256144730442657
 21
49.40981286381988
 31
0.0
 12
93.00239049651853
 22
49.243729638864473
 32
0.0
 13
93.00239049651853
 23
49.243729638864473
 33
0.0
210
0.0
220
0.0
230
1.0
  0
SOLID
  5
1637
  8
DRG
  6
CONTINUOUS
 62
     7
 10
99.076567423162174
 20
50.043410202044832
 30
0.0
 11
99.690183901052691
 21
49.243729638864473
 31
0.0
 12
110.664991173502
 22
48.76881122374607
 32
0.0
 13
110.664991173502
 23
48.76881122374607
 33
0.0
210
0.0
220
0.0
230
1.0
  0
SOLID
  5
1638
  8
DRG
  6
CONTINUOUS
 62
     7
 10
157.28954743952829
 20
50.121506714120002
 30
0.0
 11
158.19120867863171
 21
49.721142561032508
 31
0.0
 12
170.46535120543041
 22
48.888577787754841
 32
0.0
 13
170.46535120543041
 23
48.888577787754841
 33
0.0
210
0.0
220
0.0
230
1.0
  0
SOLID
  5
1639
  8
DRG
  6
CONTINUOUS
 62
     7
 10
155.33371385132841
 20
50.187191754169177
 30
0.0
 11
141.8917942032017
 21
48.84260609145101
 31
0.0
 12
154.40722278586409
 22
49.848224571696171
 32
0.0
 13
154.40722278586409
 23
49.848224571696171
 33
0.0
210
0.0
220
0.0
230
1.0
  0
SOLID
  5
163A
  8
DRG
  6
CONTINUOUS
 62
     7
 10
156.3158610056816
 20
50.280312172847857
 30
0.0
 11
157.28954743952829
 21
50.121506714120002
 31
0.0
 12
170.46535120543041
 22
48.888577787754841
 32
0.0
 13
170.46535120543041
 23
48.888577787754841
 33
0.0
210
0.0
220
0.0
230
1.0
  0
SOLID
  5
163B
  8
DRG
  6
CONTINUOUS
 62
     7
 10
19.387358884110139
 20
50.328304710589968
 30
0.0
 11
7.6220824279870287
 21
49.773358030940919
 31
0.0
 12
18.530312536779991
 22
49.528726407270312
 32
0.0
 13
18.530312536779991
 23
49.528726407270312
 33
0.0
210
0.0
220
0.0
230
1.0
  0
SOLID
  5
163C
  8
DRG
  6
CONTINUOUS
 62
     7
 10
58.375158720792513
 20
50.420246219851798
 30
0.0
 11
45.055804198546582
 21
48.768811223746262
 31
0.0
 12
57.443910981168422
 22
50.034510776170208
 32
0.0
 13
57.443910981168422
 23
50.034510776170208
 33
0.0
210
0.0
220
0.0
230
1.0
  0
SOLID
  5
163D
  8
DRG
  6
CONTINUOUS
 62
     7
 10
60.373862563936711
 20
50.420246219851798
 30
0.0
 11
61.305110303560809
 21
50.034510776170208
 31
0.0
 12
73.693214617081026
 22
48.76881122374607
 32
0.0
 13
73.693214617081026
 23
48.76881122374607
 33
0.0
210
0.0
220
0.0
230
1.0
  0
SOLID
  5
163E
  8
DRG
  6
CONTINUOUS
 62
     7
 10
72.972614711799594
 20
50.508493288121258
 30
0.0
 11
60.373862563936711
 21
50.420246219851798
 31
0.0
 12
73.693214617081026
 22
48.76881122374607
 32
0.0
 13
73.693214617081026
 23
48.76881122374607
 33
0.0
210
0.0
220
0.0
230
1.0
  0
SOLID
  5
163F
  8
DRG
  6
CONTINUOUS
 62
     7
 10
109.9443912682205
 20
50.508493288121258
 30
0.0
 11
99.076567423162174
 21
50.043410202044832
 31
0.0
 12
110.664991173502
 22
48.76881122374607
 32
0.0
 13
110.664991173502
 23
48.76881122374607
 33
0.0
210
0.0
220
0.0
230
1.0
  0
SOLID
  5
1640
  8
DRG
  6
CONTINUOUS
 62
     7
 10
45.776404103828028
 20
50.508493288121407
 30
0.0
 11
45.055804198546582
 21
48.768811223746262
 31
0.0
 12
58.375158720792513
 22
50.420246219851798
 32
0.0
 13
58.375158720792513
 23
50.420246219851798
 33
0.0
  0
SOLID
  5
1641
  8
DRG
  6
CONTINUOUS
 62
     7
 10
59.374510642364612
 20
50.551813396295529
 30
0.0
 11
45.776404103828028
 21
50.508493288121407
 31
0.0
 12
58.375158720792513
 22
50.420246219851798
 32
0.0
 13
58.375158720792513
 23
50.420246219851798
 33
0.0
  0
SOLID
  5
1642
  8
DRG
  6
CONTINUOUS
 62
     7
 10
59.374510642364612
 20
50.551813396295529
 30
0.0
 11
60.373862563936711
 21
50.420246219851798
 31
0.0
 12
72.972614711799594
 22
50.508493288121258
 32
0.0
 13
72.972614711799594
 23
50.508493288121258
 33
0.0
210
0.0
220
0.0
230
1.0
  0
SOLID
  5
1643
  8
DRG
  6
CONTINUOUS
 62
     7
 10
142.61917934783079
 20
50.568963196943031
 30
0.0
 11
155.33371385132841
 21
50.187191754169177
 31
0.0
 12
156.3158610056816
 22
50.280312172847857
 32
0.0
 13
156.3158610056816
 23
50.280312172847857
 33
0.0
210
0.0
220
0.0
230
1.0
  0
SOLID
  5
1644
  8
DRG
  6
CONTINUOUS
 62
     7
 10
142.61917934783079
 20
50.568963196943031
 30
0.0
 11
141.8917942032017
 21
48.84260609145101
 31
0.0
 12
155.33371385132841
 22
50.187191754169177
 32
0.0
 13
155.33371385132841
 23
50.187191754169177
 33
0.0
210
0.0
220
0.0
230
1.0
  0
SOLID
  5
1645
  8
DRG
  6
CONTINUOUS
 62
     7
 10
169.73380021856269
 20
50.606610116375307
 30
0.0
 11
142.61917934783079
 21
50.568963196943031
 31
0.0
 12
156.3158610056816
 22
50.280312172847857
 32
0.0
 13
156.3158610056816
 23
50.280312172847857
 33
0.0
210
0.0
220
0.0
230
1.0
  0
SOLID
  5
1646
  8
DRG
  6
CONTINUOUS
 62
     7
 10
169.73380021856269
 20
50.606610116375307
 30
0.0
 11
156.3158610056816
 21
50.280312172847857
 31
0.0
 12
170.46535120543041
 22
48.888577787754841
 32
0.0
 13
170.46535120543041
 23
48.888577787754841
 33
0.0
210
0.0
220
0.0
230
1.0
  0
SOLID
  5
1647
  8
DRG
  6
CONTINUOUS
 62
     7
 10
94.415687537589406
 20
50.657026679935342
 30
0.0
 11
82.256144730442657
 21
49.40981286381988
 31
0.0
 12
93.616006974409046
 22
50.043410202044832
 32
0.0
 13
93.616006974409046
 23
50.043410202044832
 33
0.0
  0
SOLID
  5
1648
  8
DRG
  6
CONTINUOUS
 62
     7
 10
98.276886859981815
 20
50.657026679935342
 30
0.0
 11
99.076567423162174
 21
50.043410202044832
 31
0.0
 12
109.9443912682205
 22
50.508493288121258
 32
0.0
 13
109.9443912682205
 23
50.508493288121258
 33
0.0
210
0.0
220
0.0
230
1.0
  0
SOLID
  5
1649
  8
DRG
  6
CONTINUOUS
 62
     7
 10
20.39909516279215
 20
50.92011853858844
 30
0.0
 11
7.6220824279870287
 21
49.773358030940919
 31
0.0
 12
19.387358884110139
 22
50.328304710589968
 32
0.0
 13
19.387358884110139
 23
50.328304710589968
 33
0.0
210
0.0
220
0.0
230
1.0
  0
SOLID
  5
164A
  8
DRG
  6
CONTINUOUS
 62
     7
 10
83.031606533031265
 20
51.032202961762849
 30
0.0
 11
82.256144730442657
 21
49.40981286381988
 31
0.0
 12
94.415687537589406
 22
50.657026679935342
 32
0.0
 13
94.415687537589406
 23
50.657026679935342
 33
0.0
210
0.0
220
0.0
230
1.0
  0
SOLID
  5
164B
  8
DRG
  6
CONTINUOUS
 62
     7
 10
95.346935277213504
 20
51.042762123616932
 30
0.0
 11
83.031606533031265
 21
51.032202961762849
 31
0.0
 12
94.415687537589406
 22
50.657026679935342
 32
0.0
 13
94.415687537589406
 23
50.657026679935342
 33
0.0
210
0.0
220
0.0
230
1.0
  0
SOLID
  5
164C
  8
DRG
  6
CONTINUOUS
 62
     7
 10
97.345639120357703
 20
51.042762123616932
 30
0.0
 11
98.276886859981815
 21
50.657026679935342
 31
0.0
 12
109.9443912682205
 22
50.508493288121258
 32
0.0
 13
109.9443912682205
 23
50.508493288121258
 33
0.0
210
0.0
220
0.0
230
1.0
  0
SOLID
  5
164D
  8
DRG
  6
CONTINUOUS
 62
     7
 10
96.346287198785603
 20
51.174329300060663
 30
0.0
 11
83.031606533031265
 21
51.032202961762849
 31
0.0
 12
95.346935277213504
 22
51.042762123616932
 32
0.0
 13
95.346935277213504
 23
51.042762123616932
 33
0.0
210
0.0
220
0.0
230
1.0
  0
SOLID
  5
164E
  8
DRG
  6
CONTINUOUS
 62
     7
 10
96.346287198785603
 20
51.174329300060663
 30
0.0
 11
97.345639120357703
 21
51.042762123616932
 31
0.0
 12
109.9443912682205
 22
50.508493288121258
 32
0.0
 13
109.9443912682205
 23
50.508493288121258
 33
0.0
210
0.0
220
0.0
230
1.0
  0
SOLID
  5
164F
  8
DRG
  6
CONTINUOUS
 62
     7
 10
27.267121908897021
 20
51.255838552818979
 30
0.0
 11
24.05122445427131
 21
50.841970309004992
 31
0.0
 12
25.258677615930839
 22
50.006881919259932
 32
0.0
 13
25.258677615930839
 23
50.006881919259932
 33
0.0
210
0.0
220
0.0
230
1.0
  0
SOLID
  5
1650
  8
DRG
  6
CONTINUOUS
 62
     7
 10
27.267121908897021
 20
51.255838552818979
 30
0.0
 11
25.258677615930839
 21
50.006881919259932
 31
0.0
 12
26.241246459003669
 22
48.91606835823719
 32
0.0
 13
26.241246459003669
 23
48.91606835823719
 33
0.0
210
0.0
220
0.0
230
1.0
  0
SOLID
  5
1651
  8
DRG
  6
CONTINUOUS
 62
     7
 10
27.267121908897021
 20
51.255838552818979
 30
0.0
 11
26.241246459003669
 21
48.91606835823719
 31
0.0
 12
26.946063157671329
 22
47.628221636935379
 32
0.0
 13
26.946063157671329
 23
47.628221636935379
 33
0.0
210
0.0
220
0.0
230
1.0
  0
SOLID
  5
1652
  8
DRG
  6
CONTINUOUS
 62
     7
 10
27.267121908897021
 20
51.255838552818979
 30
0.0
 11
26.946063157671329
 21
47.628221636935379
 31
0.0
 12
37.639779947293839
 22
13.760967175618781
 32
0.0
 13
37.639779947293839
 23
13.760967175618781
 33
0.0
210
0.0
220
0.0
230
1.0
  0
SOLID
  5
1653
  8
DRG
  6
CONTINUOUS
 62
     7
 10
21.516111098510429
 20
51.275265415194319
 30
0.0
 11
7.6220824279870287
 21
49.773358030940919
 31
0.0
 12
20.39909516279215
 22
50.92011853858844
 32
0.0
 13
20.39909516279215
 23
50.92011853858844
 33
0.0
210
0.0
220
0.0
230
1.0
  0
SOLID
  5
1654
  8
DRG
  6
CONTINUOUS
 62
     7
 10
22.683854862926282
 20
51.376400993896397
 30
0.0
 11
24.05122445427131
 21
50.841970309004992
 31
0.0
 12
27.267121908897021
 22
51.255838552818979
 32
0.0
 13
27.267121908897021
 23
51.255838552818979
 33
0.0
210
0.0
220
0.0
230
1.0
  0
SOLID
  5
1655
  8
DRG
  6
CONTINUOUS
 62
     7
 10
8.3177663299538551
 20
51.46696259979587
 30
0.0
 11
21.516111098510429
 21
51.275265415194319
 31
0.0
 12
22.683854862926282
 22
51.376400993896397
 32
0.0
 13
22.683854862926282
 23
51.376400993896397
 33
0.0
210
0.0
220
0.0
230
1.0
  0
SOLID
  5
1656
  8
DRG
  6
CONTINUOUS
 62
     7
 10
8.3177663299538551
 20
51.46696259979587
 30
0.0
 11
7.6220824279870287
 21
49.773358030940919
 31
0.0
 12
21.516111098510429
 22
51.275265415194319
 32
0.0
 13
21.516111098510429
 23
51.275265415194319
 33
0.0
210
0.0
220
0.0
230
1.0
  0
SOLID
  5
1657
  8
DRG
  6
CONTINUOUS
 62
     7
 10
108.9605169104595
 20
52.11403031875637
 30
0.0
 11
96.346287198785603
 21
51.174329300060663
 31
0.0
 12
109.9443912682205
 22
50.508493288121258
 32
0.0
 13
109.9443912682205
 23
50.508493288121258
 33
0.0
210
0.0
220
0.0
230
1.0
  0
SOLID
  5
1658
  8
DRG
  6
CONTINUOUS
 62
     7
 10
71.988740354038555
 20
52.11403031875637
 30
0.0
 11
59.374510642364612
 21
50.551813396295529
 31
0.0
 12
72.972614711799594
 22
50.508493288121258
 32
0.0
 13
72.972614711799594
 23
50.508493288121258
 33
0.0
210
0.0
220
0.0
230
1.0
  0
SOLID
  5
1659
  8
DRG
  6
CONTINUOUS
 62
     7
 10
46.760278461589081
 20
52.114030318756498
 30
0.0
 11
59.374510642364612
 21
50.551813396295529
 31
0.0
 12
71.988740354038555
 22
52.11403031875637
 32
0.0
 13
71.988740354038555
 23
52.11403031875637
 33
0.0
210
0.0
220
0.0
230
1.0
  0
SOLID
  5
165A
  8
DRG
  6
CONTINUOUS
 62
     7
 10
46.760278461589081
 20
52.114030318756498
 30
0.0
 11
45.776404103828028
 21
50.508493288121407
 31
0.0
 12
59.374510642364612
 22
50.551813396295529
 32
0.0
 13
59.374510642364612
 23
50.551813396295529
 33
0.0
210
0.0
220
0.0
230
1.0
  0
SOLID
  5
165B
  8
DRG
  6
CONTINUOUS
 62
     7
 10
143.6063830495508
 20
52.161077155056709
 30
0.0
 11
142.61917934783079
 21
50.568963196943031
 31
0.0
 12
169.73380021856269
 22
50.606610116375307
 32
0.0
 13
169.73380021856269
 23
50.606610116375307
 33
0.0
210
0.0
220
0.0
230
1.0
  0
SOLID
  5
165C
  8
DRG
  6
CONTINUOUS
 62
     7
 10
168.74457661464871
 20
52.190352074533777
 30
0.0
 11
143.6063830495508
 21
52.161077155056709
 31
0.0
 12
169.73380021856269
 22
50.606610116375307
 32
0.0
 13
169.73380021856269
 23
50.606610116375307
 33
0.0
210
0.0
220
0.0
230
1.0
  0
SOLID
  5
165D
  8
DRG
  6
CONTINUOUS
 62
     7
 10
84.040792503241747
 20
52.520502096583449
 30
0.0
 11
96.346287198785603
 21
51.174329300060663
 31
0.0
 12
108.9605169104595
 22
52.11403031875637
 32
0.0
 13
108.9605169104595
 23
52.11403031875637
 33
0.0
210
0.0
220
0.0
230
1.0
  0
SOLID
  5
165E
  8
DRG
  6
CONTINUOUS
 62
     7
 10
84.040792503241747
 20
52.520502096583449
 30
0.0
 11
83.031606533031265
 21
51.032202961762849
 31
0.0
 12
96.346287198785603
 22
51.174329300060663
 32
0.0
 13
96.346287198785603
 23
51.174329300060663
 33
0.0
  0
SOLID
  5
165F
  8
DRG
  6
CONTINUOUS
 62
     7
 10
26.699742183985649
 20
52.856551873435983
 30
0.0
 11
8.3177663299538551
 21
51.46696259979587
 31
0.0
 12
22.683854862926282
 22
51.376400993896397
 32
0.0
 13
22.683854862926282
 23
51.376400993896397
 33
0.0
210
0.0
220
0.0
230
1.0
  0
SOLID
  5
1660
  8
DRG
  6
CONTINUOUS
 62
     7
 10
26.699742183985649
 20
52.856551873435983
 30
0.0
 11
22.683854862926282
 21
51.376400993896397
 31
0.0
 12
27.267121908897021
 22
51.255838552818979
 32
0.0
 13
27.267121908897021
 23
51.255838552818979
 33
0.0
210
0.0
220
0.0
230
1.0
  0
SOLID
  5
1661
  8
DRG
  6
CONTINUOUS
 62
     7
 10
9.2608673477428542
 20
53.036304180633991
 30
0.0
 11
8.3177663299538551
 21
51.46696259979587
 31
0.0
 12
26.699742183985649
 22
52.856551873435983
 32
0.0
 13
26.699742183985649
 23
52.856551873435983
 33
0.0
210
0.0
220
0.0
230
1.0
  0
SOLID
  5
1662
  8
DRG
  6
CONTINUOUS
 62
     7
 10
127.2345352189994
 20
53.086533694841222
 30
0.0
 11
135.23453521899941
 21
48.740104065808111
 31
0.0
 12
136.6041529029215
 22
48.740104065808111
 32
0.0
 13
136.6041529029215
 23
48.740104065808111
 33
0.0
210
0.0
220
0.0
230
1.0
  0
SOLID
  5
1663
  8
DRG
  6
CONTINUOUS
 62
     7
 10
127.2345352189994
 20
53.086533694841222
 30
0.0
 11
133.67381264287039
 21
48.586386309033962
 31
0.0
 12
135.23453521899941
 22
48.740104065808111
 32
0.0
 13
135.23453521899941
 23
48.740104065808111
 33
0.0
  0
SOLID
  5
1664
  8
DRG
  6
CONTINUOUS
 62
     7
 10
127.2345352189994
 20
53.086533694841222
 30
0.0
 11
132.17306776007871
 21
48.1311403258984
 31
0.0
 12
133.67381264287039
 22
48.586386309033962
 32
0.0
 13
133.67381264287039
 23
48.586386309033962
 33
0.0
210
0.0
220
0.0
230
1.0
  0
SOLID
  5
1665
  8
DRG
  6
CONTINUOUS
 62
     7
 10
127.2345352189994
 20
53.086533694841222
 30
0.0
 11
130.7899733548426
 21
47.391860964228471
 31
0.0
 12
132.17306776007871
 22
48.1311403258984
 32
0.0
 13
132.17306776007871
 23
48.1311403258984
 33
0.0
210
0.0
220
0.0
230
1.0
  0
SOLID
  5
1666
  8
DRG
  6
CONTINUOUS
 62
     7
 10
127.2345352189994
 20
53.086533694841222
 30
0.0
 11
129.57768096950701
 21
46.396958315300481
 31
0.0
 12
130.7899733548426
 22
47.391860964228471
 32
0.0
 13
130.7899733548426
 23
47.391860964228471
 33
0.0
210
0.0
220
0.0
230
1.0
  0
SOLID
  5
1667
  8
DRG
  6
CONTINUOUS
 62
     7
 10
127.2345352189994
 20
53.086533694841222
 30
0.0
 11
128.582778320579
 21
45.184665929964922
 31
0.0
 12
129.57768096950701
 22
46.396958315300481
 32
0.0
 13
129.57768096950701
 23
46.396958315300481
 33
0.0
210
0.0
220
0.0
230
1.0
  0
SOLID
  5
1668
  8
DRG
  6
CONTINUOUS
 62
     7
 10
127.2345352189994
 20
53.086533694841222
 30
0.0
 11
127.84349895890909
 21
43.801571524728807
 31
0.0
 12
128.582778320579
 22
45.184665929964922
 32
0.0
 13
128.582778320579
 23
45.184665929964922
 33
0.0
210
0.0
220
0.0
230
1.0
  0
SOLID
  5
1669
  8
DRG
  6
CONTINUOUS
 62
     7
 10
127.2345352189994
 20
53.086533694841222
 30
0.0
 11
116.19314081319391
 21
17.28637227261407
 31
0.0
 12
127.84349895890909
 22
43.801571524728807
 32
0.0
 13
127.84349895890909
 23
43.801571524728807
 33
0.0
210
0.0
220
0.0
230
1.0
  0
SOLID
  5
166A
  8
DRG
  6
CONTINUOUS
 62
     7
 10
107.7375943521987
 20
53.545888665485272
 30
0.0
 11
84.040792503241747
 21
52.520502096583449
 31
0.0
 12
108.9605169104595
 22
52.11403031875637
 32
0.0
 13
108.9605169104595
 23
52.11403031875637
 33
0.0
210
0.0
220
0.0
230
1.0
  0
SOLID
  5
166B
  8
DRG
  6
CONTINUOUS
 62
     7
 10
70.76581779577775
 20
53.545888665485272
 30
0.0
 11
46.760278461589081
 21
52.114030318756498
 31
0.0
 12
71.988740354038555
 22
52.11403031875637
 32
0.0
 13
71.988740354038555
 23
52.11403031875637
 33
0.0
210
0.0
220
0.0
230
1.0
  0
SOLID
  5
166C
  8
DRG
  6
CONTINUOUS
 62
     7
 10
47.983201019849879
 20
53.54588866548535
 30
0.0
 11
46.760278461589081
 21
52.114030318756498
 31
0.0
 12
70.76581779577775
 22
53.545888665485272
 32
0.0
 13
70.76581779577775
 23
53.545888665485272
 33
0.0
210
0.0
220
0.0
230
1.0
  0
SOLID
  5
166D
  8
DRG
  6
CONTINUOUS
 62
     7
 10
144.82934634516241
 20
53.580146843936248
 30
0.0
 11
143.6063830495508
 21
52.161077155056709
 31
0.0
 12
168.74457661464871
 22
52.190352074533777
 32
0.0
 13
168.74457661464871
 23
52.190352074533777
 33
0.0
210
0.0
220
0.0
230
1.0
  0
SOLID
  5
166E
  8
DRG
  6
CONTINUOUS
 62
     7
 10
167.52163335736839
 20
53.601455089215932
 30
0.0
 11
144.82934634516241
 21
53.580146843936248
 31
0.0
 12
168.74457661464871
 22
52.190352074533777
 32
0.0
 13
168.74457661464871
 23
52.190352074533777
 33
0.0
210
0.0
220
0.0
230
1.0
  0
SOLID
  5
166F
  8
DRG
  6
CONTINUOUS
 62
     7
 10
85.261041575894609
 20
53.84129081468609
 30
0.0
 11
84.040792503241747
 21
52.520502096583449
 31
0.0
 12
107.7375943521987
 22
53.545888665485272
 32
0.0
 13
107.7375943521987
 23
53.545888665485272
 33
0.0
210
0.0
220
0.0
230
1.0
  0
SOLID
  5
1670
  8
DRG
  6
CONTINUOUS
 62
     7
 10
25.844798136495001
 20
54.32395555433007
 30
0.0
 11
9.2608673477428542
 21
53.036304180633991
 31
0.0
 12
26.699742183985649
 22
52.856551873435983
 32
0.0
 13
26.699742183985649
 23
52.856551873435983
 33
0.0
210
0.0
220
0.0
230
1.0
  0
SOLID
  5
1671
  8
DRG
  6
CONTINUOUS
 62
     7
 10
128.4120288872063
 20
54.426660978047501
 30
0.0
 11
127.2345352189994
 21
53.086533694841222
 31
0.0
 12
136.6041529029215
 22
48.740104065808111
 32
0.0
 13
136.6041529029215
 23
48.740104065808111
 33
0.0
  0
SOLID
  5
1672
  8
DRG
  6
CONTINUOUS
 62
     7
 10
10.42981956125807
 20
54.445496591066302
 30
0.0
 11
9.2608673477428542
 21
53.036304180633991
 31
0.0
 12
25.844798136495001
 22
54.32395555433007
 32
0.0
 13
25.844798136495001
 23
54.32395555433007
 33
0.0
210
0.0
220
0.0
230
1.0
  0
SOLID
  5
1673
  8
DRG
  6
CONTINUOUS
 62
     7
 10
69.333959449048862
 20
54.76881122374607
 30
0.0
 11
47.983201019849879
 21
53.54588866548535
 31
0.0
 12
70.76581779577775
 22
53.545888665485272
 32
0.0
 13
70.76581779577775
 23
53.545888665485272
 33
0.0
210
0.0
220
0.0
230
1.0
  0
SOLID
  5
1674
  8
DRG
  6
CONTINUOUS
 62
     7
 10
106.3057360054698
 20
54.76881122374607
 30
0.0
 11
85.261041575894609
 21
53.84129081468609
 31
0.0
 12
107.7375943521987
 22
53.545888665485272
 32
0.0
 13
107.7375943521987
 23
53.545888665485272
 33
0.0
210
0.0
220
0.0
230
1.0
  0
SOLID
  5
1675
  8
DRG
  6
CONTINUOUS
 62
     7
 10
49.415059366578767
 20
54.768811223746127
 30
0.0
 11
47.983201019849879
 21
53.54588866548535
 31
0.0
 12
69.333959449048862
 22
54.76881122374607
 32
0.0
 13
69.333959449048862
 23
54.76881122374607
 33
0.0
210
0.0
220
0.0
230
1.0
  0
SOLID
  5
1676
  8
DRG
  6
CONTINUOUS
 62
     7
 10
146.25826461696471
 20
54.791588372372388
 30
0.0
 11
144.82934634516241
 21
53.580146843936248
 31
0.0
 12
167.52163335736839
 22
53.601455089215932
 32
0.0
 13
167.52163335736839
 23
53.601455089215932
 33
0.0
210
0.0
220
0.0
230
1.0
  0
SOLID
  5
1677
  8
DRG
  6
CONTINUOUS
 62
     7
 10
166.0945826752498
 20
54.805750849914723
 30
0.0
 11
146.25826461696471
 21
54.791588372372388
 31
0.0
 12
167.52163335736839
 22
53.601455089215932
 32
0.0
 13
167.52163335736839
 23
53.601455089215932
 33
0.0
210
0.0
220
0.0
230
1.0
  0
SOLID
  5
1678
  8
DRG
  6
CONTINUOUS
 62
     7
 10
86.66495330688258
 20
54.964911074725819
 30
0.0
 11
85.261041575894609
 21
53.84129081468609
 31
0.0
 12
106.3057360054698
 22
54.76881122374607
 32
0.0
 13
106.3057360054698
 23
54.76881122374607
 33
0.0
210
0.0
220
0.0
230
1.0
  0
SOLID
  5
1679
  8
DRG
  6
CONTINUOUS
 62
     7
 10
129.80398889070241
 20
55.542402804156168
 30
0.0
 11
128.4120288872063
 21
54.426660978047501
 31
0.0
 12
136.6041529029215
 22
48.740104065808111
 32
0.0
 13
136.6041529029215
 23
48.740104065808111
 33
0.0
210
0.0
220
0.0
230
1.0
  0
SOLID
  5
167A
  8
DRG
  6
CONTINUOUS
 62
     7
 10
24.732069813226278
 20
55.606935899322451
 30
0.0
 11
10.42981956125807
 21
54.445496591066302
 31
0.0
 12
25.844798136495001
 22
54.32395555433007
 32
0.0
 13
25.844798136495001
 23
54.32395555433007
 33
0.0
210
0.0
220
0.0
230
1.0
  0
SOLID
  5
167B
  8
DRG
  6
CONTINUOUS
 62
     7
 10
11.797892504136779
 20
55.662315784728747
 30
0.0
 11
10.42981956125807
 21
54.445496591066302
 31
0.0
 12
24.732069813226278
 22
55.606935899322451
 32
0.0
 13
24.732069813226278
 23
55.606935899322451
 33
0.0
210
0.0
220
0.0
230
1.0
  0
SOLID
  5
167C
  8
DRG
  6
CONTINUOUS
 62
     7
 10
67.728422418413743
 20
55.752685581507109
 30
0.0
 11
49.415059366578767
 21
54.768811223746127
 31
0.0
 12
69.333959449048862
 22
54.76881122374607
 32
0.0
 13
69.333959449048862
 23
54.76881122374607
 33
0.0
210
0.0
220
0.0
230
1.0
  0
SOLID
  5
167D
  8
DRG
  6
CONTINUOUS
 62
     7
 10
104.70019897483471
 20
55.752685581507109
 30
0.0
 11
86.66495330688258
 21
54.964911074725819
 31
0.0
 12
106.3057360054698
 22
54.76881122374607
 32
0.0
 13
106.3057360054698
 23
54.76881122374607
 33
0.0
210
0.0
220
0.0
230
1.0
  0
SOLID
  5
167E
  8
DRG
  6
CONTINUOUS
 62
     7
 10
51.020596397213872
 20
55.752685581507151
 30
0.0
 11
49.415059366578767
 21
54.768811223746127
 31
0.0
 12
67.728422418413743
 22
55.752685581507109
 32
0.0
 13
67.728422418413743
 23
55.752685581507109
 33
0.0
  0
SOLID
  5
167F
  8
DRG
  6
CONTINUOUS
 62
     7
 10
147.85831395571171
 20
55.765877917571849
 30
0.0
 11
146.25826461696471
 21
54.791588372372388
 31
0.0
 12
166.0945826752498
 22
54.805750849914723
 32
0.0
 13
166.0945826752498
 23
54.805750849914723
 33
0.0
210
0.0
220
0.0
230
1.0
  0
SOLID
  5
1680
  8
DRG
  6
CONTINUOUS
 62
     7
 10
164.49797903406079
 20
55.774078656762292
 30
0.0
 11
147.85831395571171
 21
55.765877917571849
 31
0.0
 12
166.0945826752498
 22
54.805750849914723
 32
0.0
 13
166.0945826752498
 23
54.805750849914723
 33
0.0
210
0.0
220
0.0
230
1.0
  0
SOLID
  5
1681
  8
DRG
  6
CONTINUOUS
 62
     7
 10
88.221003144555837
 20
55.866132212879158
 30
0.0
 11
86.66495330688258
 21
54.964911074725819
 31
0.0
 12
104.70019897483471
 22
55.752685581507109
 32
0.0
 13
104.70019897483471
 23
55.752685581507109
 33
0.0
210
0.0
220
0.0
230
1.0
  0
SOLID
  5
1682
  8
DRG
  6
CONTINUOUS
 62
     7
 10
131.36827517159969
 20
56.399981316747272
 30
0.0
 11
129.80398889070241
 21
55.542402804156168
 31
0.0
 12
136.6041529029215
 22
48.740104065808111
 32
0.0
 13
136.6041529029215
 23
48.740104065808111
 33
0.0
210
0.0
220
0.0
230
1.0
  0
SOLID
  5
1683
  8
DRG
  6
CONTINUOUS
 62
     7
 10
102.9605169104595
 20
56.473285486788541
 30
0.0
 11
88.221003144555837
 21
55.866132212879158
 31
0.0
 12
104.70019897483471
 22
55.752685581507109
 32
0.0
 13
104.70019897483471
 23
55.752685581507109
 33
0.0
210
0.0
220
0.0
230
1.0
  0
SOLID
  5
1684
  8
DRG
  6
CONTINUOUS
 62
     7
 10
65.988740354038555
 20
56.473285486788541
 30
0.0
 11
51.020596397213872
 21
55.752685581507151
 31
0.0
 12
67.728422418413743
 22
55.752685581507109
 32
0.0
 13
67.728422418413743
 23
55.752685581507109
 33
0.0
210
0.0
220
0.0
230
1.0
  0
SOLID
  5
1685
  8
DRG
  6
CONTINUOUS
 62
     7
 10
52.760278461589039
 20
56.473285486788562
 30
0.0
 11
51.020596397213872
 21
55.752685581507151
 31
0.0
 12
65.988740354038555
 22
56.473285486788541
 32
0.0
 13
65.988740354038555
 23
56.473285486788541
 33
0.0
210
0.0
220
0.0
230
1.0
  0
SOLID
  5
1686
  8
DRG
  6
CONTINUOUS
 62
     7
 10
149.59049984781899
 20
56.479271244912823
 30
0.0
 11
147.85831395571171
 21
55.765877917571849
 31
0.0
 12
164.49797903406079
 22
55.774078656762292
 32
0.0
 13
164.49797903406079
 23
55.774078656762292
 33
0.0
210
0.0
220
0.0
230
1.0
  0
SOLID
  5
1687
  8
DRG
  6
CONTINUOUS
 62
     7
 10
162.77048243835179
 20
56.482991514866931
 30
0.0
 11
149.59049984781899
 21
56.479271244912823
 31
0.0
 12
164.49797903406079
 22
55.774078656762292
 32
0.0
 13
164.49797903406079
 23
55.774078656762292
 33
0.0
210
0.0
220
0.0
230
1.0
  0
SOLID
  5
1688
  8
DRG
  6
CONTINUOUS
 62
     7
 10
89.894250307101217
 20
56.524717492255519
 30
0.0
 11
88.221003144555837
 21
55.866132212879158
 31
0.0
 12
102.9605169104595
 22
56.473285486788541
 32
0.0
 13
102.9605169104595
 23
56.473285486788541
 33
0.0
210
0.0
220
0.0
230
1.0
  0
SOLID
  5
1689
  8
DRG
  6
CONTINUOUS
 62
     7
 10
13.33380241014922
 20
56.658936719545487
 30
0.0
 11
11.797892504136779
 21
55.662315784728747
 31
0.0
 12
24.732069813226278
 22
55.606935899322451
 32
0.0
 13
24.732069813226278
 23
55.606935899322451
 33
0.0
210
0.0
220
0.0
230
1.0
  0
SOLID
  5
168A
  8
DRG
  6
CONTINUOUS
 62
     7
 10
23.40031659456379
 20
56.660803183008269
 30
0.0
 11
13.33380241014922
 21
56.658936719545487
 31
0.0
 12
24.732069813226278
 22
55.606935899322451
 32
0.0
 13
24.732069813226278
 23
55.606935899322451
 33
0.0
210
0.0
220
0.0
230
1.0
  0
SOLID
  5
168B
  8
DRG
  6
CONTINUOUS
 62
     7
 10
101.1295265584429
 20
56.912867378388363
 30
0.0
 11
89.894250307101217
 21
56.524717492255519
 31
0.0
 12
102.9605169104595
 22
56.473285486788541
 32
0.0
 13
102.9605169104595
 23
56.473285486788541
 33
0.0
  0
SOLID
  5
168C
  8
DRG
  6
CONTINUOUS
 62
     7
 10
64.157750002021956
 20
56.912867378388363
 30
0.0
 11
52.760278461589039
 21
56.473285486788562
 31
0.0
 12
65.988740354038555
 22
56.473285486788541
 32
0.0
 13
65.988740354038555
 23
56.473285486788541
 33
0.0
210
0.0
220
0.0
230
1.0
  0
SOLID
  5
168D
  8
DRG
  6
CONTINUOUS
 62
     7
 10
54.591268813605623
 20
56.912867378388363
 30
0.0
 11
52.760278461589039
 21
56.473285486788562
 31
0.0
 12
64.157750002021956
 22
56.912867378388363
 32
0.0
 13
64.157750002021956
 23
56.912867378388363
 33
0.0
210
0.0
220
0.0
230
1.0
  0
SOLID
  5
168E
  8
DRG
  6
CONTINUOUS
 62
     7
 10
151.4126075036138
 20
56.914382374400461
 30
0.0
 11
149.59049984781899
 21
56.479271244912823
 31
0.0
 12
162.77048243835179
 22
56.482991514866931
 32
0.0
 13
162.77048243835179
 23
56.482991514866931
 33
0.0
210
0.0
220
0.0
230
1.0
  0
SOLID
  5
168F
  8
DRG
  6
CONTINUOUS
 62
     7
 10
160.9539223218834
 20
56.91532387755619
 30
0.0
 11
151.4126075036138
 21
56.914382374400461
 31
0.0
 12
162.77048243835179
 22
56.482991514866931
 32
0.0
 13
162.77048243835179
 23
56.482991514866931
 33
0.0
  0
SOLID
  5
1690
  8
DRG
  6
CONTINUOUS
 62
     7
 10
91.647122370673046
 20
56.925878514697629
 30
0.0
 11
89.894250307101217
 21
56.524717492255519
 31
0.0
 12
101.1295265584429
 22
56.912867378388363
 32
0.0
 13
101.1295265584429
 23
56.912867378388363
 33
0.0
210
0.0
220
0.0
230
1.0
  0
SOLID
  5
1691
  8
DRG
  6
CONTINUOUS
 62
     7
 10
133.05753068352811
 20
56.973434269726511
 30
0.0
 11
131.36827517159969
 21
56.399981316747272
 31
0.0
 12
136.6041529029215
 22
48.740104065808111
 32
0.0
 13
136.6041529029215
 23
48.740104065808111
 33
0.0
210
0.0
220
0.0
230
1.0
  0
SOLID
  5
1692
  8
DRG
  6
CONTINUOUS
 62
     7
 10
27.267121908897021
 20
51.255838552818979
 30
0.0
 11
37.639779947293832
 21
57.06060729124669
 31
0.0
 12
27.267121908897028
 22
57.06060729124669
 32
0.0
 13
27.267121908897028
 23
57.06060729124669
 33
0.0
210
0.0
220
0.0
230
1.0
  0
SOLID
  5
1693
  8
DRG
  6
CONTINUOUS
 62
     7
 10
37.639779947293832
 20
57.06060729124669
 30
0.0
 11
27.267121908897021
 21
51.255838552818979
 31
0.0
 12
37.639779947293839
 22
13.760967175618781
 32
0.0
 13
37.639779947293839
 23
13.760967175618781
 33
0.0
  0
SOLID
  5
1694
  8
DRG
  6
CONTINUOUS
 62
     7
 10
54.591268813605623
 20
56.912867378388363
 30
0.0
 11
62.280536421539182
 21
57.06060729124669
 31
0.0
 12
56.468482394088369
 22
57.06060729124669
 32
0.0
 13
56.468482394088369
 23
57.06060729124669
 33
0.0
210
0.0
220
0.0
230
1.0
  0
SOLID
  5
1695
  8
DRG
  6
CONTINUOUS
 62
     7
 10
62.280536421539182
 20
57.06060729124669
 30
0.0
 11
54.591268813605623
 21
56.912867378388363
 31
0.0
 12
64.157750002021956
 22
56.912867378388363
 32
0.0
 13
64.157750002021956
 23
56.912867378388363
 33
0.0
210
0.0
220
0.0
230
1.0
  0
SOLID
  5
1696
  8
DRG
  6
CONTINUOUS
 62
     7
 10
91.647122370673046
 20
56.925878514697629
 30
0.0
 11
99.252312977960173
 21
57.06060729124669
 31
0.0
 12
93.440258950509346
 22
57.06060729124669
 32
0.0
 13
93.440258950509346
 23
57.06060729124669
 33
0.0
210
0.0
220
0.0
230
1.0
  0
SOLID
  5
1697
  8
DRG
  6
CONTINUOUS
 62
     7
 10
99.252312977960173
 20
57.06060729124669
 30
0.0
 11
91.647122370673046
 21
56.925878514697629
 31
0.0
 12
101.1295265584429
 22
56.912867378388363
 32
0.0
 13
101.1295265584429
 23
56.912867378388363
 33
0.0
210
0.0
220
0.0
230
1.0
  0
SOLID
  5
1698
  8
DRG
  6
CONTINUOUS
 62
     7
 10
160.9539223218834
 20
56.91532387755619
 30
0.0
 11
159.0922846938046
 21
57.06060729124669
 31
0.0
 12
153.28023066635379
 22
57.06060729124669
 32
0.0
 13
153.28023066635379
 23
57.06060729124669
 33
0.0
210
0.0
220
0.0
230
1.0
  0
SOLID
  5
1699
  8
DRG
  6
CONTINUOUS
 62
     7
 10
153.28023066635379
 20
57.06060729124669
 30
0.0
 11
151.4126075036138
 21
56.914382374400461
 31
0.0
 12
160.9539223218834
 22
56.91532387755619
 32
0.0
 13
160.9539223218834
 23
56.91532387755619
 33
0.0
210
0.0
220
0.0
230
1.0
  0
SOLID
  5
169A
  8
DRG
  6
CONTINUOUS
 62
     7
 10
127.2345352189994
 20
53.086533694841222
 30
0.0
 11
127.2345352189994
 21
57.207648031108022
 31
0.0
 12
116.19314081319391
 22
57.207648031108022
 32
0.0
 13
116.19314081319391
 23
57.207648031108022
 33
0.0
210
0.0
220
0.0
230
1.0
  0
SOLID
  5
169B
  8
DRG
  6
CONTINUOUS
 62
     7
 10
116.19314081319391
 20
57.207648031108022
 30
0.0
 11
116.19314081319391
 21
17.28637227261407
 31
0.0
 12
127.2345352189994
 22
53.086533694841222
 32
0.0
 13
127.2345352189994
 23
53.086533694841222
 33
0.0
210
0.0
220
0.0
230
1.0
  0
SOLID
  5
169C
  8
DRG
  6
CONTINUOUS
 62
     7
 10
136.6041529029215
 20
57.207648031108022
 30
0.0
 11
133.05753068352811
 21
56.973434269726511
 31
0.0
 12
136.6041529029215
 22
48.740104065808111
 32
0.0
 13
136.6041529029215
 23
48.740104065808111
 33
0.0
210
0.0
220
0.0
230
1.0
  0
SOLID
  5
169D
  8
DRG
  6
CONTINUOUS
 62
     7
 10
134.8206150741201
 20
57.245401005766141
 30
0.0
 11
133.05753068352811
 21
56.973434269726511
 31
0.0
 12
136.6041529029215
 22
57.207648031108022
 32
0.0
 13
136.6041529029215
 23
57.207648031108022
 33
0.0
210
0.0
220
0.0
230
1.0
  0
SOLID
  5
169E
  8
DRG
  6
CONTINUOUS
 62
     7
 10
15.00242758004698
 20
57.41256963382525
 30
0.0
 11
13.33380241014922
 21
56.658936719545487
 31
0.0
 12
23.40031659456379
 22
56.660803183008269
 32
0.0
 13
23.40031659456379
 23
56.660803183008269
 33
0.0
  0
SOLID
  5
169F
  8
DRG
  6
CONTINUOUS
 62
     7
 10
21.895927098915749
 20
57.448848316503202
 30
0.0
 11
15.00242758004698
 21
57.41256963382525
 31
0.0
 12
23.40031659456379
 22
56.660803183008269
 32
0.0
 13
23.40031659456379
 23
56.660803183008269
 33
0.0
210
0.0
220
0.0
230
1.0
  0
SOLID
  5
16A0
  8
DRG
  6
CONTINUOUS
 62
     7
 10
16.765611510544261
 20
57.905981180445629
 30
0.0
 11
15.00242758004698
 21
57.41256963382525
 31
0.0
 12
21.895927098915749
 22
57.448848316503202
 32
0.0
 13
21.895927098915749
 23
57.448848316503202
 33
0.0
210
0.0
220
0.0
230
1.0
  0
SOLID
  5
16A1
  8
DRG
  6
CONTINUOUS
 62
     7
 10
20.271303339863209
 20
57.943621525724573
 30
0.0
 11
16.765611510544261
 21
57.905981180445629
 31
0.0
 12
21.895927098915749
 22
57.448848316503202
 32
0.0
 13
21.895927098915749
 23
57.448848316503202
 33
0.0
210
0.0
220
0.0
230
1.0
  0
SOLID
  5
16A2
  8
DRG
  6
CONTINUOUS
 62
     7
 10
18.58303542025671
 20
58.127888502333931
 30
0.0
 11
16.765611510544261
 21
57.905981180445629
 31
0.0
 12
20.271303339863209
 22
57.943621525724573
 32
0.0
 13
20.271303339863209
 23
57.943621525724573
 33
0.0
210
0.0
220
0.0
230
1.0
  0
SOLID
  5
16A3
  8
DRG
  6
CONTINUOUS
 62
     7
 10
82.01868759770089
 20
61.040289496156653
 30
0.0
 11
75.331191210151701
 21
60.89733173546756
 31
0.0
 12
80.675802928262684
 22
60.89733173546756
 32
0.0
 13
80.675802928262684
 23
60.89733173546756
 33
0.0
210
0.0
220
0.0
230
1.0
  0
SOLID
  5
16A4
  8
DRG
  6
CONTINUOUS
 62
     7
 10
105.53904684726351
 20
61.045071094397443
 30
0.0
 11
97.849782736700035
 21
60.89733173546756
 31
0.0
 12
103.66183676415081
 22
60.89733173546756
 32
0.0
 13
103.66183676415081
 23
60.89733173546756
 33
0.0
210
0.0
220
0.0
230
1.0
  0
SOLID
  5
16A5
  8
DRG
  6
CONTINUOUS
 62
     7
 10
49.52740701022941
 20
61.045071094397443
 30
0.0
 11
41.838142899665847
 21
60.89733173546756
 31
0.0
 12
47.650196927116667
 22
60.89733173546756
 32
0.0
 13
47.650196927116667
 23
60.89733173546756
 33
0.0
210
0.0
220
0.0
230
1.0
  0
SOLID
  5
16A6
  8
DRG
  6
CONTINUOUS
 62
     7
 10
95.972569156217247
 20
61.045071648325901
 30
0.0
 11
97.849782736700035
 21
60.89733173546756
 31
0.0
 12
105.53904684726351
 22
61.045071094397443
 32
0.0
 13
105.53904684726351
 23
61.045071094397443
 33
0.0
210
0.0
220
0.0
230
1.0
  0
SOLID
  5
16A7
  8
DRG
  6
CONTINUOUS
 62
     7
 10
39.960929319183123
 20
61.045071648325901
 30
0.0
 11
41.838142899665847
 21
60.89733173546756
 31
0.0
 12
49.52740701022941
 22
61.045071094397443
 32
0.0
 13
49.52740701022941
 23
61.045071094397443
 33
0.0
  0
SOLID
  5
16A8
  8
DRG
  6
CONTINUOUS
 62
     7
 10
73.770468634022663
 20
61.051049492241717
 30
0.0
 11
75.331191210151701
 21
60.89733173546756
 31
0.0
 12
82.01868759770089
 22
61.040289496156653
 32
0.0
 13
82.01868759770089
 23
61.040289496156653
 33
0.0
210
0.0
220
0.0
230
1.0
  0
SOLID
  5
16A9
  8
DRG
  6
CONTINUOUS
 62
     7
 10
83.309615438619744
 20
61.436876770654941
 30
0.0
 11
73.770468634022663
 21
61.051049492241717
 31
0.0
 12
82.01868759770089
 22
61.040289496156653
 32
0.0
 13
82.01868759770089
 23
61.040289496156653
 33
0.0
  0
SOLID
  5
16AA
  8
DRG
  6
CONTINUOUS
 62
     7
 10
51.358394124299522
 20
61.484651351490918
 30
0.0
 11
39.960929319183123
 21
61.045071648325901
 31
0.0
 12
49.52740701022941
 22
61.045071094397443
 32
0.0
 13
49.52740701022941
 23
61.045071094397443
 33
0.0
210
0.0
220
0.0
230
1.0
  0
SOLID
  5
16AB
  8
DRG
  6
CONTINUOUS
 62
     7
 10
107.3700339613337
 20
61.484651351490918
 30
0.0
 11
95.972569156217247
 21
61.045071648325901
 31
0.0
 12
105.53904684726351
 22
61.045071094397443
 32
0.0
 13
105.53904684726351
 23
61.045071094397443
 33
0.0
210
0.0
220
0.0
230
1.0
  0
SOLID
  5
16AC
  8
DRG
  6
CONTINUOUS
 62
     7
 10
38.129938967166559
 20
61.484653539925702
 30
0.0
 11
39.960929319183123
 21
61.045071648325901
 31
0.0
 12
51.358394124299522
 22
61.484651351490918
 32
0.0
 13
51.358394124299522
 23
61.484651351490918
 33
0.0
210
0.0
220
0.0
230
1.0
  0
SOLID
  5
16AD
  8
DRG
  6
CONTINUOUS
 62
     7
 10
94.141578804200677
 20
61.484653539925709
 30
0.0
 11
95.972569156217247
 21
61.045071648325901
 31
0.0
 12
107.3700339613337
 22
61.484651351490918
 32
0.0
 13
107.3700339613337
 23
61.484651351490918
 33
0.0
210
0.0
220
0.0
230
1.0
  0
SOLID
  5
16AE
  8
DRG
  6
CONTINUOUS
 62
     7
 10
72.269723751230984
 20
61.506295475377271
 30
0.0
 11
73.770468634022663
 21
61.051049492241717
 31
0.0
 12
83.309615438619744
 22
61.436876770654941
 32
0.0
 13
83.309615438619744
 23
61.436876770654941
 33
0.0
210
0.0
220
0.0
230
1.0
  0
SOLID
  5
16AF
  8
DRG
  6
CONTINUOUS
 62
     7
 10
84.501142256151084
 20
62.072518178885289
 30
0.0
 11
72.269723751230984
 21
61.506295475377271
 31
0.0
 12
83.309615438619744
 22
61.436876770654941
 32
0.0
 13
83.309615438619744
 23
61.436876770654941
 33
0.0
  0
SOLID
  5
16B0
  8
DRG
  6
CONTINUOUS
 62
     7
 10
53.098073458920069
 20
62.205248622517793
 30
0.0
 11
38.129938967166559
 21
61.484653539925702
 31
0.0
 12
51.358394124299522
 22
61.484651351490918
 32
0.0
 13
51.358394124299522
 23
61.484651351490918
 33
0.0
210
0.0
220
0.0
230
1.0
  0
SOLID
  5
16B1
  8
DRG
  6
CONTINUOUS
 62
     7
 10
109.10971329595419
 20
62.205248622517793
 30
0.0
 11
94.141578804200677
 21
61.484653539925709
 31
0.0
 12
107.3700339613337
 22
61.484651351490918
 32
0.0
 13
107.3700339613337
 23
61.484651351490918
 33
0.0
210
0.0
220
0.0
230
1.0
  0
SOLID
  5
16B2
  8
DRG
  6
CONTINUOUS
 62
     7
 10
36.390256902791393
 20
62.205253445207092
 30
0.0
 11
38.129938967166559
 21
61.484653539925702
 31
0.0
 12
53.098073458920069
 22
62.205248622517793
 32
0.0
 13
53.098073458920069
 23
62.205248622517793
 33
0.0
210
0.0
220
0.0
230
1.0
  0
SOLID
  5
16B3
  8
DRG
  6
CONTINUOUS
 62
     7
 10
92.401896739825474
 20
62.205253445207127
 30
0.0
 11
94.141578804200677
 21
61.484653539925709
 31
0.0
 12
109.10971329595419
 22
62.205248622517793
 32
0.0
 13
109.10971329595419
 23
62.205248622517793
 33
0.0
  0
SOLID
  5
16B4
  8
DRG
  6
CONTINUOUS
 62
     7
 10
70.886629345994876
 20
62.245574837047201
 30
0.0
 11
72.269723751230984
 21
61.506295475377271
 31
0.0
 12
84.501142256151084
 22
62.072518178885289
 32
0.0
 13
84.501142256151084
 23
62.072518178885289
 33
0.0
210
0.0
220
0.0
230
1.0
  0
SOLID
  5
16B5
  8
DRG
  6
CONTINUOUS
 62
     7
 10
110.7152483328518
 20
63.189119477666686
 30
0.0
 11
92.401896739825474
 21
62.205253445207127
 31
0.0
 12
109.10971329595419
 22
62.205248622517793
 32
0.0
 13
109.10971329595419
 23
62.205248622517793
 33
0.0
210
0.0
220
0.0
230
1.0
  0
SOLID
  5
16B6
  8
DRG
  6
CONTINUOUS
 62
     7
 10
54.703608495817662
 20
63.189119477666686
 30
0.0
 11
36.390256902791393
 21
62.205253445207092
 31
0.0
 12
53.098073458920069
 22
62.205248622517793
 32
0.0
 13
53.098073458920069
 23
62.205248622517793
 33
0.0
210
0.0
220
0.0
230
1.0
  0
SOLID
  5
16B7
  8
DRG
  6
CONTINUOUS
 62
     7
 10
34.784719872156288
 20
63.189127802968102
 30
0.0
 11
36.390256902791393
 21
62.205253445207092
 31
0.0
 12
54.703608495817662
 22
63.189119477666686
 32
0.0
 13
54.703608495817662
 23
63.189119477666686
 33
0.0
210
0.0
220
0.0
230
1.0
  0
SOLID
  5
16B8
  8
DRG
  6
CONTINUOUS
 62
     7
 10
90.796359709190384
 20
63.189127802968173
 30
0.0
 11
92.401896739825474
 21
62.205253445207127
 31
0.0
 12
110.7152483328518
 22
63.189119477666686
 32
0.0
 13
110.7152483328518
 23
63.189119477666686
 33
0.0
210
0.0
220
0.0
230
1.0
  0
SOLID
  5
16B9
  8
DRG
  6
CONTINUOUS
 62
     7
 10
69.674336960659303
 20
63.240477485975177
 30
0.0
 11
70.886629345994876
 21
62.245574837047201
 31
0.0
 12
84.501142256151084
 22
62.072518178885289
 32
0.0
 13
84.501142256151084
 23
62.072518178885289
 33
0.0
210
0.0
220
0.0
230
1.0
  0
SOLID
  5
16BA
  8
DRG
  6
CONTINUOUS
 62
     7
 10
112.14710561917801
 20
64.412037842036057
 30
0.0
 11
90.796359709190384
 21
63.189127802968173
 31
0.0
 12
110.7152483328518
 22
63.189119477666686
 32
0.0
 13
110.7152483328518
 23
63.189119477666686
 33
0.0
210
0.0
220
0.0
230
1.0
  0
SOLID
  5
16BB
  8
DRG
  6
CONTINUOUS
 62
     7
 10
56.135465782143832
 20
64.412037842036057
 30
0.0
 11
34.784719872156288
 21
63.189127802968102
 31
0.0
 12
54.703608495817662
 22
63.189119477666686
 32
0.0
 13
54.703608495817662
 23
63.189119477666686
 33
0.0
210
0.0
220
0.0
230
1.0
  0
SOLID
  5
16BC
  8
DRG
  6
CONTINUOUS
 62
     7
 10
33.352861525427407
 20
64.412050361228864
 30
0.0
 11
34.784719872156288
 21
63.189127802968102
 31
0.0
 12
56.135465782143832
 22
64.412037842036057
 32
0.0
 13
56.135465782143832
 23
64.412037842036057
 33
0.0
  0
SOLID
  5
16BD
  8
DRG
  6
CONTINUOUS
 62
     7
 10
89.364501362461496
 20
64.412050361228964
 30
0.0
 11
90.796359709190384
 21
63.189127802968173
 31
0.0
 12
112.14710561917801
 22
64.412037842036057
 32
0.0
 13
112.14710561917801
 23
64.412037842036057
 33
0.0
210
0.0
220
0.0
230
1.0
  0
SOLID
  5
16BE
  8
DRG
  6
CONTINUOUS
 62
     7
 10
68.679434311731342
 20
64.45276987131075
 30
0.0
 11
69.674336960659303
 21
63.240477485975177
 31
0.0
 12
84.501142256151084
 22
62.072518178885289
 32
0.0
 13
84.501142256151084
 23
62.072518178885289
 33
0.0
210
0.0
220
0.0
230
1.0
  0
SOLID
  5
16BF
  8
DRG
  6
CONTINUOUS
 62
     7
 10
67.940154950061412
 20
65.835864276546843
 30
0.0
 11
68.679434311731342
 21
64.45276987131075
 31
0.0
 12
84.501142256151084
 22
62.072518178885289
 32
0.0
 13
84.501142256151084
 23
62.072518178885289
 33
0.0
210
0.0
220
0.0
230
1.0
  0
SOLID
  5
16C0
  8
DRG
  6
CONTINUOUS
 62
     7
 10
57.358388371638434
 20
65.843891519763289
 30
0.0
 11
33.352861525427407
 21
64.412050361228864
 31
0.0
 12
56.135465782143832
 22
64.412037842036057
 32
0.0
 13
56.135465782143832
 23
64.412037842036057
 33
0.0
  0
SOLID
  5
16C1
  8
DRG
  6
CONTINUOUS
 62
     7
 10
113.37002820867259
 20
65.843891519763289
 30
0.0
 11
89.364501362461496
 21
64.412050361228964
 31
0.0
 12
112.14710561917801
 22
64.412037842036057
 32
0.0
 13
112.14710561917801
 23
64.412037842036057
 33
0.0
210
0.0
220
0.0
230
1.0
  0
SOLID
  5
16C2
  8
DRG
  6
CONTINUOUS
 62
     7
 10
32.129938967166609
 20
65.843908707957709
 30
0.0
 11
33.352861525427407
 21
64.412050361228864
 31
0.0
 12
57.358388371638434
 22
65.843891519763289
 32
0.0
 13
57.358388371638434
 23
65.843891519763289
 33
0.0
210
0.0
220
0.0
230
1.0
  0
SOLID
  5
16C3
  8
DRG
  6
CONTINUOUS
 62
     7
 10
88.141578804200691
 20
65.843908707957823
 30
0.0
 11
89.364501362461496
 21
64.412050361228964
 31
0.0
 12
113.37002820867259
 22
65.843891519763289
 32
0.0
 13
113.37002820867259
 23
65.843891519763289
 33
0.0
210
0.0
220
0.0
230
1.0
  0
SOLID
  5
16C4
  8
DRG
  6
CONTINUOUS
 62
     7
 10
67.484908966925857
 20
67.336609159338536
 30
0.0
 11
67.940154950061412
 21
65.835864276546843
 31
0.0
 12
84.501142256151084
 22
62.072518178885289
 32
0.0
 13
84.501142256151084
 23
62.072518178885289
 33
0.0
210
0.0
220
0.0
230
1.0
  0
SOLID
  5
16C5
  8
DRG
  6
CONTINUOUS
 62
     7
 10
58.342263964402669
 20
67.449423653443588
 30
0.0
 11
32.129938967166609
 21
65.843908707957709
 31
0.0
 12
57.358388371638434
 22
65.843891519763289
 32
0.0
 13
57.358388371638434
 23
65.843891519763289
 33
0.0
210
0.0
220
0.0
230
1.0
  0
SOLID
  5
16C6
  8
DRG
  6
CONTINUOUS
 62
     7
 10
114.3539038014368
 20
67.449423653443588
 30
0.0
 11
88.141578804200691
 21
65.843908707957823
 31
0.0
 12
113.37002820867259
 22
65.843891519763289
 32
0.0
 13
113.37002820867259
 23
65.843891519763289
 33
0.0
210
0.0
220
0.0
230
1.0
  0
SOLID
  5
16C7
  8
DRG
  6
CONTINUOUS
 62
     7
 10
31.146064609405549
 20
67.449445738592772
 30
0.0
 11
32.129938967166609
 21
65.843908707957709
 31
0.0
 12
58.342263964402669
 22
67.449423653443588
 32
0.0
 13
58.342263964402669
 23
67.449423653443588
 33
0.0
  0
SOLID
  5
16C8
  8
DRG
  6
CONTINUOUS
 62
     7
 10
87.157704446439652
 20
67.449445738592942
 30
0.0
 11
88.141578804200691
 21
65.843908707957823
 31
0.0
 12
114.3539038014368
 22
67.449423653443588
 32
0.0
 13
114.3539038014368
 23
67.449423653443588
 33
0.0
210
0.0
220
0.0
230
1.0
  0
SOLID
  5
16C9
  8
DRG
  6
CONTINUOUS
 62
     7
 10
44.744171147941039
 20
68.794444026784149
 30
0.0
 11
31.146064609405549
 21
67.449445738592772
 31
0.0
 12
58.342263964402669
 22
67.449423653443588
 32
0.0
 13
58.342263964402669
 23
67.449423653443588
 33
0.0
210
0.0
220
0.0
230
1.0
  0
SOLID
  5
16CA
  8
DRG
  6
CONTINUOUS
 62
     7
 10
100.7558109849752
 20
68.794444026784163
 30
0.0
 11
87.157704446439652
 21
67.449445738592942
 31
0.0
 12
114.3539038014368
 22
67.449423653443588
 32
0.0
 13
114.3539038014368
 23
67.449423653443588
 33
0.0
210
0.0
220
0.0
230
1.0
  0
SOLID
  5
16CB
  8
DRG
  6
CONTINUOUS
 62
     7
 10
67.331191210151701
 20
68.89733173546756
 30
0.0
 11
67.484908966925857
 21
67.336609159338536
 31
0.0
 12
84.501142256151084
 22
62.072518178885289
 32
0.0
 13
84.501142256151084
 23
62.072518178885289
 33
0.0
210
0.0
220
0.0
230
1.0
  0
SOLID
  5
16CC
  8
DRG
  6
CONTINUOUS
 62
     7
 10
45.743523069513166
 20
68.926011203227603
 30
0.0
 11
44.744171147941039
 21
68.794444026784149
 31
0.0
 12
58.342263964402669
 22
67.449423653443588
 32
0.0
 13
58.342263964402669
 23
67.449423653443588
 33
0.0
  0
SOLID
  5
16CD
  8
DRG
  6
CONTINUOUS
 62
     7
 10
101.7551629065473
 20
68.926011203227617
 30
0.0
 11
100.7558109849752
 21
68.794444026784163
 31
0.0
 12
114.3539038014368
 22
67.449423653443588
 32
0.0
 13
114.3539038014368
 23
67.449423653443588
 33
0.0
210
0.0
220
0.0
230
1.0
  0
SOLID
  5
16CE
  8
DRG
  6
CONTINUOUS
 62
     7
 10
43.744819226368982
 20
68.926011203228157
 30
0.0
 11
31.146064609405549
 21
67.449445738592772
 31
0.0
 12
44.744171147941039
 22
68.794444026784149
 32
0.0
 13
44.744171147941039
 23
68.794444026784149
 33
0.0
210
0.0
220
0.0
230
1.0
  0
SOLID
  5
16CF
  8
DRG
  6
CONTINUOUS
 62
     7
 10
99.756459063403184
 20
68.926011203228157
 30
0.0
 11
87.157704446439652
 21
67.449445738592942
 31
0.0
 12
100.7558109849752
 22
68.794444026784163
 32
0.0
 13
100.7558109849752
 23
68.794444026784163
 33
0.0
210
0.0
220
0.0
230
1.0
  0
SOLID
  5
16D0
  8
DRG
  6
CONTINUOUS
 62
     7
 10
115.07450620591371
 20
69.189100861715076
 30
0.0
 11
101.7551629065473
 21
68.926011203227617
 31
0.0
 12
114.3539038014368
 22
67.449423653443588
 32
0.0
 13
114.3539038014368
 23
67.449423653443588
 33
0.0
210
0.0
220
0.0
230
1.0
  0
SOLID
  5
16D1
  8
DRG
  6
CONTINUOUS
 62
     7
 10
59.062866368879583
 20
69.189100861715076
 30
0.0
 11
45.743523069513166
 21
68.926011203227603
 31
0.0
 12
58.342263964402669
 22
67.449423653443588
 32
0.0
 13
58.342263964402669
 23
67.449423653443588
 33
0.0
210
0.0
220
0.0
230
1.0
  0
SOLID
  5
16D2
  8
DRG
  6
CONTINUOUS
 62
     7
 10
30.425464704124099
 20
69.189127802967917
 30
0.0
 11
31.146064609405549
 21
67.449445738592772
 31
0.0
 12
43.744819226368982
 22
68.926011203228157
 32
0.0
 13
43.744819226368982
 23
68.926011203228157
 33
0.0
210
0.0
220
0.0
230
1.0
  0
SOLID
  5
16D3
  8
DRG
  6
CONTINUOUS
 62
     7
 10
86.437104541158206
 20
69.18912780296813
 30
0.0
 11
87.157704446439652
 21
67.449445738592942
 31
0.0
 12
99.756459063403184
 22
68.926011203228157
 32
0.0
 13
99.756459063403184
 23
68.926011203228157
 33
0.0
210
0.0
220
0.0
230
1.0
  0
SOLID
  5
16D4
  8
DRG
  6
CONTINUOUS
 62
     7
 10
46.674770809137378
 20
69.311746646908944
 30
0.0
 11
45.743523069513166
 21
68.926011203227603
 31
0.0
 12
59.062866368879583
 22
69.189100861715076
 32
0.0
 13
59.062866368879583
 23
69.189100861715076
 33
0.0
210
0.0
220
0.0
230
1.0
  0
SOLID
  5
16D5
  8
DRG
  6
CONTINUOUS
 62
     7
 10
102.6864106461715
 20
69.311746646908958
 30
0.0
 11
101.7551629065473
 21
68.926011203227617
 31
0.0
 12
115.07450620591371
 22
69.189100861715076
 32
0.0
 13
115.07450620591371
 23
69.189100861715076
 33
0.0
210
0.0
220
0.0
230
1.0
  0
SOLID
  5
16D6
  8
DRG
  6
CONTINUOUS
 62
     7
 10
42.813571486744991
 20
69.311746646909995
 30
0.0
 11
30.425464704124099
 21
69.189127802967917
 31
0.0
 12
43.744819226368982
 22
68.926011203228157
 32
0.0
 13
43.744819226368982
 23
68.926011203228157
 33
0.0
210
0.0
220
0.0
230
1.0
  0
SOLID
  5
16D7
  8
DRG
  6
CONTINUOUS
 62
     7
 10
98.825211323779172
 20
69.311746646910009
 30
0.0
 11
86.437104541158206
 21
69.18912780296813
 31
0.0
 12
99.756459063403184
 22
68.926011203228157
 32
0.0
 13
99.756459063403184
 23
68.926011203228157
 33
0.0
  0
SOLID
  5
16D8
  8
DRG
  6
CONTINUOUS
 62
     7
 10
80.482556033578916
 20
69.876055965300111
 30
0.0
 11
67.331191210151701
 21
68.89733173546756
 31
0.0
 12
84.501142256151084
 22
62.072518178885289
 32
0.0
 13
84.501142256151084
 23
62.072518178885289
 33
0.0
210
0.0
220
0.0
230
1.0
  0
SOLID
  5
16D9
  8
DRG
  6
CONTINUOUS
 62
     7
 10
84.501142256151084
 20
62.072518178885289
 30
0.0
 11
83.501142256151255
 21
69.876055965300111
 31
0.0
 12
80.482556033578916
 22
69.876055965300111
 32
0.0
 13
80.482556033578916
 23
69.876055965300111
 33
0.0
210
0.0
220
0.0
230
1.0
  0
SOLID
  5
16DA
  8
DRG
  6
CONTINUOUS
 62
     7
 10
47.474451372317922
 20
69.925363124799233
 30
0.0
 11
46.674770809137378
 21
69.311746646908944
 31
0.0
 12
59.062866368879583
 22
69.189100861715076
 32
0.0
 13
59.062866368879583
 23
69.189100861715076
 33
0.0
210
0.0
220
0.0
230
1.0
  0
SOLID
  5
16DB
  8
DRG
  6
CONTINUOUS
 62
     7
 10
103.4860912093521
 20
69.925363124799233
 30
0.0
 11
102.6864106461715
 21
69.311746646908958
 31
0.0
 12
115.07450620591371
 22
69.189100861715076
 32
0.0
 13
115.07450620591371
 23
69.189100861715076
 33
0.0
  0
SOLID
  5
16DC
  8
DRG
  6
CONTINUOUS
 62
     7
 10
98.025530760598997
 20
69.925363124800725
 30
0.0
 11
86.437104541158206
 21
69.18912780296813
 31
0.0
 12
98.825211323779172
 22
69.311746646910009
 32
0.0
 13
98.825211323779172
 23
69.311746646910009
 33
0.0
210
0.0
220
0.0
230
1.0
  0
SOLID
  5
16DD
  8
DRG
  6
CONTINUOUS
 62
     7
 10
42.01389092356478
 20
69.925363124800725
 30
0.0
 11
30.425464704124099
 21
69.189127802967917
 31
0.0
 12
42.813571486744991
 22
69.311746646909995
 32
0.0
 13
42.813571486744991
 23
69.311746646909995
 33
0.0
210
0.0
220
0.0
230
1.0
  0
SOLID
  5
16DE
  8
DRG
  6
CONTINUOUS
 62
     7
 10
84.015250681967487
 20
70.00375669518948
 30
0.0
 11
83.501142256151255
 21
69.876055965300111
 31
0.0
 12
84.501142256151084
 22
62.072518178885289
 32
0.0
 13
84.501142256151084
 23
62.072518178885289
 33
0.0
  0
SOLID
  5
16DF
  8
DRG
  6
CONTINUOUS
 62
     7
 10
79.555505050454073
 20
70.02288641641465
 30
0.0
 11
67.331191210151701
 21
68.89733173546756
 31
0.0
 12
80.482556033578916
 22
69.876055965300111
 32
0.0
 13
80.482556033578916
 23
69.876055965300111
 33
0.0
210
0.0
220
0.0
230
1.0
  0
SOLID
  5
16E0
  8
DRG
  6
CONTINUOUS
 62
     7
 10
84.501142256151084
 20
70.214764581409185
 30
0.0
 11
84.015250681967487
 21
70.00375669518948
 31
0.0
 12
84.501142256151084
 22
62.072518178885289
 32
0.0
 13
84.501142256151084
 23
62.072518178885289
 33
0.0
210
0.0
220
0.0
230
1.0
  0
SOLID
  5
16E1
  8
DRG
  6
CONTINUOUS
 62
     7
 10
78.719200276701514
 20
70.449004982175254
 30
0.0
 11
67.331191210151701
 21
68.89733173546756
 31
0.0
 12
79.555505050454073
 22
70.02288641641465
 32
0.0
 13
79.555505050454073
 23
70.02288641641465
 33
0.0
210
0.0
220
0.0
230
1.0
  0
SOLID
  5
16E2
  8
DRG
  6
CONTINUOUS
 62
     7
 10
48.088067850208638
 20
70.725043687979436
 30
0.0
 11
47.474451372317922
 21
69.925363124799233
 31
0.0
 12
59.062866368879583
 22
69.189100861715076
 32
0.0
 13
59.062866368879583
 23
69.189100861715076
 33
0.0
210
0.0
220
0.0
230
1.0
  0
SOLID
  5
16E3
  8
DRG
  6
CONTINUOUS
 62
     7
 10
104.0997076872428
 20
70.725043687979451
 30
0.0
 11
103.4860912093521
 21
69.925363124799233
 31
0.0
 12
115.07450620591371
 22
69.189100861715076
 32
0.0
 13
115.07450620591371
 23
69.189100861715076
 33
0.0
210
0.0
220
0.0
230
1.0
  0
SOLID
  5
16E4
  8
DRG
  6
CONTINUOUS
 62
     7
 10
97.411914282708679
 20
70.725043687981255
 30
0.0
 11
86.437104541158206
 21
69.18912780296813
 31
0.0
 12
98.025530760598997
 22
69.925363124800725
 32
0.0
 13
98.025530760598997
 23
69.925363124800725
 33
0.0
210
0.0
220
0.0
230
1.0
  0
SOLID
  5
16E5
  8
DRG
  6
CONTINUOUS
 62
     7
 10
41.400274445674498
 20
70.725043687981255
 30
0.0
 11
30.425464704124099
 21
69.189127802967917
 31
0.0
 12
42.01389092356478
 22
69.925363124800725
 32
0.0
 13
42.01389092356478
 23
69.925363124800725
 33
0.0
210
0.0
220
0.0
230
1.0
  0
SOLID
  5
16E6
  8
DRG
  6
CONTINUOUS
 62
     7
 10
115.5140918658898
 20
71.020086678661926
 30
0.0
 11
104.0997076872428
 21
70.725043687979451
 31
0.0
 12
115.07450620591371
 22
69.189100861715076
 32
0.0
 13
115.07450620591371
 23
69.189100861715076
 33
0.0
210
0.0
220
0.0
230
1.0
  0
SOLID
  5
16E7
  8
DRG
  6
CONTINUOUS
 62
     7
 10
59.502452028855693
 20
71.020086678661926
 30
0.0
 11
48.088067850208638
 21
70.725043687979436
 31
0.0
 12
59.062866368879583
 22
69.189100861715076
 32
0.0
 13
59.062866368879583
 23
69.189100861715076
 33
0.0
210
0.0
220
0.0
230
1.0
  0
SOLID
  5
16E8
  8
DRG
  6
CONTINUOUS
 62
     7
 10
29.985882812524249
 20
71.020118154984459
 30
0.0
 11
30.425464704124099
 21
69.189127802967917
 31
0.0
 12
41.400274445674498
 22
70.725043687981255
 32
0.0
 13
41.400274445674498
 23
70.725043687981255
 33
0.0
210
0.0
220
0.0
230
1.0
  0
SOLID
  5
16E9
  8
DRG
  6
CONTINUOUS
 62
     7
 10
85.997522649558391
 20
71.020118154984715
 30
0.0
 11
86.437104541158206
 21
69.18912780296813
 31
0.0
 12
97.411914282708679
 22
70.725043687981255
 32
0.0
 13
97.411914282708679
 23
70.725043687981255
 33
0.0
210
0.0
220
0.0
230
1.0
  0
SOLID
  5
16EA
  8
DRG
  6
CONTINUOUS
 62
     7
 10
78.055505050454087
 20
71.112700208422694
 30
0.0
 11
67.331191210151701
 21
68.89733173546756
 31
0.0
 12
78.719200276701514
 22
70.449004982175254
 32
0.0
 13
78.719200276701514
 23
70.449004982175254
 33
0.0
210
0.0
220
0.0
230
1.0
  0
SOLID
  5
16EB
  8
DRG
  6
CONTINUOUS
 62
     7
 10
48.473803293890491
 20
71.656291427603421
 30
0.0
 11
48.088067850208638
 21
70.725043687979436
 31
0.0
 12
59.502452028855693
 22
71.020086678661926
 32
0.0
 13
59.502452028855693
 23
71.020086678661926
 33
0.0
210
0.0
220
0.0
230
1.0
  0
SOLID
  5
16EC
  8
DRG
  6
CONTINUOUS
 62
     7
 10
104.48544313092459
 20
71.656291427603435
 30
0.0
 11
104.0997076872428
 21
70.725043687979451
 31
0.0
 12
115.5140918658898
 22
71.020086678661926
 32
0.0
 13
115.5140918658898
 23
71.020086678661926
 33
0.0
210
0.0
220
0.0
230
1.0
  0
SOLID
  5
16ED
  8
DRG
  6
CONTINUOUS
 62
     7
 10
97.026178839027338
 20
71.656291427605453
 30
0.0
 11
85.997522649558391
 21
71.020118154984715
 31
0.0
 12
97.411914282708679
 22
70.725043687981255
 32
0.0
 13
97.411914282708679
 23
70.725043687981255
 33
0.0
210
0.0
220
0.0
230
1.0
  0
SOLID
  5
16EE
  8
DRG
  6
CONTINUOUS
 62
     7
 10
41.014539001993157
 20
71.656291427605453
 30
0.0
 11
29.985882812524249
 21
71.020118154984459
 31
0.0
 12
41.400274445674498
 22
70.725043687981255
 32
0.0
 13
41.400274445674498
 23
70.725043687981255
 33
0.0
  0
SOLID
  5
16EF
  8
DRG
  6
CONTINUOUS
 62
     7
 10
77.62938648469347
 20
71.949004982175268
 30
0.0
 11
67.331191210151701
 21
68.89733173546756
 31
0.0
 12
78.055505050454087
 22
71.112700208422694
 32
0.0
 13
78.055505050454087
 23
71.112700208422694
 33
0.0
210
0.0
220
0.0
230
1.0
  0
SOLID
  5
16F0
  8
DRG
  6
CONTINUOUS
 62
     7
 10
48.605370470334492
 20
72.655643349175492
 30
0.0
 11
48.473803293890491
 21
71.656291427603421
 31
0.0
 12
59.502452028855693
 22
71.020086678661926
 32
0.0
 13
59.502452028855693
 23
71.020086678661926
 33
0.0
210
0.0
220
0.0
230
1.0
  0
SOLID
  5
16F1
  8
DRG
  6
CONTINUOUS
 62
     7
 10
104.6170103073686
 20
72.655643349175506
 30
0.0
 11
104.48544313092459
 21
71.656291427603435
 31
0.0
 12
115.5140918658898
 22
71.020086678661926
 32
0.0
 13
115.5140918658898
 23
71.020086678661926
 33
0.0
210
0.0
220
0.0
230
1.0
  0
SOLID
  5
16F2
  8
DRG
  6
CONTINUOUS
 62
     7
 10
40.882971825549703
 20
72.655643349177566
 30
0.0
 11
29.985882812524249
 21
71.020118154984459
 31
0.0
 12
41.014539001993157
 22
71.656291427605453
 32
0.0
 13
41.014539001993157
 23
71.656291427605453
 33
0.0
210
0.0
220
0.0
230
1.0
  0
SOLID
  5
16F3
  8
DRG
  6
CONTINUOUS
 62
     7
 10
96.894611662583884
 20
72.655643349177595
 30
0.0
 11
85.997522649558391
 21
71.020118154984715
 31
0.0
 12
97.026178839027338
 22
71.656291427605453
 32
0.0
 13
97.026178839027338
 23
71.656291427605453
 33
0.0
210
0.0
220
0.0
230
1.0
  0
SOLID
  5
16F4
  8
DRG
  6
CONTINUOUS
 62
     7
 10
77.482556033578931
 20
72.876055965300111
 30
0.0
 11
67.331191210151701
 21
68.89733173546756
 31
0.0
 12
77.62938648469347
 22
71.949004982175268
 32
0.0
 13
77.62938648469347
 23
71.949004982175268
 33
0.0
210
0.0
220
0.0
230
1.0
  0
SOLID
  5
16F5
  8
DRG
  6
CONTINUOUS
 62
     7
 10
115.6618367640986
 20
72.897296325816527
 30
0.0
 11
104.6170103073686
 21
72.655643349175506
 31
0.0
 12
115.5140918658898
 22
71.020086678661926
 32
0.0
 13
115.5140918658898
 23
71.020086678661926
 33
0.0
210
0.0
220
0.0
230
1.0
  0
SOLID
  5
16F6
  8
DRG
  6
CONTINUOUS
 62
     7
 10
59.650196927064421
 20
72.897296325816555
 30
0.0
 11
48.605370470334492
 21
72.655643349175492
 31
0.0
 12
59.502452028855693
 22
71.020086678661926
 32
0.0
 13
59.502452028855693
 23
71.020086678661926
 33
0.0
210
0.0
220
0.0
230
1.0
  0
SOLID
  5
16F7
  8
DRG
  6
CONTINUOUS
 62
     7
 10
29.838142899665851
 20
72.897331735467191
 30
0.0
 11
29.985882812524249
 21
71.020118154984459
 31
0.0
 12
40.882971825549703
 22
72.655643349177566
 32
0.0
 13
40.882971825549703
 23
72.655643349177566
 33
0.0
  0
SOLID
  5
16F8
  8
DRG
  6
CONTINUOUS
 62
     7
 10
85.849782736700035
 20
72.897331735467475
 30
0.0
 11
85.997522649558391
 21
71.020118154984715
 31
0.0
 12
96.894611662583884
 22
72.655643349177595
 32
0.0
 13
96.894611662583884
 23
72.655643349177595
 33
0.0
210
0.0
220
0.0
230
1.0
  0
SOLID
  5
16F9
  8
DRG
  6
CONTINUOUS
 62
     7
 10
165.4162645291251
 20
78.311404477182364
 30
0.0
 11
161.3332883364622
 21
62.115696081838678
 31
0.0
 12
171.78072804963571
 22
62.115696081838678
 32
0.0
 13
171.78072804963571
 23
62.115696081838678
 33
0.0
210
0.0
220
0.0
230
1.0
  0
SOLID
  5
16FA
  8
DRG
  6
CONTINUOUS
 62
     7
 10
115.9280150750885
 20
78.628250557125298
 30
0.0
 11
104.6170103073686
 21
72.655643349175506
 31
0.0
 12
115.6618367640986
 22
72.897296325816527
 32
0.0
 13
115.6618367640986
 23
72.897296325816527
 33
0.0
210
0.0
220
0.0
230
1.0
  0
SOLID
  5
16FB
  8
DRG
  6
CONTINUOUS
 62
     7
 10
59.916375238054371
 20
78.628250557125327
 30
0.0
 11
48.605370470334492
 21
72.655643349175492
 31
0.0
 12
59.650196927064421
 22
72.897296325816555
 32
0.0
 13
59.650196927064421
 23
72.897296325816555
 33
0.0
210
0.0
220
0.0
230
1.0
  0
SOLID
  5
16FC
  8
DRG
  6
CONTINUOUS
 62
     7
 10
29.57196678328226
 20
78.628262385817905
 30
0.0
 11
29.838142899665851
 21
72.897331735467191
 31
0.0
 12
40.882971825549703
 22
72.655643349177566
 32
0.0
 13
40.882971825549703
 23
72.655643349177566
 33
0.0
210
0.0
220
0.0
230
1.0
  0
SOLID
  5
16FD
  8
DRG
  6
CONTINUOUS
 62
     7
 10
85.583606620316473
 20
78.628262385818132
 30
0.0
 11
85.849782736700035
 21
72.897331735467475
 31
0.0
 12
96.894611662583884
 22
72.655643349177595
 32
0.0
 13
96.894611662583884
 23
72.655643349177595
 33
0.0
210
0.0
220
0.0
230
1.0
  0
SOLID
  5
16FE
  8
DRG
  6
CONTINUOUS
 62
     7
 10
48.825355035771203
 20
81.496816718755184
 30
0.0
 11
48.605370470334492
 21
72.655643349175492
 31
0.0
 12
59.916375238054371
 22
78.628250557125327
 32
0.0
 13
59.916375238054371
 23
78.628250557125327
 33
0.0
210
0.0
220
0.0
230
1.0
  0
SOLID
  5
16FF
  8
DRG
  6
CONTINUOUS
 62
     7
 10
104.83699487280531
 20
81.496816718755184
 30
0.0
 11
104.6170103073686
 21
72.655643349175506
 31
0.0
 12
115.9280150750885
 22
78.628250557125298
 32
0.0
 13
115.9280150750885
 23
78.628250557125298
 33
0.0
210
0.0
220
0.0
230
1.0
  0
SOLID
  5
1700
  8
DRG
  6
CONTINUOUS
 62
     7
 10
40.662987260112992
 20
81.496816718755866
 30
0.0
 11
29.57196678328226
 21
78.628262385817905
 31
0.0
 12
40.882971825549703
 22
72.655643349177566
 32
0.0
 13
40.882971825549703
 23
72.655643349177566
 33
0.0
210
0.0
220
0.0
230
1.0
  0
SOLID
  5
1701
  8
DRG
  6
CONTINUOUS
 62
     7
 10
96.674627097147194
 20
81.496816718756293
 30
0.0
 11
85.583606620316473
 21
78.628262385818132
 31
0.0
 12
96.894611662583884
 22
72.655643349177595
 32
0.0
 13
96.894611662583884
 23
72.655643349177595
 33
0.0
210
0.0
220
0.0
230
1.0
  0
SOLID
  5
1702
  8
DRG
  6
CONTINUOUS
 62
     7
 10
153.2899770207527
 20
82.583583780839575
 30
0.0
 11
161.3332883364622
 21
62.115696081838678
 31
0.0
 12
165.4162645291251
 22
78.311404477182364
 32
0.0
 13
165.4162645291251
 23
78.311404477182364
 33
0.0
210
0.0
220
0.0
230
1.0
  0
SOLID
  5
1703
  8
DRG
  6
CONTINUOUS
 62
     7
 10
29.57196678328226
 20
84.365371051693273
 30
0.0
 11
29.57196678328226
 21
78.628262385817905
 31
0.0
 12
40.662987260112992
 22
81.496816718755866
 32
0.0
 13
40.662987260112992
 23
81.496816718755866
 33
0.0
210
0.0
220
0.0
230
1.0
  0
SOLID
  5
1704
  8
DRG
  6
CONTINUOUS
 62
     7
 10
85.583606620316473
 20
84.365371051693415
 30
0.0
 11
85.583606620316473
 21
78.628262385818132
 31
0.0
 12
96.674627097147194
 22
81.496816718756293
 32
0.0
 13
96.674627097147194
 23
81.496816718756293
 33
0.0
  0
SOLID
  5
1705
  8
DRG
  6
CONTINUOUS
 62
     7
 10
115.9280150750885
 20
84.365382880385525
 30
0.0
 11
104.83699487280531
 21
81.496816718755184
 31
0.0
 12
115.9280150750885
 22
78.628250557125298
 32
0.0
 13
115.9280150750885
 23
78.628250557125298
 33
0.0
210
0.0
220
0.0
230
1.0
  0
SOLID
  5
1706
  8
DRG
  6
CONTINUOUS
 62
     7
 10
59.916375238054371
 20
84.365382880385553
 30
0.0
 11
48.825355035771203
 21
81.496816718755184
 31
0.0
 12
59.916375238054371
 22
78.628250557125327
 32
0.0
 13
59.916375238054371
 23
78.628250557125327
 33
0.0
210
0.0
220
0.0
230
1.0
  0
SOLID
  5
1707
  8
DRG
  6
CONTINUOUS
 62
     7
 10
18.821661727211438
 20
85.569427875032716
 30
0.0
 11
7.7802673214059723
 21
62.115696081838671
 31
0.0
 12
18.821661727211438
 22
62.115696081838678
 32
0.0
 13
18.821661727211438
 23
62.115696081838678
 33
0.0
  0
SOLID
  5
1708
  8
DRG
  6
CONTINUOUS
 62
     7
 10
130.05101171535759
 20
85.569427875032716
 30
0.0
 11
119.0096173095521
 21
62.115696081838678
 31
0.0
 12
130.05101171535759
 22
62.115696081838671
 32
0.0
 13
130.05101171535759
 23
62.115696081838671
 33
0.0
210
0.0
220
0.0
230
1.0
  0
SOLID
  5
1709
  8
DRG
  6
CONTINUOUS
 62
     7
 10
176.9709164189357
 20
86.855763084496857
 30
0.0
 11
153.2899770207527
 21
82.583583780839575
 31
0.0
 12
165.4162645291251
 22
78.311404477182364
 32
0.0
 13
165.4162645291251
 23
78.311404477182364
 33
0.0
210
0.0
220
0.0
230
1.0
  0
SOLID
  5
170A
  8
DRG
  6
CONTINUOUS
 62
     7
 10
176.9709164189357
 20
86.855763084496857
 30
0.0
 11
165.4162645291251
 21
78.311404477182364
 31
0.0
 12
176.9709164189357
 22
78.31140447718235
 32
0.0
 13
176.9709164189357
 23
78.31140447718235
 33
0.0
210
0.0
220
0.0
230
1.0
  0
SOLID
  5
170B
  8
DRG
  6
CONTINUOUS
 62
     7
 10
165.4162645291251
 20
86.855763084496886
 30
0.0
 11
153.2899770207527
 21
82.583583780839575
 31
0.0
 12
176.9709164189357
 22
86.855763084496857
 32
0.0
 13
176.9709164189357
 23
86.855763084496857
 33
0.0
210
0.0
220
0.0
230
1.0
  0
SOLID
  5
170C
  8
DRG
  6
CONTINUOUS
 62
     7
 10
18.975379483985598
 20
87.13015045116174
 30
0.0
 11
7.7802673214059723
 21
62.115696081838671
 31
0.0
 12
18.821661727211438
 22
85.569427875032716
 32
0.0
 13
18.821661727211438
 23
85.569427875032716
 33
0.0
210
0.0
220
0.0
230
1.0
  0
SOLID
  5
170D
  8
DRG
  6
CONTINUOUS
 62
     7
 10
130.2047294721317
 20
87.130150451161754
 30
0.0
 11
119.0096173095521
 21
62.115696081838678
 31
0.0
 12
130.05101171535759
 22
85.569427875032716
 32
0.0
 13
130.05101171535759
 23
85.569427875032716
 33
0.0
  0
SOLID
  5
170E
  8
DRG
  6
CONTINUOUS
 62
     7
 10
19.43062546712115
 20
88.630895333953447
 30
0.0
 11
7.7802673214059723
 21
62.115696081838671
 31
0.0
 12
18.975379483985598
 22
87.13015045116174
 32
0.0
 13
18.975379483985598
 23
87.13015045116174
 33
0.0
210
0.0
220
0.0
230
1.0
  0
SOLID
  5
170F
  8
DRG
  6
CONTINUOUS
 62
     7
 10
130.6599754552673
 20
88.630895333953447
 30
0.0
 11
119.0096173095521
 21
62.115696081838678
 31
0.0
 12
130.2047294721317
 22
87.130150451161754
 32
0.0
 13
130.2047294721317
 23
87.130150451161754
 33
0.0
210
0.0
220
0.0
230
1.0
  0
SOLID
  5
1710
  8
DRG
  6
CONTINUOUS
 62
     7
 10
29.83814289966584
 20
90.096301702044016
 30
0.0
 11
29.57196678328226
 21
84.365371051693273
 31
0.0
 12
40.662987260112992
 22
81.496816718755866
 32
0.0
 13
40.662987260112992
 23
81.496816718755866
 33
0.0
  0
SOLID
  5
1711
  8
DRG
  6
CONTINUOUS
 62
     7
 10
85.849782736700035
 20
90.096301702044045
 30
0.0
 11
85.583606620316473
 21
84.365371051693415
 31
0.0
 12
96.674627097147194
 22
81.496816718756293
 32
0.0
 13
96.674627097147194
 23
81.496816718756293
 33
0.0
  0
SOLID
  5
1712
  8
DRG
  6
CONTINUOUS
 62
     7
 10
115.6618367640986
 20
90.096337111694325
 30
0.0
 11
104.83699487280531
 21
81.496816718755184
 31
0.0
 12
115.9280150750885
 22
84.365382880385525
 32
0.0
 13
115.9280150750885
 23
84.365382880385525
 33
0.0
210
0.0
220
0.0
230
1.0
  0
SOLID
  5
1713
  8
DRG
  6
CONTINUOUS
 62
     7
 10
59.650196927064421
 20
90.096337111694368
 30
0.0
 11
48.825355035771203
 21
81.496816718755184
 31
0.0
 12
59.916375238054371
 22
84.365382880385553
 32
0.0
 13
59.916375238054371
 23
84.365382880385553
 33
0.0
210
0.0
220
0.0
230
1.0
  0
SOLID
  5
1714
  8
DRG
  6
CONTINUOUS
 62
     7
 10
40.882971825549703
 20
90.337990088334166
 30
0.0
 11
29.83814289966584
 21
90.096301702044016
 31
0.0
 12
40.662987260112992
 22
81.496816718755866
 32
0.0
 13
40.662987260112992
 23
81.496816718755866
 33
0.0
  0
SOLID
  5
1715
  8
DRG
  6
CONTINUOUS
 62
     7
 10
48.605370470334456
 20
90.337990088334735
 30
0.0
 11
48.825355035771203
 21
81.496816718755184
 31
0.0
 12
59.650196927064421
 22
90.096337111694368
 32
0.0
 13
59.650196927064421
 23
90.096337111694368
 33
0.0
210
0.0
220
0.0
230
1.0
  0
SOLID
  5
1716
  8
DRG
  6
CONTINUOUS
 62
     7
 10
104.6170103073686
 20
90.337990088334735
 30
0.0
 11
104.83699487280531
 21
81.496816718755184
 31
0.0
 12
115.6618367640986
 22
90.096337111694325
 32
0.0
 13
115.6618367640986
 23
90.096337111694325
 33
0.0
210
0.0
220
0.0
230
1.0
  0
SOLID
  5
1717
  8
DRG
  6
CONTINUOUS
 62
     7
 10
96.894611662583884
 20
90.337990088335033
 30
0.0
 11
85.849782736700035
 21
90.096301702044045
 31
0.0
 12
96.674627097147194
 22
81.496816718756293
 32
0.0
 13
96.674627097147194
 23
81.496816718756293
 33
0.0
210
0.0
220
0.0
230
1.0
  0
SOLID
  5
1718
  8
DRG
  6
CONTINUOUS
 62
     7
 10
41.014539001993349
 20
91.337342009906294
 30
0.0
 11
29.83814289966584
 21
90.096301702044016
 31
0.0
 12
40.882971825549703
 22
90.337990088334166
 32
0.0
 13
40.882971825549703
 23
90.337990088334166
 33
0.0
  0
SOLID
  5
1719
  8
DRG
  6
CONTINUOUS
 62
     7
 10
48.47380329389069
 20
91.337342009906834
 30
0.0
 11
48.605370470334456
 21
90.337990088334735
 31
0.0
 12
59.650196927064421
 22
90.096337111694368
 32
0.0
 13
59.650196927064421
 23
90.096337111694368
 33
0.0
210
0.0
220
0.0
230
1.0
  0
SOLID
  5
171A
  8
DRG
  6
CONTINUOUS
 62
     7
 10
104.48544313092491
 20
91.337342009906848
 30
0.0
 11
104.6170103073686
 21
90.337990088334735
 31
0.0
 12
115.6618367640986
 22
90.096337111694325
 32
0.0
 13
115.6618367640986
 23
90.096337111694325
 33
0.0
210
0.0
220
0.0
230
1.0
  0
SOLID
  5
171B
  8
DRG
  6
CONTINUOUS
 62
     7
 10
97.026178839027665
 20
91.337342009907147
 30
0.0
 11
85.849782736700035
 21
90.096301702044045
 31
0.0
 12
96.894611662583884
 22
90.337990088335033
 32
0.0
 13
96.894611662583884
 23
90.337990088335033
 33
0.0
210
0.0
220
0.0
230
1.0
  0
SOLID
  5
171C
  8
DRG
  6
CONTINUOUS
 62
     7
 10
29.985882812524231
 20
91.973515282526762
 30
0.0
 11
29.83814289966584
 21
90.096301702044016
 31
0.0
 12
41.014539001993349
 22
91.337342009906294
 32
0.0
 13
41.014539001993349
 23
91.337342009906294
 33
0.0
  0
SOLID
  5
171D
  8
DRG
  6
CONTINUOUS
 62
     7
 10
85.99752264955842
 20
91.973515282526762
 30
0.0
 11
85.849782736700035
 21
90.096301702044045
 31
0.0
 12
97.026178839027665
 22
91.337342009907147
 32
0.0
 13
97.026178839027665
 23
91.337342009907147
 33
0.0
  0
SOLID
  5
171E
  8
DRG
  6
CONTINUOUS
 62
     7
 10
115.5140918658899
 20
91.973546758849025
 30
0.0
 11
104.48544313092491
 21
91.337342009906848
 31
0.0
 12
115.6618367640986
 22
90.096337111694325
 32
0.0
 13
115.6618367640986
 23
90.096337111694325
 33
0.0
210
0.0
220
0.0
230
1.0
  0
SOLID
  5
171F
  8
DRG
  6
CONTINUOUS
 62
     7
 10
59.50245202885575
 20
91.973546758849054
 30
0.0
 11
48.47380329389069
 21
91.337342009906834
 31
0.0
 12
59.650196927064421
 22
90.096337111694368
 32
0.0
 13
59.650196927064421
 23
90.096337111694368
 33
0.0
210
0.0
220
0.0
230
1.0
  0
SOLID
  5
1720
  8
DRG
  6
CONTINUOUS
 62
     7
 10
41.400274445674881
 20
92.26858974953042
 30
0.0
 11
29.985882812524231
 21
91.973515282526762
 31
0.0
 12
41.014539001993349
 22
91.337342009906294
 32
0.0
 13
41.014539001993349
 23
91.337342009906294
 33
0.0
210
0.0
220
0.0
230
1.0
  0
SOLID
  5
1721
  8
DRG
  6
CONTINUOUS
 62
     7
 10
48.088067850209029
 20
92.268589749530904
 30
0.0
 11
48.47380329389069
 21
91.337342009906834
 31
0.0
 12
59.50245202885575
 22
91.973546758849054
 32
0.0
 13
59.50245202885575
 23
91.973546758849054
 33
0.0
210
0.0
220
0.0
230
1.0
  0
SOLID
  5
1722
  8
DRG
  6
CONTINUOUS
 62
     7
 10
104.0997076872434
 20
92.268589749530975
 30
0.0
 11
104.48544313092491
 21
91.337342009906848
 31
0.0
 12
115.5140918658899
 22
91.973546758849025
 32
0.0
 13
115.5140918658899
 23
91.973546758849025
 33
0.0
210
0.0
220
0.0
230
1.0
  0
SOLID
  5
1723
  8
DRG
  6
CONTINUOUS
 62
     7
 10
97.411914282709276
 20
92.268589749531216
 30
0.0
 11
85.99752264955842
 21
91.973515282526762
 31
0.0
 12
97.026178839027665
 22
91.337342009907147
 32
0.0
 13
97.026178839027665
 23
91.337342009907147
 33
0.0
210
0.0
220
0.0
230
1.0
  0
SOLID
  5
1724
  8
DRG
  6
CONTINUOUS
 62
     7
 10
42.013890923565327
 20
93.068270312710808
 30
0.0
 11
29.985882812524231
 21
91.973515282526762
 31
0.0
 12
41.400274445674881
 22
92.26858974953042
 32
0.0
 13
41.400274445674881
 23
92.26858974953042
 33
0.0
210
0.0
220
0.0
230
1.0
  0
SOLID
  5
1725
  8
DRG
  6
CONTINUOUS
 62
     7
 10
47.474451372318462
 20
93.068270312711235
 30
0.0
 11
48.088067850209029
 21
92.268589749530904
 31
0.0
 12
59.50245202885575
 22
91.973546758849054
 32
0.0
 13
59.50245202885575
 23
91.973546758849054
 33
0.0
210
0.0
220
0.0
230
1.0
  0
SOLID
  5
1726
  8
DRG
  6
CONTINUOUS
 62
     7
 10
103.48609120935291
 20
93.068270312711377
 30
0.0
 11
104.0997076872434
 21
92.268589749530975
 31
0.0
 12
115.5140918658899
 22
91.973546758849025
 32
0.0
 13
115.5140918658899
 23
91.973546758849025
 33
0.0
210
0.0
220
0.0
230
1.0
  0
SOLID
  5
1727
  8
DRG
  6
CONTINUOUS
 62
     7
 10
98.025530760599821
 20
93.068270312711576
 30
0.0
 11
85.99752264955842
 21
91.973515282526762
 31
0.0
 12
97.411914282709276
 22
92.268589749531216
 32
0.0
 13
97.411914282709276
 23
92.268589749531216
 33
0.0
210
0.0
220
0.0
230
1.0
  0
SOLID
  5
1728
  8
DRG
  6
CONTINUOUS
 62
     7
 10
42.813571486745637
 20
93.681886790601396
 30
0.0
 11
29.985882812524231
 21
91.973515282526762
 31
0.0
 12
42.013890923565327
 22
93.068270312710808
 32
0.0
 13
42.013890923565327
 23
93.068270312710808
 33
0.0
  0
SOLID
  5
1729
  8
DRG
  6
CONTINUOUS
 62
     7
 10
46.674770809138039
 20
93.681886790601681
 30
0.0
 11
47.474451372318462
 21
93.068270312711235
 31
0.0
 12
59.50245202885575
 22
91.973546758849054
 32
0.0
 13
59.50245202885575
 23
91.973546758849054
 33
0.0
210
0.0
220
0.0
230
1.0
  0
SOLID
  5
172A
  8
DRG
  6
CONTINUOUS
 62
     7
 10
102.6864106461726
 20
93.681886790601908
 30
0.0
 11
103.48609120935291
 21
93.068270312711377
 31
0.0
 12
115.5140918658899
 22
91.973546758849025
 32
0.0
 13
115.5140918658899
 23
91.973546758849025
 33
0.0
210
0.0
220
0.0
230
1.0
  0
SOLID
  5
172B
  8
DRG
  6
CONTINUOUS
 62
     7
 10
98.825211323780209
 20
93.68188679060205
 30
0.0
 11
85.99752264955842
 21
91.973515282526762
 31
0.0
 12
98.025530760599821
 22
93.068270312711576
 32
0.0
 13
98.025530760599821
 23
93.068270312711576
 33
0.0
210
0.0
220
0.0
230
1.0
  0
SOLID
  5
172C
  8
DRG
  6
CONTINUOUS
 62
     7
 10
86.437104541158234
 20
93.804505634543304
 30
0.0
 11
85.99752264955842
 21
91.973515282526762
 31
0.0
 12
98.825211323780209
 22
93.68188679060205
 32
0.0
 13
98.825211323780209
 23
93.68188679060205
 33
0.0
210
0.0
220
0.0
230
1.0
  0
SOLID
  5
172D
  8
DRG
  6
CONTINUOUS
 62
     7
 10
30.425464704124071
 20
93.804505634543304
 30
0.0
 11
29.985882812524231
 21
91.973515282526762
 31
0.0
 12
42.813571486745637
 22
93.681886790601396
 32
0.0
 13
42.813571486745637
 23
93.681886790601396
 33
0.0
210
0.0
220
0.0
230
1.0
  0
SOLID
  5
172E
  8
DRG
  6
CONTINUOUS
 62
     7
 10
115.07450620591381
 20
93.804532575795946
 30
0.0
 11
102.6864106461726
 21
93.681886790601908
 31
0.0
 12
115.5140918658899
 22
91.973546758849025
 32
0.0
 13
115.5140918658899
 23
91.973546758849025
 33
0.0
210
0.0
220
0.0
230
1.0
  0
SOLID
  5
172F
  8
DRG
  6
CONTINUOUS
 62
     7
 10
59.062866368879661
 20
93.80453257579596
 30
0.0
 11
46.674770809138039
 21
93.681886790601681
 31
0.0
 12
59.50245202885575
 22
91.973546758849054
 32
0.0
 13
59.50245202885575
 23
91.973546758849054
 33
0.0
210
0.0
220
0.0
230
1.0
  0
SOLID
  5
1730
  8
DRG
  6
CONTINUOUS
 62
     7
 10
43.744819226369721
 20
94.06762223428305
 30
0.0
 11
30.425464704124071
 21
93.804505634543304
 31
0.0
 12
42.813571486745637
 22
93.681886790601396
 32
0.0
 13
42.813571486745637
 23
93.681886790601396
 33
0.0
210
0.0
220
0.0
230
1.0
  0
SOLID
  5
1731
  8
DRG
  6
CONTINUOUS
 62
     7
 10
45.74352306951392
 20
94.067622234283206
 30
0.0
 11
46.674770809138039
 21
93.681886790601681
 31
0.0
 12
59.062866368879661
 22
93.80453257579596
 32
0.0
 13
59.062866368879661
 23
93.80453257579596
 33
0.0
210
0.0
220
0.0
230
1.0
  0
SOLID
  5
1732
  8
DRG
  6
CONTINUOUS
 62
     7
 10
101.75516290654851
 20
94.067622234283533
 30
0.0
 11
102.6864106461726
 21
93.681886790601908
 31
0.0
 12
115.07450620591381
 22
93.804532575795946
 32
0.0
 13
115.07450620591381
 23
93.804532575795946
 33
0.0
210
0.0
220
0.0
230
1.0
  0
SOLID
  5
1733
  8
DRG
  6
CONTINUOUS
 62
     7
 10
99.756459063404321
 20
94.067622234283604
 30
0.0
 11
86.437104541158234
 21
93.804505634543304
 31
0.0
 12
98.825211323780209
 22
93.68188679060205
 32
0.0
 13
98.825211323780209
 23
93.68188679060205
 33
0.0
210
0.0
220
0.0
230
1.0
  0
SOLID
  5
1734
  8
DRG
  6
CONTINUOUS
 62
     7
 10
44.744171147941813
 20
94.199189410726845
 30
0.0
 11
30.425464704124071
 21
93.804505634543304
 31
0.0
 12
43.744819226369721
 22
94.06762223428305
 32
0.0
 13
43.744819226369721
 23
94.06762223428305
 33
0.0
210
0.0
220
0.0
230
1.0
  0
SOLID
  5
1735
  8
DRG
  6
CONTINUOUS
 62
     7
 10
44.744171147941813
 20
94.199189410726845
 30
0.0
 11
45.74352306951392
 21
94.067622234283206
 31
0.0
 12
59.062866368879661
 22
93.80453257579596
 32
0.0
 13
59.062866368879661
 23
93.80453257579596
 33
0.0
  0
SOLID
  5
1736
  8
DRG
  6
CONTINUOUS
 62
     7
 10
100.75581098497641
 20
94.199189410727286
 30
0.0
 11
86.437104541158234
 21
93.804505634543304
 31
0.0
 12
99.756459063404321
 22
94.067622234283604
 32
0.0
 13
99.756459063404321
 23
94.067622234283604
 33
0.0
210
0.0
220
0.0
230
1.0
  0
SOLID
  5
1737
  8
DRG
  6
CONTINUOUS
 62
     7
 10
100.75581098497641
 20
94.199189410727286
 30
0.0
 11
101.75516290654851
 21
94.067622234283533
 31
0.0
 12
115.07450620591381
 22
93.804532575795946
 32
0.0
 13
115.07450620591381
 23
93.804532575795946
 33
0.0
210
0.0
220
0.0
230
1.0
  0
SOLID
  5
1738
  8
DRG
  6
CONTINUOUS
 62
     7
 10
77.482556033578931
 20
94.593352860836134
 30
0.0
 11
67.331191210151701
 21
68.89733173546756
 31
0.0
 12
77.482556033578931
 22
72.876055965300111
 32
0.0
 13
77.482556033578931
 23
72.876055965300111
 33
0.0
210
0.0
220
0.0
230
1.0
  0
SOLID
  5
1739
  8
DRG
  6
CONTINUOUS
 62
     7
 10
67.331191210151687
 20
94.593352860836134
 30
0.0
 11
77.482556033578931
 21
94.593352860836134
 31
0.0
 12
84.553623006881026
 22
94.593352860836134
 32
0.0
 13
84.553623006881026
 23
94.593352860836134
 33
0.0
210
0.0
220
0.0
230
1.0
  0
SOLID
  5
173A
  8
DRG
  6
CONTINUOUS
 62
     7
 10
67.331191210151687
 20
94.593352860836134
 30
0.0
 11
67.331191210151701
 21
68.89733173546756
 31
0.0
 12
77.482556033578931
 22
94.593352860836134
 32
0.0
 13
77.482556033578931
 23
94.593352860836134
 33
0.0
210
0.0
220
0.0
230
1.0
  0
SOLID
  5
173B
  8
DRG
  6
CONTINUOUS
 62
     7
 10
31.14606460940551
 20
95.544187698918478
 30
0.0
 11
30.425464704124071
 21
93.804505634543304
 31
0.0
 12
44.744171147941813
 22
94.199189410726845
 32
0.0
 13
44.744171147941813
 23
94.199189410726845
 33
0.0
210
0.0
220
0.0
230
1.0
  0
SOLID
  5
173C
  8
DRG
  6
CONTINUOUS
 62
     7
 10
87.157704446439695
 20
95.544187698918478
 30
0.0
 11
86.437104541158234
 21
93.804505634543304
 31
0.0
 12
100.75581098497641
 22
94.199189410727286
 32
0.0
 13
100.75581098497641
 23
94.199189410727286
 33
0.0
  0
SOLID
  5
173D
  8
DRG
  6
CONTINUOUS
 62
     7
 10
114.3539038014369
 20
95.544209784067476
 30
0.0
 11
87.157704446439695
 21
95.544187698918478
 31
0.0
 12
100.75581098497641
 22
94.199189410727286
 32
0.0
 13
100.75581098497641
 23
94.199189410727286
 33
0.0
  0
SOLID
  5
173E
  8
DRG
  6
CONTINUOUS
 62
     7
 10
114.3539038014369
 20
95.544209784067476
 30
0.0
 11
100.75581098497641
 21
94.199189410727286
 31
0.0
 12
115.07450620591381
 22
93.804532575795946
 32
0.0
 13
115.07450620591381
 23
93.804532575795946
 33
0.0
210
0.0
220
0.0
230
1.0
  0
SOLID
  5
173F
  8
DRG
  6
CONTINUOUS
 62
     7
 10
58.342263964402783
 20
95.544209784067505
 30
0.0
 11
31.14606460940551
 21
95.544187698918478
 31
0.0
 12
44.744171147941813
 22
94.199189410726845
 32
0.0
 13
44.744171147941813
 23
94.199189410726845
 33
0.0
210
0.0
220
0.0
230
1.0
  0
SOLID
  5
1740
  8
DRG
  6
CONTINUOUS
 62
     7
 10
58.342263964402783
 20
95.544209784067505
 30
0.0
 11
44.744171147941813
 21
94.199189410726845
 31
0.0
 12
59.062866368879661
 22
93.80453257579596
 32
0.0
 13
59.062866368879661
 23
93.80453257579596
 33
0.0
210
0.0
220
0.0
230
1.0
  0
SOLID
  5
1741
  8
DRG
  6
CONTINUOUS
 62
     7
 10
32.129938967166559
 20
97.149724729553569
 30
0.0
 11
31.14606460940551
 21
95.544187698918478
 31
0.0
 12
58.342263964402783
 22
95.544209784067505
 32
0.0
 13
58.342263964402783
 23
95.544209784067505
 33
0.0
210
0.0
220
0.0
230
1.0
  0
SOLID
  5
1742
  8
DRG
  6
CONTINUOUS
 62
     7
 10
88.141578804200734
 20
97.149724729553569
 30
0.0
 11
87.157704446439695
 21
95.544187698918478
 31
0.0
 12
114.3539038014369
 22
95.544209784067476
 32
0.0
 13
114.3539038014369
 23
95.544209784067476
 33
0.0
210
0.0
220
0.0
230
1.0
  0
SOLID
  5
1743
  8
DRG
  6
CONTINUOUS
 62
     7
 10
113.37002820867269
 20
97.149741917747846
 30
0.0
 11
88.141578804200734
 21
97.149724729553569
 31
0.0
 12
114.3539038014369
 22
95.544209784067476
 32
0.0
 13
114.3539038014369
 23
95.544209784067476
 33
0.0
  0
SOLID
  5
1744
  8
DRG
  6
CONTINUOUS
 62
     7
 10
57.358388371638569
 20
97.14974191774786
 30
0.0
 11
32.129938967166559
 21
97.149724729553569
 31
0.0
 12
58.342263964402783
 22
95.544209784067505
 32
0.0
 13
58.342263964402783
 23
95.544209784067505
 33
0.0
210
0.0
220
0.0
230
1.0
  0
SOLID
  5
1745
  8
DRG
  6
CONTINUOUS
 62
     7
 10
130.05101171535759
 20
97.915857504065855
 30
0.0
 11
138.05101171535759
 21
93.569427875032716
 31
0.0
 12
139.4206293992797
 22
93.56942787503273
 32
0.0
 13
139.4206293992797
 23
93.56942787503273
 33
0.0
210
0.0
220
0.0
230
1.0
  0
SOLID
  5
1746
  8
DRG
  6
CONTINUOUS
 62
     7
 10
130.05101171535759
 20
97.915857504065855
 30
0.0
 11
136.49028913922859
 21
93.415710118258545
 31
0.0
 12
138.05101171535759
 22
93.569427875032716
 32
0.0
 13
138.05101171535759
 23
93.569427875032716
 33
0.0
  0
SOLID
  5
1747
  8
DRG
  6
CONTINUOUS
 62
     7
 10
130.05101171535759
 20
97.915857504065855
 30
0.0
 11
134.9895442564368
 21
92.960464135123019
 31
0.0
 12
136.49028913922859
 22
93.415710118258545
 32
0.0
 13
136.49028913922859
 23
93.415710118258545
 33
0.0
210
0.0
220
0.0
230
1.0
  0
SOLID
  5
1748
  8
DRG
  6
CONTINUOUS
 62
     7
 10
130.05101171535759
 20
97.915857504065855
 30
0.0
 11
133.60644985120081
 21
92.221184773453075
 31
0.0
 12
134.9895442564368
 22
92.960464135123019
 32
0.0
 13
134.9895442564368
 23
92.960464135123019
 33
0.0
210
0.0
220
0.0
230
1.0
  0
SOLID
  5
1749
  8
DRG
  6
CONTINUOUS
 62
     7
 10
130.05101171535759
 20
97.915857504065855
 30
0.0
 11
132.39415746586519
 21
91.226282124525085
 31
0.0
 12
133.60644985120081
 22
92.221184773453075
 32
0.0
 13
133.60644985120081
 23
92.221184773453075
 33
0.0
210
0.0
220
0.0
230
1.0
  0
SOLID
  5
174A
  8
DRG
  6
CONTINUOUS
 62
     7
 10
130.05101171535759
 20
97.915857504065855
 30
0.0
 11
131.3992548169372
 21
90.01398973918954
 31
0.0
 12
132.39415746586519
 22
91.226282124525085
 32
0.0
 13
132.39415746586519
 23
91.226282124525085
 33
0.0
210
0.0
220
0.0
230
1.0
  0
SOLID
  5
174B
  8
DRG
  6
CONTINUOUS
 62
     7
 10
130.05101171535759
 20
97.915857504065855
 30
0.0
 11
130.6599754552673
 21
88.630895333953447
 31
0.0
 12
131.3992548169372
 22
90.01398973918954
 32
0.0
 13
131.3992548169372
 23
90.01398973918954
 33
0.0
210
0.0
220
0.0
230
1.0
  0
SOLID
  5
174C
  8
DRG
  6
CONTINUOUS
 62
     7
 10
130.05101171535759
 20
97.915857504065855
 30
0.0
 11
119.0096173095521
 21
62.115696081838678
 31
0.0
 12
130.6599754552673
 22
88.630895333953447
 32
0.0
 13
130.6599754552673
 23
88.630895333953447
 33
0.0
210
0.0
220
0.0
230
1.0
  0
SOLID
  5
174D
  8
DRG
  6
CONTINUOUS
 62
     7
 10
18.821661727211438
 20
97.915857504065912
 30
0.0
 11
26.821661727211438
 21
93.569427875032716
 31
0.0
 12
28.191279411133561
 22
93.56942787503273
 32
0.0
 13
28.191279411133561
 23
93.56942787503273
 33
0.0
  0
SOLID
  5
174E
  8
DRG
  6
CONTINUOUS
 62
     7
 10
18.821661727211438
 20
97.915857504065912
 30
0.0
 11
25.260939151082422
 21
93.415710118258545
 31
0.0
 12
26.821661727211438
 22
93.569427875032716
 32
0.0
 13
26.821661727211438
 23
93.569427875032716
 33
0.0
210
0.0
220
0.0
230
1.0
  0
SOLID
  5
174F
  8
DRG
  6
CONTINUOUS
 62
     7
 10
18.821661727211438
 20
97.915857504065912
 30
0.0
 11
23.760194268290729
 21
92.960464135123004
 31
0.0
 12
25.260939151082422
 22
93.415710118258545
 32
0.0
 13
25.260939151082422
 23
93.415710118258545
 33
0.0
210
0.0
220
0.0
230
1.0
  0
SOLID
  5
1750
  8
DRG
  6
CONTINUOUS
 62
     7
 10
18.821661727211438
 20
97.915857504065912
 30
0.0
 11
22.377099863054632
 21
92.221184773453075
 31
0.0
 12
23.760194268290729
 22
92.960464135123004
 32
0.0
 13
23.760194268290729
 23
92.960464135123004
 33
0.0
  0
SOLID
  5
1751
  8
DRG
  6
CONTINUOUS
 62
     7
 10
18.821661727211438
 20
97.915857504065912
 30
0.0
 11
21.164807477719069
 21
91.226282124525085
 31
0.0
 12
22.377099863054632
 22
92.221184773453075
 32
0.0
 13
22.377099863054632
 23
92.221184773453075
 33
0.0
210
0.0
220
0.0
230
1.0
  0
SOLID
  5
1752
  8
DRG
  6
CONTINUOUS
 62
     7
 10
18.821661727211438
 20
97.915857504065912
 30
0.0
 11
20.169904828791079
 21
90.013989739189526
 31
0.0
 12
21.164807477719069
 22
91.226282124525085
 32
0.0
 13
21.164807477719069
 23
91.226282124525085
 33
0.0
210
0.0
220
0.0
230
1.0
  0
SOLID
  5
1753
  8
DRG
  6
CONTINUOUS
 62
     7
 10
18.821661727211438
 20
97.915857504065912
 30
0.0
 11
19.43062546712115
 21
88.630895333953447
 31
0.0
 12
20.169904828791079
 22
90.013989739189526
 32
0.0
 13
20.169904828791079
 23
90.013989739189526
 33
0.0
210
0.0
220
0.0
230
1.0
  0
SOLID
  5
1754
  8
DRG
  6
CONTINUOUS
 62
     7
 10
18.821661727211438
 20
97.915857504065912
 30
0.0
 11
7.7802673214059723
 21
62.115696081838671
 31
0.0
 12
19.43062546712115
 22
88.630895333953447
 32
0.0
 13
19.43062546712115
 23
88.630895333953447
 33
0.0
210
0.0
220
0.0
230
1.0
  0
SOLID
  5
1755
  8
DRG
  6
CONTINUOUS
 62
     7
 10
89.364501362461553
 20
98.581583076282442
 30
0.0
 11
88.141578804200734
 21
97.149724729553569
 31
0.0
 12
113.37002820867269
 22
97.149741917747846
 32
0.0
 13
113.37002820867269
 23
97.149741917747846
 33
0.0
210
0.0
220
0.0
230
1.0
  0
SOLID
  5
1756
  8
DRG
  6
CONTINUOUS
 62
     7
 10
33.352861525427372
 20
98.581583076282442
 30
0.0
 11
32.129938967166559
 21
97.149724729553569
 31
0.0
 12
57.358388371638569
 22
97.14974191774786
 32
0.0
 13
57.358388371638569
 23
97.14974191774786
 33
0.0
210
0.0
220
0.0
230
1.0
  0
SOLID
  5
1757
  8
DRG
  6
CONTINUOUS
 62
     7
 10
112.14710561917811
 20
98.581595595475122
 30
0.0
 11
89.364501362461553
 21
98.581583076282442
 31
0.0
 12
113.37002820867269
 22
97.149741917747846
 32
0.0
 13
113.37002820867269
 23
97.149741917747846
 33
0.0
  0
SOLID
  5
1758
  8
DRG
  6
CONTINUOUS
 62
     7
 10
56.135465782143967
 20
98.581595595475136
 30
0.0
 11
33.352861525427372
 21
98.581583076282442
 31
0.0
 12
57.358388371638569
 22
97.14974191774786
 32
0.0
 13
57.358388371638569
 23
97.14974191774786
 33
0.0
  0
SOLID
  5
1759
  8
DRG
  6
CONTINUOUS
 62
     7
 10
131.22850538356451
 20
99.255984787272112
 30
0.0
 11
130.05101171535759
 21
97.915857504065855
 31
0.0
 12
139.4206293992797
 22
93.56942787503273
 32
0.0
 13
139.4206293992797
 23
93.56942787503273
 33
0.0
210
0.0
220
0.0
230
1.0
  0
SOLID
  5
175A
  8
DRG
  6
CONTINUOUS
 62
     7
 10
19.999155395418381
 20
99.255984787272155
 30
0.0
 11
18.821661727211438
 21
97.915857504065912
 31
0.0
 12
28.191279411133561
 22
93.56942787503273
 32
0.0
 13
28.191279411133561
 23
93.56942787503273
 33
0.0
210
0.0
220
0.0
230
1.0
  0
SOLID
  5
175B
  8
DRG
  6
CONTINUOUS
 62
     7
 10
34.784719872156259
 20
99.804505634543204
 30
0.0
 11
33.352861525427372
 21
98.581583076282442
 31
0.0
 12
56.135465782143967
 22
98.581595595475136
 32
0.0
 13
56.135465782143967
 23
98.581595595475136
 33
0.0
210
0.0
220
0.0
230
1.0
  0
SOLID
  5
175C
  8
DRG
  6
CONTINUOUS
 62
     7
 10
90.79635970919044
 20
99.804505634543204
 30
0.0
 11
89.364501362461553
 21
98.581583076282442
 31
0.0
 12
112.14710561917811
 22
98.581595595475122
 32
0.0
 13
112.14710561917811
 23
98.581595595475122
 33
0.0
210
0.0
220
0.0
230
1.0
  0
SOLID
  5
175D
  8
DRG
  6
CONTINUOUS
 62
     7
 10
110.715248332852
 20
99.804513959844542
 30
0.0
 11
90.79635970919044
 21
99.804505634543204
 31
0.0
 12
112.14710561917811
 22
98.581595595475122
 32
0.0
 13
112.14710561917811
 23
98.581595595475122
 33
0.0
210
0.0
220
0.0
230
1.0
  0
SOLID
  5
175E
  8
DRG
  6
CONTINUOUS
 62
     7
 10
54.70360849581779
 20
99.804513959844542
 30
0.0
 11
34.784719872156259
 21
99.804505634543204
 31
0.0
 12
56.135465782143967
 22
98.581595595475136
 32
0.0
 13
56.135465782143967
 23
98.581595595475136
 33
0.0
210
0.0
220
0.0
230
1.0
  0
SOLID
  5
175F
  8
DRG
  6
CONTINUOUS
 62
     7
 10
132.62046538706059
 20
100.3717266133807
 30
0.0
 11
131.22850538356451
 21
99.255984787272112
 31
0.0
 12
139.4206293992797
 22
93.56942787503273
 32
0.0
 13
139.4206293992797
 23
93.56942787503273
 33
0.0
210
0.0
220
0.0
230
1.0
  0
SOLID
  5
1760
  8
DRG
  6
CONTINUOUS
 62
     7
 10
21.391115398914501
 20
100.3717266133808
 30
0.0
 11
19.999155395418381
 21
99.255984787272155
 31
0.0
 12
28.191279411133561
 22
93.56942787503273
 32
0.0
 13
28.191279411133561
 23
93.56942787503273
 33
0.0
210
0.0
220
0.0
230
1.0
  0
SOLID
  5
1761
  8
DRG
  6
CONTINUOUS
 62
     7
 10
36.39025690279135
 20
100.7883799923042
 30
0.0
 11
34.784719872156259
 21
99.804505634543204
 31
0.0
 12
54.70360849581779
 22
99.804513959844542
 32
0.0
 13
54.70360849581779
 23
99.804513959844542
 33
0.0
210
0.0
220
0.0
230
1.0
  0
SOLID
  5
1762
  8
DRG
  6
CONTINUOUS
 62
     7
 10
92.401896739825546
 20
100.7883799923042
 30
0.0
 11
90.79635970919044
 21
99.804505634543204
 31
0.0
 12
110.715248332852
 22
99.804513959844542
 32
0.0
 13
110.715248332852
 23
99.804513959844542
 33
0.0
210
0.0
220
0.0
230
1.0
  0
SOLID
  5
1763
  8
DRG
  6
CONTINUOUS
 62
     7
 10
109.10971329595441
 20
100.78838481499351
 30
0.0
 11
92.401896739825546
 21
100.7883799923042
 31
0.0
 12
110.715248332852
 22
99.804513959844542
 32
0.0
 13
110.715248332852
 23
99.804513959844542
 33
0.0
210
0.0
220
0.0
230
1.0
  0
SOLID
  5
1764
  8
DRG
  6
CONTINUOUS
 62
     7
 10
53.098073458920183
 20
100.78838481499351
 30
0.0
 11
36.39025690279135
 21
100.7883799923042
 31
0.0
 12
54.70360849581779
 22
99.804513959844542
 32
0.0
 13
54.70360849581779
 23
99.804513959844542
 33
0.0
210
0.0
220
0.0
230
1.0
  0
SOLID
  5
1765
  8
DRG
  6
CONTINUOUS
 62
     7
 10
134.18475166795781
 20
101.22930512597181
 30
0.0
 11
132.62046538706059
 21
100.3717266133807
 31
0.0
 12
139.4206293992797
 22
93.56942787503273
 32
0.0
 13
139.4206293992797
 23
93.56942787503273
 33
0.0
  0
SOLID
  5
1766
  8
DRG
  6
CONTINUOUS
 62
     7
 10
22.955401679811722
 20
101.2293051259719
 30
0.0
 11
21.391115398914501
 21
100.3717266133808
 31
0.0
 12
28.191279411133561
 22
93.56942787503273
 32
0.0
 13
28.191279411133561
 23
93.56942787503273
 33
0.0
210
0.0
220
0.0
230
1.0
  0
SOLID
  5
1767
  8
DRG
  6
CONTINUOUS
 62
     7
 10
38.129938967166531
 20
101.5089798975856
 30
0.0
 11
36.39025690279135
 21
100.7883799923042
 31
0.0
 12
53.098073458920183
 22
100.78838481499351
 32
0.0
 13
53.098073458920183
 23
100.78838481499351
 33
0.0
210
0.0
220
0.0
230
1.0
  0
SOLID
  5
1768
  8
DRG
  6
CONTINUOUS
 62
     7
 10
94.141578804200719
 20
101.5089798975856
 30
0.0
 11
92.401896739825546
 21
100.7883799923042
 31
0.0
 12
109.10971329595441
 22
100.78838481499351
 32
0.0
 13
109.10971329595441
 23
100.78838481499351
 33
0.0
210
0.0
220
0.0
230
1.0
  0
SOLID
  5
1769
  8
DRG
  6
CONTINUOUS
 62
     7
 10
51.3583941242996
 20
101.5089820860203
 30
0.0
 11
38.129938967166531
 21
101.5089798975856
 31
0.0
 12
53.098073458920183
 22
100.78838481499351
 32
0.0
 13
53.098073458920183
 23
100.78838481499351
 33
0.0
  0
SOLID
  5
176A
  8
DRG
  6
CONTINUOUS
 62
     7
 10
107.3700339613337
 20
101.5089820860203
 30
0.0
 11
94.141578804200719
 21
101.5089798975856
 31
0.0
 12
109.10971329595441
 22
100.78838481499351
 32
0.0
 13
109.10971329595441
 23
100.78838481499351
 33
0.0
210
0.0
220
0.0
230
1.0
  0
SOLID
  5
176B
  8
DRG
  6
CONTINUOUS
 62
     7
 10
135.87400717988629
 20
101.802758078951
 30
0.0
 11
134.18475166795781
 21
101.22930512597181
 31
0.0
 12
139.4206293992797
 22
93.56942787503273
 32
0.0
 13
139.4206293992797
 23
93.56942787503273
 33
0.0
210
0.0
220
0.0
230
1.0
  0
SOLID
  5
176C
  8
DRG
  6
CONTINUOUS
 62
     7
 10
24.644657191740151
 20
101.8027580789511
 30
0.0
 11
22.955401679811722
 21
101.2293051259719
 31
0.0
 12
28.191279411133561
 22
93.56942787503273
 32
0.0
 13
28.191279411133561
 23
93.56942787503273
 33
0.0
  0
SOLID
  5
176D
  8
DRG
  6
CONTINUOUS
 62
     7
 10
95.97256915621729
 20
101.9485617891854
 30
0.0
 11
94.141578804200719
 21
101.5089798975856
 31
0.0
 12
107.3700339613337
 22
101.5089820860203
 32
0.0
 13
107.3700339613337
 23
101.5089820860203
 33
0.0
210
0.0
220
0.0
230
1.0
  0
SOLID
  5
176E
  8
DRG
  6
CONTINUOUS
 62
     7
 10
39.960929319183101
 20
101.9485617891854
 30
0.0
 11
38.129938967166531
 21
101.5089798975856
 31
0.0
 12
51.3583941242996
 22
101.5089820860203
 32
0.0
 13
51.3583941242996
 23
101.5089820860203
 33
0.0
210
0.0
220
0.0
230
1.0
  0
SOLID
  5
176F
  8
DRG
  6
CONTINUOUS
 62
     7
 10
49.527407010229453
 20
101.94856234311381
 30
0.0
 11
39.960929319183101
 21
101.9485617891854
 31
0.0
 12
51.3583941242996
 22
101.5089820860203
 32
0.0
 13
51.3583941242996
 23
101.5089820860203
 33
0.0
210
0.0
220
0.0
230
1.0
  0
SOLID
  5
1770
  8
DRG
  6
CONTINUOUS
 62
     7
 10
105.53904684726361
 20
101.94856234311381
 30
0.0
 11
95.97256915621729
 21
101.9485617891854
 31
0.0
 12
107.3700339613337
 22
101.5089820860203
 32
0.0
 13
107.3700339613337
 23
101.5089820860203
 33
0.0
210
0.0
220
0.0
230
1.0
  0
SOLID
  5
1771
  8
DRG
  6
CONTINUOUS
 62
     7
 10
77.482556033578931
 20
101.9948050433795
 30
0.0
 11
62.478989637268569
 21
94.593352860836134
 31
0.0
 12
67.331191210151687
 22
94.593352860836134
 32
0.0
 13
67.331191210151687
 23
94.593352860836134
 33
0.0
210
0.0
220
0.0
230
1.0
  0
SOLID
  5
1772
  8
DRG
  6
CONTINUOUS
 62
     7
 10
77.482556033578931
 20
101.9948050433795
 30
0.0
 11
67.331191210151687
 21
94.593352860836134
 31
0.0
 12
84.553623006881026
 22
94.593352860836134
 32
0.0
 13
84.553623006881026
 23
94.593352860836134
 33
0.0
210
0.0
220
0.0
230
1.0
  0
SOLID
  5
1773
  8
DRG
  6
CONTINUOUS
 62
     7
 10
62.478989637268562
 20
101.9948050433795
 30
0.0
 11
62.478989637268569
 21
94.593352860836134
 31
0.0
 12
77.482556033578931
 22
101.9948050433795
 32
0.0
 13
77.482556033578931
 23
101.9948050433795
 33
0.0
  0
SOLID
  5
1774
  8
DRG
  6
CONTINUOUS
 62
     7
 10
84.553623006881026
 20
101.9948050433795
 30
0.0
 11
77.482556033578931
 21
101.9948050433795
 31
0.0
 12
84.553623006881026
 22
94.593352860836134
 32
0.0
 13
84.553623006881026
 23
94.593352860836134
 33
0.0
210
0.0
220
0.0
230
1.0
  0
SOLID
  5
1775
  8
DRG
  6
CONTINUOUS
 62
     7
 10
67.331191210151701
 20
101.9948050433795
 30
0.0
 11
62.478989637268562
 21
101.9948050433795
 31
0.0
 12
77.482556033578931
 22
101.9948050433795
 32
0.0
 13
77.482556033578931
 23
101.9948050433795
 33
0.0
210
0.0
220
0.0
230
1.0
  0
SOLID
  5
1776
  8
DRG
  6
CONTINUOUS
 62
     7
 10
139.4206293992797
 20
102.0369718403325
 30
0.0
 11
135.87400717988629
 21
101.802758078951
 31
0.0
 12
139.4206293992797
 22
93.56942787503273
 32
0.0
 13
139.4206293992797
 23
93.56942787503273
 33
0.0
210
0.0
220
0.0
230
1.0
  0
SOLID
  5
1777
  8
DRG
  6
CONTINUOUS
 62
     7
 10
7.7802673214059723
 20
102.0369718403326
 30
0.0
 11
7.7802673214059723
 21
62.115696081838671
 31
0.0
 12
18.821661727211438
 22
97.915857504065912
 32
0.0
 13
18.821661727211438
 23
97.915857504065912
 33
0.0
210
0.0
220
0.0
230
1.0
  0
SOLID
  5
1778
  8
DRG
  6
CONTINUOUS
 62
     7
 10
18.821661727211438
 20
102.0369718403326
 30
0.0
 11
7.7802673214059723
 21
102.0369718403326
 31
0.0
 12
18.821661727211438
 22
97.915857504065912
 32
0.0
 13
18.821661727211438
 23
97.915857504065912
 33
0.0
  0
SOLID
  5
1779
  8
DRG
  6
CONTINUOUS
 62
     7
 10
142.11987082690661
 20
62.115696081838678
 30
0.0
 11
153.2899770207527
 21
102.0369718403326
 31
0.0
 12
142.11987082690661
 22
102.0369718403326
 32
0.0
 13
142.11987082690661
 23
102.0369718403326
 33
0.0
  0
SOLID
  5
177A
  8
DRG
  6
CONTINUOUS
 62
     7
 10
153.2899770207527
 20
102.0369718403326
 30
0.0
 11
142.11987082690661
 21
62.115696081838678
 31
0.0
 12
153.2899770207527
 22
62.115696081838678
 32
0.0
 13
153.2899770207527
 23
62.115696081838678
 33
0.0
210
0.0
220
0.0
230
1.0
  0
SOLID
  5
177B
  8
DRG
  6
CONTINUOUS
 62
     7
 10
130.05101171535759
 20
102.0369718403326
 30
0.0
 11
119.0096173095521
 21
62.115696081838678
 31
0.0
 12
130.05101171535759
 22
97.915857504065855
 32
0.0
 13
130.05101171535759
 23
97.915857504065855
 33
0.0
210
0.0
220
0.0
230
1.0
  0
SOLID
  5
177C
  8
DRG
  6
CONTINUOUS
 62
     7
 10
165.4162645291251
 20
86.855763084496886
 30
0.0
 11
171.38205787173379
 21
102.0369718403326
 31
0.0
 12
160.9346181585602
 22
102.0369718403326
 32
0.0
 13
160.9346181585602
 23
102.0369718403326
 33
0.0
210
0.0
220
0.0
230
1.0
  0
SOLID
  5
177D
  8
DRG
  6
CONTINUOUS
 62
     7
 10
160.9346181585602
 20
102.0369718403326
 30
0.0
 11
153.2899770207527
 21
82.583583780839575
 31
0.0
 12
165.4162645291251
 22
86.855763084496886
 32
0.0
 13
165.4162645291251
 23
86.855763084496886
 33
0.0
  0
SOLID
  5
177E
  8
DRG
  6
CONTINUOUS
 62
     7
 10
119.0096173095521
 20
102.0369718403326
 30
0.0
 11
119.0096173095521
 21
62.115696081838678
 31
0.0
 12
130.05101171535759
 22
102.0369718403326
 32
0.0
 13
130.05101171535759
 23
102.0369718403326
 33
0.0
210
0.0
220
0.0
230
1.0
  0
SOLID
  5
177F
  8
DRG
  6
CONTINUOUS
 62
     7
 10
28.191279411133561
 20
102.0369718403326
 30
0.0
 11
24.644657191740151
 21
101.8027580789511
 31
0.0
 12
28.191279411133561
 22
93.56942787503273
 32
0.0
 13
28.191279411133561
 23
93.56942787503273
 33
0.0
  0
SOLID
  5
1780
  8
DRG
  6
CONTINUOUS
 62
     7
 10
137.6370915704783
 20
102.0747248149906
 30
0.0
 11
135.87400717988629
 21
101.802758078951
 31
0.0
 12
139.4206293992797
 22
102.0369718403325
 32
0.0
 13
139.4206293992797
 23
102.0369718403325
 33
0.0
210
0.0
220
0.0
230
1.0
  0
SOLID
  5
1781
  8
DRG
  6
CONTINUOUS
 62
     7
 10
26.40774158233215
 20
102.0747248149907
 30
0.0
 11
24.644657191740151
 21
101.8027580789511
 31
0.0
 12
28.191279411133561
 22
102.0369718403326
 32
0.0
 13
28.191279411133561
 23
102.0369718403326
 33
0.0
210
0.0
220
0.0
230
1.0
  0
SOLID
  5
1782
  8
DRG
  6
CONTINUOUS
 62
     7
 10
49.527407010229453
 20
101.94856234311381
 30
0.0
 11
47.650196927116667
 21
102.0963017020437
 31
0.0
 12
41.838142899665847
 22
102.0963017020437
 32
0.0
 13
41.838142899665847
 23
102.0963017020437
 33
0.0
210
0.0
220
0.0
230
1.0
  0
SOLID
  5
1783
  8
DRG
  6
CONTINUOUS
 62
     7
 10
41.838142899665847
 20
102.0963017020437
 30
0.0
 11
39.960929319183101
 21
101.9485617891854
 31
0.0
 12
49.527407010229453
 22
101.94856234311381
 32
0.0
 13
49.527407010229453
 23
101.94856234311381
 33
0.0
210
0.0
220
0.0
230
1.0
  0
SOLID
  5
1784
  8
DRG
  6
CONTINUOUS
 62
     7
 10
105.53904684726361
 20
101.94856234311381
 30
0.0
 11
103.66183676415081
 21
102.0963017020437
 31
0.0
 12
97.849782736700035
 22
102.0963017020437
 32
0.0
 13
97.849782736700035
 23
102.0963017020437
 33
0.0
210
0.0
220
0.0
230
1.0
  0
SOLID
  5
1785
  8
DRG
  6
CONTINUOUS
 62
     7
 10
97.849782736700035
 20
102.0963017020437
 30
0.0
 11
95.97256915621729
 21
101.9485617891854
 31
0.0
 12
105.53904684726361
 22
101.94856234311381
 32
0.0
 13
105.53904684726361
 23
101.94856234311381
 33
0.0
210
0.0
220
0.0
230
1.0
  0
SOLID
  5
1786
  8
DRG
  6
CONTINUOUS
 62
     7
 10
77.482556033578931
 20
107.1280725498991
 30
0.0
 11
67.331191210151701
 21
101.9948050433795
 31
0.0
 12
77.482556033578931
 22
101.9948050433795
 32
0.0
 13
77.482556033578931
 23
101.9948050433795
 33
0.0
  0
SOLID
  5
1787
  8
DRG
  6
CONTINUOUS
 62
     7
 10
67.331191210151701
 20
107.1280725498991
 30
0.0
 11
67.331191210151701
 21
101.9948050433795
 31
0.0
 12
77.482556033578931
 22
107.1280725498991
 32
0.0
 13
77.482556033578931
 23
107.1280725498991
 33
0.0
210
0.0
220
0.0
230
1.0
  0
ENDBLK
  5
1789
  8
0
  0
ENDSEC
  0
SECTION
  2
ENTITIES
  0
POLYLINE
  5
32
  8
BORT
 66
     1
 10
0.0
 20
0.0
 30
0.0
 39
1.8
  0
VERTEX
  5
1456
  8
BORT
 10
166.0
 20
125.3330754159503
 30
0.0
  0
VERTEX
  5
1457
  8
BORT
 10
10.0
 20
125.3330754159503
 30
0.0
  0
SEQEND
  5
1458
  8
BORT
  0
POLYLINE
  5
36
  8
BORT
 66
     1
 10
0.0
 20
0.0
 30
0.0
 39
1.8
  0
VERTEX
  5
1459
  8
BORT
 10
716.0
 20
89.333075415950319
 30
0.0
  0
VERTEX
  5
145A
  8
BORT
 10
716.0
 20
57.333075415950333
 30
0.0
  0
SEQEND
  5
145B
  8
BORT
  0
POLYLINE
  5
3A
  8
BORT
 66
     1
 10
0.0
 20
0.0
 30
0.0
 39
1.8
  0
VERTEX
  5
145C
  8
BORT
 10
360.0
 20
57.333075415950333
 30
0.0
  0
VERTEX
  5
145D
  8
BORT
 10
360.0
 20
27.333075415950329
 30
0.0
  0
SEQEND
  5
145E
  8
BORT
  0
POLYLINE
  5
3E
  8
BORT
 66
     1
 10
0.0
 20
0.0
 30
0.0
 39
1.8
  0
VERTEX
  5
145F
  8
BORT
 10
580.0
 20
57.333075415950333
 30
0.0
  0
VERTEX
  5
1460
  8
BORT
 10
580.0
 20
27.333075415950329
 30
0.0
  0
SEQEND
  5
1461
  8
BORT
  0
TEXT
  5
49
  8
BORT
 10
197.8420272960482
 20
39.601524338981733
 30
0.0
 40
6.0
  1
EXEECO LTD   C   1996
  0
TEXT
  5
4A
  8
BORT
 10
543.45638722086494
 20
78.333075415950333
 30
0.0
 40
5.0
  1
DRAWN:-
  0
TEXT
  5
4B
  8
BORT
 10
77.833333333333329
 20
115.8330754159503
 30
0.0
 40
5.0
  1
ALTERATIONS
 72
     4
 11
102.0
 21
118.3330754159503
 31
0.0
  0
TEXT
  5
4C
  8
BORT
 10
73.071428571428555
 20
129.8330754159503
 30
0.0
 40
5.0
  1
ORIGINAL ISSUE
 72
     4
 11
102.0
 21
132.3330754159503
 31
0.0
  0
TEXT
  5
4D
  8
BORT
 10
14.11904761904762
 20
115.8330754159503
 30
0.0
 40
5.0
  1
ISSUE
 72
     4
 11
24.0
 21
118.3330754159503
 31
0.0
  0
TEXT
  5
4E
  8
BORT
 10
22.095238095238091
 20
129.8330754159503
 30
0.0
 40
5.0
  1
A
 72
     4
 11
24.0
 21
132.3330754159503
 31
0.0
  0
TEXT
  5
4F
  8
BORT
 10
613.66666666666663
 20
36.333075415950333
 30
0.0
 40
14.0
  1
PUB\IS2CD
 72
     4
 11
670.0
 21
42.333075415950333
 31
0.0
  0
TEXT
  5
50
  8
BORT
 10
543.16740467642956
 20
62.65749173454347
 30
0.0
 40
5.0
  1
CHECKED:-
  0
TEXT
  5
51
  8
BORT
 10
725.78627429561266
 20
78.333075415950333
 30
0.0
 40
5.0
  1
SCALE
  0
POLYLINE
  5
52
  8
BORT
 66
     1
 10
0.0
 20
0.0
 30
0.0
 39
1.8
  0
VERTEX
  5
1462
  8
BORT
 10
540.0
 20
89.333075415950319
 30
0.0
  0
VERTEX
  5
1463
  8
BORT
 10
540.0
 20
57.333075415950333
 30
0.0
  0
SEQEND
  5
1464
  8
BORT
  0
CIRCLE
  5
57
  8
BORT
 10
272.15469896790501
 20
42.52436195627962
 30
0.0
 40
5.6547997464713049
  0
TEXT
  5
58
  8
BORT
 10
379.51870841725901
 20
44.520510788857507
 30
0.0
 40
10.0
  1
OUTLINE DETAILS OF IS2
 72
     4
 11
472.85204175059238
 21
49.520510788857507
 31
0.0
  0
TEXT
  5
59
  8
BORT
 10
601.72755352213221
 20
78.833075415950333
 30
0.0
 40
5.0
  1
S.W.   9.9.96
 72
     4
 11
627.20374399832281
 21
81.333075415950333
 31
0.0
  0
TEXT
  5
5A
  8
BORT
 10
730.99184548397261
 20
62.333075415950333
 30
0.0
 40
5.0
  1
1:1
  0
LINE
  5
5B
  8
BORT
 39
1.8
 10
166.0
 20
111.3330754159503
 30
0.0
 11
10.0
 21
111.3330754159503
 31
0.0
  0
LINE
  5
5C
  8
BORT
 39
1.8
 10
166.0
 20
111.3330754159503
 30
0.0
 11
10.0
 21
111.3330754159503
 31
0.0
  0
LINE
  5
5D
  8
BORT
 39
1.8
 10
10.0
 20
27.333075415950329
 30
0.0
 11
10.0
 21
153.3330754159503
 31
0.0
  0
LINE
  5
5E
  8
BORT
 39
1.8
 10
760.0
 20
89.333075415950319
 30
0.0
 11
760.0
 21
27.333075415950329
 31
0.0
  0
LINE
  5
5F
  8
BORT
 39
1.8
 10
760.0
 20
27.333075415950329
 30
0.0
 11
10.0
 21
27.333075415950329
 31
0.0
  0
LINE
  5
60
  8
BORT
 39
1.8
 10
760.0
 20
57.333075415950333
 30
0.0
 11
166.0
 21
57.333075415950333
 31
0.0
  0
POLYLINE
  5
61
  8
BORT
 66
     1
 10
0.0
 20
0.0
 30
0.0
 39
1.8
  0
VERTEX
  5
1465
  8
BORT
 10
166.0
 20
111.3330754159503
 30
0.0
  0
VERTEX
  5
1466
  8
BORT
 10
166.0
 20
27.333075415950329
 30
0.0
  0
SEQEND
  5
1467
  8
BORT
  0
POLYLINE
  5
65
  8
BORT
 66
     1
 10
0.0
 20
0.0
 30
0.0
 39
1.8
  0
VERTEX
  5
1468
  8
BORT
 10
166.0
 20
139.3330754159503
 30
0.0
  0
VERTEX
  5
1469
  8
BORT
 10
10.0
 20
139.3330754159503
 30
0.0
  0
SEQEND
  5
146A
  8
BORT
  0
TEXT
  5
69
  8
BORT
 10
387.85204175059238
 20
31.804280464652219
 30
0.0
 40
10.0
  1
ISO & USA STANDARD
 72
     4
 11
472.85204175059238
 21
36.804280464652223
 31
0.0
  0
POLYLINE
  5
6A
  8
BORT
 66
     1
 10
0.0
 20
0.0
 30
0.0
 39
1.8
  0
VERTEX
  5
146B
  8
BORT
 10
760.0
 20
73.333075415950333
 30
0.0
  0
VERTEX
  5
146C
  8
BORT
 10
540.0
 20
73.333075415950333
 30
0.0
  0
SEQEND
  5
146D
  8
BORT
  0
POLYLINE
  5
6E
  8
BORT
 66
     1
 10
0.0
 20
0.0
 30
0.0
 39
1.8
  0
VERTEX
  5
146E
  8
BORT
 10
540.0
 20
89.333075415950319
 30
0.0
  0
VERTEX
  5
146F
  8
BORT
 10
760.0
 20
89.333075415950319
 30
0.0
  0
SEQEND
  5
1470
  8
BORT
  0
LINE
  5
72
  8
HID
 10
277.41555515080438
 20
398.16492323970328
 30
0.0
 11
273.41555515080438
 21
398.16492323970328
 31
0.0
  0
LINE
  5
73
  8
HID
 10
277.41555515080438
 20
449.66492323970323
 30
0.0
 11
273.41555515080438
 21
449.66492323970323
 31
0.0
  0
LINE
  5
76
  8
CRS
 10
441.85120502784002
 20
576.41492323970317
 30
0.0
 11
97.980534678076424
 21
576.41492323970317
 31
0.0
  0
LINE
  5
77
  8
CRS
 10
226.69037271569059
 20
423.91492323970323
 30
0.0
 11
322.5800635633849
 21
423.91492323970323
 31
0.0
  0
LINE
  5
7B
  8
HID
 10
261.1955551508043
 20
449.90992323970329
 30
0.0
 11
261.1955551508043
 21
443.91492323970323
 31
0.0
  0
POLYLINE
  5
7F
  8
HID
 66
     1
 10
0.0
 20
0.0
 30
0.0
  0
VERTEX
  5
1471
  8
HID
 10
261.1955551508043
 20
403.91492323970328
 30
0.0
  0
VERTEX
  5
1472
  8
HID
 10
261.1955551508043
 20
443.91492323970323
 30
0.0
  0
SEQEND
  5
1473
  8
HID
  0
LINE
  5
84
  8
HID
 10
229.21555515080431
 20
386.36492323970322
 30
0.0
 11
242.21555515080431
 21
386.36492323970322
 31
0.0
  0
LINE
  5
85
  8
HID
 10
229.21555515080431
 20
387.66992323970328
 30
0.0
 11
242.21555515080431
 21
387.66992323970328
 31
0.0
  0
LINE
  5
86
  8
HID
 10
273.41555515080438
 20
397.91992323970328
 30
0.0
 11
261.1955551508043
 21
397.91992323970328
 31
0.0
  0
LINE
  5
87
  8
HID
 10
273.41555515080438
 20
396.82492323970331
 30
0.0
 11
261.6955551508043
 21
396.82492323970331
 31
0.0
  0
LINE
  5
88
  8
HID
 10
261.1955551508043
 20
397.91992323970328
 30
0.0
 11
261.1955551508043
 21
403.91492323970328
 31
0.0
  0
LINE
  5
89
  8
HID
 10
261.6955551508043
 20
396.82492323970331
 30
0.0
 11
261.1955551508043
 21
397.32492323970331
 31
0.0
  0
LINE
  5
8A
  8
HID
 10
261.1955551508043
 20
397.32492323970331
 30
0.0
 11
261.19555515080418
 21
397.91992323970328
 31
0.0
  0
LINE
  5
8B
  8
HID
 10
273.41555515080438
 20
398.16492323970328
 30
0.0
 11
273.41555515080438
 21
396.82492323970331
 31
0.0
  0
LINE
  5
8C
  8
HID
 10
273.41555515080438
 20
396.82492323970331
 30
0.0
 11
273.41555515080438
 21
397.91992323970328
 31
0.0
  0
LINE
  5
8E
  8
DRG
 10
215.19055515080441
 20
561.41492323970317
 30
0.0
 11
109.6905551508044
 21
561.41492323970317
 31
0.0
  0
LINE
  5
8F
  8
DRG
 10
215.19055515080441
 20
591.41492323970328
 30
0.0
 11
109.6905551508044
 21
591.41492323970328
 31
0.0
  0
LINE
  5
90
  8
DRG2
 10
109.6905551508044
 20
591.41492323970328
 30
0.0
 11
109.6905551508044
 21
561.41492323970317
 31
0.0
  0
LINE
  5
91
  8
DRG
 10
108.1905551508044
 20
589.91492323970317
 30
0.0
 11
108.1905551508044
 21
562.91492323970328
 31
0.0
  0
LINE
  5
92
  8
DRG
 10
108.1905551508044
 20
562.91492323970328
 30
0.0
 11
109.6905551508044
 21
561.41492323970317
 31
0.0
  0
LINE
  5
93
  8
DRG
 10
109.6905551508044
 20
591.41492323970328
 30
0.0
 11
108.1905551508044
 21
589.91492323970317
 31
0.0
  0
LINE
  5
94
  8
DRG
 10
221.1905551508043
 20
626.41492323970408
 30
0.0
 11
221.1905551508043
 21
526.19677437930204
 31
0.0
  0
LINE
  5
97
  8
HID
 10
229.21555515080431
 20
461.4649232397033
 30
0.0
 11
242.21555515080439
 21
461.46492323970341
 31
0.0
  0
LINE
  5
98
  8
HID
 10
229.21555515080431
 20
460.15992323970329
 30
0.0
 11
242.21555515080439
 21
460.15992323970329
 31
0.0
  0
LINE
  5
9A
  8
HID
 10
273.41555515080438
 20
449.90992323970329
 30
0.0
 11
261.1955551508043
 21
449.90992323970329
 31
0.0
  0
LINE
  5
9B
  8
HID
 10
273.41555515080438
 20
451.00492323970332
 30
0.0
 11
261.6955551508043
 21
451.00492323970332
 31
0.0
  0
LINE
  5
9C
  8
HID
 10
261.1955551508043
 20
450.50492323970332
 30
0.0
 11
261.19555515080418
 21
449.90992323970329
 31
0.0
  0
LINE
  5
9D
  8
HID
 10
261.6955551508043
 20
451.00492323970332
 30
0.0
 11
261.1955551508043
 21
450.50492323970332
 31
0.0
  0
LINE
  5
9E
  8
HID
 10
273.41555515080438
 20
449.66492323970323
 30
0.0
 11
273.41555515080438
 21
451.00492323970332
 31
0.0
  0
LINE
  5
9F
  8
HID
 10
273.41555515080438
 20
451.00492323970332
 30
0.0
 11
273.41555515080438
 21
449.90992323970329
 31
0.0
  0
LINE
  5
A5
  8
CRS
 10
603.74198703388413
 20
645.16196845880631
 30
0.0
 11
603.74198703388413
 21
329.08078009949088
 31
0.0
  0
LINE
  5
A6
  8
HID
 10
315.6955551508043
 20
396.93992323970332
 30
0.0
 11
315.6955551508043
 21
450.88992323970331
 31
0.0
  0
LINE
  5
A7
  8
DRG
 10
316.16555515080432
 20
376.35247739919009
 30
0.0
 11
316.16555515080421
 21
486.41492323970323
 31
0.0
  0
CIRCLE
  5
A8
  8
DRG
 10
603.74198703388413
 20
423.91492323970402
 30
0.0
 40
86.0
  0
CIRCLE
  5
A9
  8
DRG
 10
603.74198703388413
 20
423.91492323970402
 30
0.0
 40
27.5
  0
CIRCLE
  5
AA
  8
DRG
 10
603.74198703388413
 20
423.91492323970402
 30
0.0
 40
42.5
  0
POLYLINE
  5
AB
  8
DRG
 66
     1
 10
0.0
 20
0.0
 30
0.0
  0
VERTEX
  5
1474
  8
DRG
 10
561.01780327720098
 20
444.6729126010357
 30
0.0
 42
0.3266469100098941
  0
VERTEX
  5
1475
  8
DRG
 10
559.75539921933273
 20
451.6432240145682
 30
0.0
 42
-1.0255360246871099
  0
VERTEX
  5
1476
  8
DRG
 10
576.01368625902023
 20
467.90151105425559
 30
0.0
 42
0.326646910010129
  0
VERTEX
  5
1477
  8
DRG
 10
582.98399767255728
 20
466.6391069963895
 30
0.0
  0
SEQEND
  5
1478
  8
DRG
  0
POLYLINE
  5
B1
  8
DRG
 66
     1
 10
0.0
 20
0.0
 30
0.0
  0
VERTEX
  5
1479
  8
DRG
 10
624.49997639521575
 20
466.63910699638728
 30
0.0
 42
0.3266469100098941
  0
VERTEX
  5
147A
  8
DRG
 10
631.47028780874837
 20
467.90151105425548
 30
0.0
 42
-1.0255360246871099
  0
VERTEX
  5
147B
  8
DRG
 10
647.72857484843564
 20
451.64322401456809
 30
0.0
 42
0.326646910010129
  0
VERTEX
  5
147C
  8
DRG
 10
646.46617079056966
 20
444.67291260103099
 30
0.0
  0
SEQEND
  5
147D
  8
DRG
  0
ARC
  5
B7
  8
DRG
 10
603.74198703388413
 20
423.91492323970402
 30
0.0
 40
47.5
 50
244.08671831470531
 51
295.91328168529452
  0
LINE
  5
B8
  8
CRS
 10
512.99563022691655
 20
423.91492323970402
 30
0.0
 11
694.48834384085183
 21
423.91492323970402
 31
0.0
  0
LINE
  5
B9
  8
DRG
 10
313.21555515080428
 20
337.91492323970323
 30
0.0
 11
313.21555515080428
 21
432.73441364588768
 31
0.0
  0
LINE
  5
BA
  8
DRG
 10
305.21555515080428
 20
337.91492323970323
 30
0.0
 11
305.21555515080422
 21
434.00097143198258
 31
0.0
  0
LINE
  5
BC
  8
DRG
 10
305.21555515080428
 20
337.91492323970311
 30
0.0
 11
313.21555515080428
 21
337.91492323970323
 31
0.0
  0
LINE
  5
BF
  8
HID
 10
310.41555515080432
 20
396.47492323970317
 30
0.0
 11
304.91555515080432
 21
396.47492323970317
 31
0.0
  0
LINE
  5
C0
  8
HID
 10
299.41555515080432
 20
396.47492323970317
 30
0.0
 11
283.41555515080432
 21
396.47492323970317
 31
0.0
  0
LINE
  5
C1
  8
HID
 10
277.41555515080438
 20
396.83992323970318
 30
0.0
 11
277.41555515080438
 21
398.16492323970328
 31
0.0
  0
LINE
  5
C2
  8
HID
 10
278.91555515080432
 20
396.43992323970332
 30
0.0
 11
277.41555515080438
 21
396.83992323970318
 31
0.0
  0
LINE
  5
C3
  8
HID
 10
283.41555515080432
 20
396.43992323970332
 30
0.0
 11
278.91555515080432
 21
396.43992323970332
 31
0.0
  0
LINE
  5
C4
  8
HID
 10
283.41555515080432
 20
396.47492323970317
 30
0.0
 11
283.41555515080432
 21
396.43992323970332
 31
0.0
  0
LINE
  5
C5
  8
HID
 10
299.41555515080432
 20
386.16492323970328
 30
0.0
 11
299.41555515080432
 21
396.47492323970317
 31
0.0
  0
LINE
  5
C6
  8
HID
 10
304.91555515080432
 20
396.47492323970317
 30
0.0
 11
304.91555515080432
 21
386.16492323970328
 31
0.0
  0
LINE
  5
C7
  8
HID
 10
304.41555515080438
 20
385.66492323970328
 30
0.0
 11
299.91555515080432
 21
385.66492323970328
 31
0.0
  0
LINE
  5
C8
  8
HID
 10
299.91555515080432
 20
385.66492323970328
 30
0.0
 11
299.41555515080432
 21
386.16492323970328
 31
0.0
  0
LINE
  5
C9
  8
HID
 10
304.91555515080432
 20
386.16492323970328
 30
0.0
 11
304.41555515080438
 21
385.66492323970328
 31
0.0
  0
LINE
  5
CA
  8
DRG
 10
316.16555515080432
 20
376.35247739919009
 30
0.0
 11
313.21555515080428
 21
376.35247739919009
 31
0.0
  0
LINE
  5
CB
  8
HID
 10
310.41555515080432
 20
396.43992323970332
 30
0.0
 11
310.41555515080432
 21
396.47492323970317
 31
0.0
  0
LINE
  5
CC
  8
HID
 10
315.1955551508043
 20
396.43992323970332
 30
0.0
 11
310.41555515080432
 21
396.43992323970332
 31
0.0
  0
LINE
  5
CD
  8
HID
 10
315.6955551508043
 20
396.93992323970332
 30
0.0
 11
315.1955551508043
 21
396.43992323970332
 31
0.0
  0
ARC
  5
CE
  8
DRG
 10
603.74198703388413
 20
423.91492323970402
 30
0.0
 40
47.5
 50
154.08671831471241
 51
205.9132816852875
  0
POLYLINE
  5
CF
  8
DRG
 66
     1
 10
0.0
 20
0.0
 30
0.0
  0
VERTEX
  5
147E
  8
DRG
 10
582.9839976725525
 20
381.19073948302071
 30
0.0
 42
0.3266469100098941
  0
VERTEX
  5
147F
  8
DRG
 10
576.01368625902001
 20
379.92833542515262
 30
0.0
 42
-1.0255360246871099
  0
VERTEX
  5
1480
  8
DRG
 10
559.75539921933273
 20
396.18662246484001
 30
0.0
 42
0.326646910010129
  0
VERTEX
  5
1481
  8
DRG
 10
561.01780327719871
 20
403.156933878377
 30
0.0
  0
SEQEND
  5
1482
  8
DRG
  0
ARC
  5
D5
  8
DRG
 10
603.74198703388413
 20
423.91492323970402
 30
0.0
 40
47.5
 50
334.08671831471241
 51
25.91328168528754
  0
POLYLINE
  5
D6
  8
DRG
 66
     1
 10
0.0
 20
0.0
 30
0.0
  0
VERTEX
  5
1483
  8
DRG
 10
646.46617079056739
 20
403.1569338783724
 30
0.0
 42
0.3266469100098941
  0
VERTEX
  5
1484
  8
DRG
 10
647.72857484843564
 20
396.1866224648399
 30
0.0
 42
-1.0255360246871099
  0
VERTEX
  5
1485
  8
DRG
 10
631.47028780874814
 20
379.92833542515251
 30
0.0
 42
0.326646910010129
  0
VERTEX
  5
1486
  8
DRG
 10
624.49997639521109
 20
381.19073948301849
 30
0.0
  0
SEQEND
  5
1487
  8
DRG
  0
ARC
  5
DD
  8
DRG
 10
603.74198703388413
 20
423.91492323970402
 30
0.0
 40
47.5
 50
64.086718314705379
 51
115.91328168529439
  0
LINE
  5
DE
  8
CRS
 10
537.51559395954507
 20
576.41492323970408
 30
0.0
 11
671.12441415666706
 21
576.41492323970408
 31
0.0
  0
LINE
  5
DF
  8
DRG
 10
563.74198703388436
 20
626.41492323970408
 30
0.0
 11
574.34811012048806
 21
626.41492323970431
 31
0.0
  0
ARC
  5
E5
  8
DRG
 10
563.74198703388436
 20
616.41492323970419
 30
0.0
 40
10.0
 50
90.000000000000057
 51
180.0
  0
LINE
  5
EB
  8
HID
 10
310.41555515080432
 20
451.35492323970328
 30
0.0
 11
304.91555515080432
 21
451.35492323970328
 31
0.0
  0
LINE
  5
EC
  8
CRS
 10
291.58926636211851
 20
474.7149232397033
 30
0.0
 11
317.67828824863233
 21
474.7149232397033
 31
0.0
  0
LINE
  5
EE
  8
HID
 10
293.63478215189008
 20
474.7149232397033
 30
0.0
 11
295.16555515080432
 21
470.72712323970319
 31
0.0
  0
LINE
  5
EF
  8
HID
 10
295.16555515080432
 20
470.72712323970319
 30
0.0
 11
295.16555515080432
 21
478.70272323970329
 31
0.0
  0
LINE
  5
F0
  8
HID
 10
301.16555515080432
 20
469.95242323970331
 30
0.0
 11
301.16555515080432
 21
479.47742323970323
 31
0.0
  0
LINE
  5
F1
  8
HID
 10
299.41555515080432
 20
451.35492323970328
 30
0.0
 11
283.41555515080432
 21
451.35492323970328
 31
0.0
  0
LINE
  5
F2
  8
HID
 10
277.41555515080438
 20
450.98992323970327
 30
0.0
 11
277.41555515080438
 21
449.66492323970323
 31
0.0
  0
LINE
  5
F3
  8
HID
 10
278.91555515080432
 20
451.38992323970331
 30
0.0
 11
277.41555515080438
 21
450.98992323970327
 31
0.0
  0
LINE
  5
F4
  8
HID
 10
283.41555515080432
 20
451.38992323970331
 30
0.0
 11
278.91555515080432
 21
451.38992323970331
 31
0.0
  0
LINE
  5
F5
  8
HID
 10
283.41555515080432
 20
451.35492323970328
 30
0.0
 11
283.41555515080432
 21
451.38992323970331
 31
0.0
  0
LINE
  5
F6
  8
HID
 10
299.41555515080432
 20
461.66492323970323
 30
0.0
 11
299.41555515080432
 21
451.35492323970328
 31
0.0
  0
LINE
  5
F7
  8
HID
 10
304.91555515080432
 20
451.35492323970328
 30
0.0
 11
304.91555515080432
 21
461.66492323970323
 31
0.0
  0
LINE
  5
F8
  8
HID
 10
304.41555515080438
 20
462.16492323970323
 30
0.0
 11
299.91555515080432
 21
462.16492323970323
 31
0.0
  0
LINE
  5
F9
  8
HID
 10
299.91555515080432
 20
462.16492323970323
 30
0.0
 11
299.41555515080432
 21
461.66492323970323
 31
0.0
  0
LINE
  5
FA
  8
HID
 10
304.91555515080432
 20
461.66492323970323
 30
0.0
 11
304.41555515080438
 21
462.16492323970323
 31
0.0
  0
LINE
  5
FB
  8
HID
 10
295.16555515080432
 20
478.70272323970329
 30
0.0
 11
293.63478215189008
 21
474.7149232397033
 31
0.0
  0
LINE
  5
FC
  8
HID
 10
310.41555515080432
 20
451.38992323970331
 30
0.0
 11
310.41555515080432
 21
451.35492323970328
 31
0.0
  0
LINE
  5
FD
  8
HID
 10
315.1955551508043
 20
451.38992323970331
 30
0.0
 11
310.41555515080432
 21
451.38992323970331
 31
0.0
  0
LINE
  5
FE
  8
HID
 10
315.6955551508043
 20
450.88992323970331
 30
0.0
 11
315.1955551508043
 21
451.38992323970331
 31
0.0
  0
LINE
  5
FF
  8
DRG
 10
316.16555515080432
 20
486.41492323970323
 30
0.0
 11
313.21555515080428
 21
486.41492323970328
 31
0.0
  0
ARC
  5
108
  8
DRG
 10
569.74198703388424
 20
507.24558986370272
 30
0.0
 40
4.0
 50
292.19610085681973
 51
0.0
  0
ARC
  5
10B
  8
DRG
 10
603.74198703388413
 20
513.91492323970397
 30
0.0
 40
10.0
 50
333.46997898200061
 51
206.5300210179993
  0
LINE
  5
10C
  8
CRS
 10
590.44924444505432
 20
513.91492323970397
 30
0.0
 11
617.03472962271417
 21
513.91492323970397
 31
0.0
  0
ARC
  5
110
  8
DRG
 10
643.74198703388436
 20
616.41492323970419
 30
0.0
 40
10.0
 50
0.0
 51
90.0
  0
LINE
  5
112
  8
DRG
 10
653.74198703388436
 20
616.41492323970419
 30
0.0
 11
653.74198703388436
 21
605.80880015309992
 31
0.0
  0
LINE
  5
113
  8
CRS
 10
632.93593566453126
 20
459.83594772398072
 30
0.0
 11
646.39008737178995
 21
459.83594772398072
 31
0.0
  0
LINE
  5
114
  8
CRS
 10
639.66301151816083
 20
466.56302357761001
 30
0.0
 11
639.66301151816083
 21
453.10887187035132
 31
0.0
  0
ARC
  5
118
  8
DRG
 10
637.74198703388413
 20
507.24558986370261
 30
0.0
 40
4.0
 50
180.0
 51
247.8038991431799
  0
LINE
  5
11E
  8
DIM
 10
114.1905551508044
 20
721.03795728186185
 30
0.0
 11
223.21555515080431
 21
721.03795728186185
 31
0.0
  0
SOLID
  5
11F
  8
DIM
 10
114.1905551508044
 20
722.03795728186185
 30
0.0
 11
114.1905551508044
 21
720.03795728186185
 31
0.0
 12
108.1905551508044
 22
721.03795728186185
 32
0.0
 13
108.1905551508044
 23
721.03795728186185
 33
0.0
  0
SOLID
  5
120
  8
DIM
 10
223.21555515080431
 20
722.03795728186185
 30
0.0
 11
223.21555515080431
 21
720.03795728186185
 31
0.0
 12
229.21555515080431
 22
721.03795728186185
 32
0.0
 13
229.21555515080431
 23
721.03795728186185
 33
0.0
  0
TEXT
  5
121
  8
DIM
 10
163.82210276985199
 20
723.53795728186196
 30
0.0
 40
5.0
  1
121
 72
     1
 11
168.7030551508044
 21
726.03795728186185
 31
0.0
 73
     2
  0
LINE
  5
122
  8
DIM
 10
229.21555515080431
 20
637.08945194473824
 30
0.0
 11
229.21555515080431
 21
723.03795728186196
 31
0.0
  0
LINE
  5
123
  8
DIM
 10
108.1905551508044
 20
594.0112198405277
 30
0.0
 11
108.1905551508044
 21
723.03795728186196
 31
0.0
  0
LINE
  5
125
  8
DIM
 10
235.21555515080431
 20
721.03795728186185
 30
0.0
 11
323.24055515080431
 21
721.03795728186185
 31
0.0
  0
SOLID
  5
126
  8
DIM
 10
235.21555515080431
 20
722.03795728186185
 30
0.0
 11
235.21555515080431
 21
720.03795728186185
 31
0.0
 12
229.21555515080431
 22
721.03795728186185
 32
0.0
 13
229.21555515080431
 23
721.03795728186185
 33
0.0
  0
SOLID
  5
127
  8
DIM
 10
319.21555515080428
 20
722.03795728186185
 30
0.0
 11
319.21555515080428
 21
720.03795728186185
 31
0.0
 12
325.21555515080428
 22
721.03795728186185
 32
0.0
 13
325.21555515080428
 23
721.03795728186185
 33
0.0
  0
TEXT
  5
128
  8
DIM
 10
275.18043610318529
 20
723.53795728186196
 30
0.0
 40
5.0
  1
95
 72
     1
 11
279.22805515080432
 21
726.03795728186185
 31
0.0
 73
     2
  0
LINE
  5
129
  8
DIM
 10
221.1905551508043
 20
628.36987247321895
 30
0.0
 11
221.1905551508043
 21
668.25232676069675
 31
0.0
  0
LINE
  5
12A
  8
DIM
 10
235.21555515080431
 20
666.25232676069675
 30
0.0
 11
241.21555515080431
 21
666.25232676069675
 31
0.0
  0
LINE
  5
12B
  8
DIM
 10
215.1905551508043
 20
666.25232676069675
 30
0.0
 11
192.96554162853451
 21
666.25232676069675
 31
0.0
  0
LINE
  5
12C
  8
DIM
 10
192.96554162853451
 20
666.25232676069675
 30
0.0
 11
188.13220829520111
 21
666.25232676069675
 31
0.0
  0
SOLID
  5
12D
  8
DIM
 10
235.21555515080431
 20
667.25232676069675
 30
0.0
 11
235.21555515080431
 21
665.25232676069675
 31
0.0
 12
229.21555515080431
 22
666.25232676069675
 32
0.0
 13
229.21555515080431
 23
666.25232676069675
 33
0.0
  0
SOLID
  5
12E
  8
DIM
 10
215.1905551508043
 20
667.25232676069675
 30
0.0
 11
215.1905551508043
 21
665.25232676069675
 31
0.0
 12
221.1905551508043
 22
666.25232676069675
 32
0.0
 13
221.1905551508043
 23
666.25232676069675
 33
0.0
  0
TEXT
  5
12F
  8
DIM
 10
199.34221835888289
 20
668.75232676069686
 30
0.0
 40
5.0
  1
8
 72
     1
 11
201.00888502554949
 21
671.25232676069675
 31
0.0
 73
     2
  0
LINE
  5
130
  8
DRG
 10
153.1905551508043
 20
594.41492323970317
 30
0.0
 11
113.1905551508044
 21
594.41492323970317
 31
0.0
  0
LINE
  5
131
  8
DRG
 10
153.1905551508043
 20
591.41492323970328
 30
0.0
 11
153.1905551508043
 21
594.41492323970317
 31
0.0
  0
LINE
  5
132
  8
DRG
 10
113.1905551508044
 20
591.41492323970328
 30
0.0
 11
113.1905551508044
 21
594.41492323970317
 31
0.0
  0
LINE
  5
133
  8
DIM
 10
113.1905551508044
 20
599.72583102393367
 30
0.0
 11
113.1905551508044
 21
695.73959178957671
 31
0.0
  0
SOLID
  5
134
  8
DIM
 10
119.1905551508044
 20
694.73959178957671
 30
0.0
 11
119.1905551508044
 21
692.73959178957671
 31
0.0
 12
113.1905551508044
 22
693.73959178957659
 32
0.0
 13
113.1905551508044
 23
693.73959178957659
 33
0.0
  0
LINE
  5
135
  8
DIM
 10
102.1905551508044
 20
693.73959178957659
 30
0.0
 11
90.880548922777848
 21
693.73959178957659
 31
0.0
  0
LINE
  5
136
  8
DIM
 10
90.880548922777848
 20
693.73959178957659
 30
0.0
 11
74.542202756324514
 21
693.73959178957659
 31
0.0
  0
SOLID
  5
137
  8
DIM
 10
102.1905551508044
 20
694.73959178957671
 30
0.0
 11
102.1905551508044
 21
692.73959178957671
 31
0.0
 12
108.1905551508044
 22
693.73959178957659
 32
0.0
 13
108.1905551508044
 23
693.73959178957659
 33
0.0
  0
TEXT
  5
138
  8
DIM
 10
86.047215589444534
 20
696.23959178957671
 30
0.0
 40
5.0
  1
5
 72
     1
 11
87.713882256111219
 21
698.73959178957671
 31
0.0
 73
     2
  0
TEXT
  5
139
  8
DIM
 10
108.9747066822577
 20
518.45993798319284
 30
0.0
 40
5.0
  1
4 OFF M10 SCREWS 
  0
TEXT
  5
13A
  8
DIM
 10
108.9747066822577
 20
509.88850941176418
 30
0.0
 40
5.0
  1
ON %%c105 (4.13") P.C.
  0
LINE
  5
146
  8
DIM
 10
267.1955551508043
 20
435.61158789397041
 30
0.0
 11
309.6955551508043
 21
435.61158789397041
 31
0.0
  0
SOLID
  5
147
  8
DIM
 10
267.1955551508043
 20
436.6115878939703
 30
0.0
 11
267.1955551508043
 21
434.61158789397041
 31
0.0
 12
261.1955551508043
 22
435.61158789397041
 32
0.0
 13
261.1955551508043
 23
435.61158789397041
 33
0.0
  0
SOLID
  5
148
  8
DIM
 10
309.6955551508043
 20
436.6115878939703
 30
0.0
 11
309.6955551508043
 21
434.61158789397041
 31
0.0
 12
315.6955551508043
 22
435.61158789397041
 32
0.0
 13
315.6955551508043
 23
435.61158789397041
 33
0.0
  0
TEXT
  5
149
  8
DIM
 10
284.27888848413761
 20
438.11158789397041
 30
0.0
 40
5.0
  1
54
 72
     1
 11
288.4455551508043
 21
440.6115878939703
 31
0.0
 73
     2
  0
LINE
  5
14A
  8
DIM
 10
256.1955551508043
 20
449.90992323970329
 30
0.0
 11
176.98470234088981
 21
449.90992323970329
 31
0.0
  0
LINE
  5
14B
  8
DIM
 10
256.1955551508043
 20
398.81633304972758
 30
0.0
 11
176.98470234088981
 21
398.81633304972758
 31
0.0
  0
SOLID
  5
14C
  8
DIM
 10
177.98470234088981
 20
443.90992323970318
 30
0.0
 11
179.98470234088981
 21
443.90992323970318
 31
0.0
 12
178.98470234088981
 22
449.90992323970329
 32
0.0
 13
178.98470234088981
 23
449.90992323970329
 33
0.0
  0
SOLID
  5
14D
  8
DIM
 10
177.98470234088981
 20
404.81633304972769
 30
0.0
 11
179.98470234088981
 21
404.81633304972769
 31
0.0
 12
178.98470234088981
 22
398.81633304972758
 32
0.0
 13
178.98470234088981
 23
398.81633304972758
 33
0.0
  0
LINE
  5
14E
  8
DIM
 10
224.21555515080431
 20
386.36492323970322
 30
0.0
 11
183.02550369544301
 21
386.36492323970322
 31
0.0
  0
LINE
  5
14F
  8
DIM
 10
224.21555515080431
 20
461.4649232397033
 30
0.0
 11
129.62196438736399
 21
461.4649232397033
 31
0.0
  0
LINE
  5
150
  8
DIM
 10
131.62196438736399
 20
392.36492323970322
 30
0.0
 11
131.62196438736399
 21
455.46492323970318
 31
0.0
  0
SOLID
  5
151
  8
DIM
 10
130.62196438736399
 20
392.36492323970322
 30
0.0
 11
132.62196438736399
 21
392.36492323970322
 31
0.0
 12
131.62196438736399
 22
386.36492323970322
 32
0.0
 13
131.62196438736399
 23
386.36492323970322
 33
0.0
  0
SOLID
  5
152
  8
DIM
 10
130.62196438736399
 20
455.46492323970318
 30
0.0
 11
132.62196438736399
 21
455.46492323970318
 31
0.0
 12
131.62196438736399
 22
461.4649232397033
 32
0.0
 13
131.62196438736399
 23
461.4649232397033
 33
0.0
  0
TEXT
  5
153
  8
DIM
 10
126.8917130840446
 20
397.48635181113178
 30
0.0
 40
5.0
  1
SCREWED 2.5"
 50
90.0
 72
     4
 11
123.9155226078542
 21
423.91492323970323
 31
0.0
  0
TEXT
  5
154
  8
DIM
 10
173.1484560828961
 20
255.13094082387801
 30
0.0
 40
5.0
  1
%%c51 (%%c2.01") ROOT OF SPLINE
 50
90.0
  0
TEXT
  5
155
  8
DIM
 10
181.71988465432449
 20
255.13094082387801
 30
0.0
 40
5.0
  1
MAX. PERMISSIBLE O/D OF
 50
90.0
  0
TEXT
  5
156
  8
DIM
 10
190.29131322575321
 20
255.13094082387801
 30
0.0
 40
5.0
  1
VALVE SPINDLE LOCKNUT
 50
90.0
  0
LINE
  5
157
  8
DIM
 10
229.21555515080431
 20
358.91492323970323
 30
0.0
 11
229.21555515080431
 21
294.28023108528652
 31
0.0
  0
LINE
  5
158
  8
DIM
 10
316.16555515080432
 20
371.35247739919009
 30
0.0
 11
316.16555515080432
 21
294.28023108528652
 31
0.0
  0
LINE
  5
159
  8
DIM
 10
235.21555515080431
 20
296.28023108528652
 30
0.0
 11
310.16555515080432
 21
296.28023108528652
 31
0.0
  0
SOLID
  5
15A
  8
DIM
 10
235.21555515080431
 20
297.28023108528652
 30
0.0
 11
235.21555515080431
 21
295.28023108528652
 31
0.0
 12
229.21555515080431
 22
296.28023108528652
 32
0.0
 13
229.21555515080431
 23
296.28023108528652
 33
0.0
  0
SOLID
  5
15B
  8
DIM
 10
310.16555515080432
 20
297.28023108528652
 30
0.0
 11
310.16555515080432
 21
295.28023108528652
 31
0.0
 12
316.16555515080432
 22
296.28023108528652
 32
0.0
 13
316.16555515080432
 23
296.28023108528652
 33
0.0
  0
TEXT
  5
15C
  8
DIM
 10
268.64293610318532
 20
298.78023108528652
 30
0.0
 40
5.0
  1
87
 72
     1
 11
272.6905551508043
 21
301.28023108528652
 31
0.0
 73
     2
  0
LINE
  5
15D
  8
DRG
 10
319.04055515080432
 20
395.16492323970323
 30
0.0
 11
319.04055515080432
 21
452.66492323970328
 31
0.0
  0
LINE
  5
15E
  8
DRG
 10
316.16555515080432
 20
453.26492323970331
 30
0.0
 11
318.44055515080419
 21
453.26492323970331
 31
0.0
  0
LINE
  5
15F
  8
DRG
 10
316.16555515080432
 20
394.56492323970321
 30
0.0
 11
318.44055515080419
 21
394.56492323970321
 31
0.0
  0
LINE
  5
160
  8
DRG
 10
318.44055515080419
 20
394.56492323970321
 30
0.0
 11
319.04055515080432
 21
395.16492323970323
 31
0.0
  0
LINE
  5
161
  8
DRG
 10
319.04055515080432
 20
452.66492323970328
 30
0.0
 11
318.44055515080419
 21
453.26492323970331
 31
0.0
  0
LINE
  5
169
  8
DIM
 10
319.04055515080432
 20
389.50706593537137
 30
0.0
 11
319.04055515080432
 21
294.28023108528652
 31
0.0
  0
LINE
  5
16A
  8
DIM
 10
325.04055515080432
 20
296.28023108528652
 30
0.0
 11
335.68809992383069
 21
296.28023108528652
 31
0.0
  0
LINE
  5
16B
  8
DIM
 10
335.68809992383069
 20
296.28023108528652
 30
0.0
 11
351.0558754785223
 21
296.28023108528652
 31
0.0
  0
SOLID
  5
16C
  8
DIM
 10
325.04055515080432
 20
297.28023108528652
 30
0.0
 11
325.04055515080432
 21
295.28023108528652
 31
0.0
 12
319.04055515080432
 22
296.28023108528652
 32
0.0
 13
319.04055515080432
 23
296.28023108528652
 33
0.0
  0
TEXT
  5
16D
  8
DIM
 10
337.18809992383069
 20
298.78023108528652
 30
0.0
 40
5.0
  1
3
 72
     1
 11
338.85476659049738
 21
301.28023108528652
 31
0.0
 73
     2
  0
LINE
  5
16E
  8
DIM
 10
323.44055515080419
 20
394.56492323970321
 30
0.0
 11
358.25666274114701
 21
394.56492323970321
 31
0.0
  0
LINE
  5
16F
  8
DIM
 10
323.44055515080419
 20
453.26492323970331
 30
0.0
 11
358.25666274114701
 21
453.26492323970331
 31
0.0
  0
SOLID
  5
170
  8
DIM
 10
355.25666274114701
 20
400.56492323970321
 30
0.0
 11
357.25666274114701
 21
400.56492323970321
 31
0.0
 12
356.25666274114701
 22
394.56492323970321
 32
0.0
 13
356.25666274114701
 23
394.56492323970321
 33
0.0
  0
SOLID
  5
171
  8
DIM
 10
355.25666274114701
 20
447.26492323970319
 30
0.0
 11
357.25666274114701
 21
447.26492323970319
 31
0.0
 12
356.25666274114701
 22
453.26492323970331
 32
0.0
 13
356.25666274114701
 23
453.26492323970331
 33
0.0
  0
TEXT
  5
172
  8
DIM
 10
353.75666274114701
 20
327.3128252276756
 30
0.0
 40
5.0
  1
SEE TABLE FOR
 50
90.0
 72
     4
 11
351.2566627411469
 21
356.71758713243747
 31
0.0
  0
TEXT
  5
174
  8
DIM
 10
361.48588594531861
 20
495.6820052990409
 30
0.0
 40
5.0
  1
SEE TABLE FOR
  0
TEXT
  5
175
  8
DIM
 10
361.48588594531861
 20
487.1105767276124
 30
0.0
 40
5.0
  1
HOLE DETAILS
  0
LINE
  5
178
  8
DIM
 10
523.74198703388413
 20
296.28023108528652
 30
0.0
 11
683.74198703388413
 21
296.28023108528652
 31
0.0
  0
SOLID
  5
179
  8
DIM
 10
523.74198703388413
 20
297.28023108528652
 30
0.0
 11
523.74198703388413
 21
295.28023108528652
 31
0.0
 12
517.74198703388413
 22
296.28023108528652
 32
0.0
 13
517.74198703388413
 23
296.28023108528652
 33
0.0
  0
SOLID
  5
17A
  8
DIM
 10
683.74198703388413
 20
297.28023108528652
 30
0.0
 11
683.74198703388413
 21
295.28023108528652
 31
0.0
 12
689.74198703388413
 22
296.28023108528652
 32
0.0
 13
689.74198703388413
 23
296.28023108528652
 33
0.0
  0
TEXT
  5
17B
  8
DIM
 10
595.52770131959835
 20
298.78023108528652
 30
0.0
 40
5.0
  1
%%c172
 72
     1
 11
603.74198703388413
 21
301.28023108528652
 31
0.0
 73
     2
  0
TEXT
  5
17C
  8
DIM
 10
373.17192556610939
 20
321.77730440682939
 30
0.0
 40
5.0
  1
OFFSET FROM CENTRE LINE
  0
TEXT
  5
17D
  8
DIM
 10
373.17192556610939
 20
330.34873297825789
 30
0.0
 40
5.0
  1
SCREWS EQUALLY SPACED 22.5%%d
  0
TEXT
  5
17E
  8
DIM
 10
373.17192556610939
 20
338.92016154968638
 30
0.0
 40
5.0
  1
8 OFF M8 BASEPLATE SECURING
  0
TEXT
  5
17F
  8
DIM
 10
373.17192556610939
 20
313.3524675551123
 30
0.0
 40
5.0
  1
ON %%c150 (%%c5.91") P.C.
  0
SOLID
  5
180
  8
DIM
 10
527.55258579087672
 20
384.72132927053991
 30
0.0
 11
529.3241108429047
 21
383.79305183892927
 31
0.0
 12
531.22318061172246
 22
389.57176571081828
 32
0.0
 13
531.22318061172246
 23
389.57176571081828
 33
0.0
  0
LINE
  5
181
  8
DIM
 10
531.22318061172223
 20
389.57176571081771
 30
0.0
 11
506.00843477124738
 21
341.45193384178617
 31
0.0
  0
LINE
  5
182
  8
DIM
 10
506.00843477124738
 20
341.45193384178617
 30
0.0
 11
500.49327770120289
 21
341.45193384178629
 31
0.0
  0
LINE
  5
183
  8
DIM
 10
517.74198703388413
 20
356.56866282997402
 30
0.0
 11
517.74198703388413
 21
294.28023108528652
 31
0.0
  0
LINE
  5
184
  8
DIM
 10
689.74198703388413
 20
398.07452119124679
 30
0.0
 11
689.74198703388413
 21
294.28023108528652
 31
0.0
  0
LINE
  5
185
  8
DIM
 10
517.74198703388413
 20
398.8086453949287
 30
0.0
 11
517.74198703388413
 21
370.79617038128919
 31
0.0
  0
LINE
  5
186
  8
DIM
 10
699.48834384085183
 20
423.91492323970402
 30
0.0
 11
736.36395156419246
 21
423.91492323970402
 31
0.0
  0
LINE
  5
187
  8
DIM
 10
676.12441415666694
 20
576.41492323970408
 30
0.0
 11
736.36395156419246
 21
576.41492323970408
 31
0.0
  0
LINE
  5
188
  8
DIM
 10
734.36395156419258
 20
429.91492323970408
 30
0.0
 11
734.36395156419258
 21
570.41492323970419
 31
0.0
  0
SOLID
  5
189
  8
DIM
 10
733.36395156419258
 20
429.91492323970408
 30
0.0
 11
735.36395156419246
 21
429.91492323970408
 31
0.0
 12
734.36395156419258
 22
423.91492323970402
 32
0.0
 13
734.36395156419258
 23
423.91492323970402
 33
0.0
  0
SOLID
  5
18A
  8
DIM
 10
733.36395156419258
 20
570.41492323970419
 30
0.0
 11
735.36395156419246
 21
570.41492323970419
 31
0.0
 12
734.36395156419258
 22
576.41492323970408
 32
0.0
 13
734.36395156419258
 23
576.41492323970408
 33
0.0
  0
TEXT
  5
18B
  8
DIM
 10
731.86395156419246
 20
494.21254228732312
 30
0.0
 40
5.0
  1
153
 50
90.0
 72
     1
 11
729.36395156419258
 21
500.16492323970408
 31
0.0
 73
     2
  0
LINE
  5
18C
  8
DRG
 10
672.63110448439966
 20
475.39588571020431
 30
0.0
 11
661.42693361113675
 21
582.45205321838739
 31
0.0
  0
LINE
  5
18D
  8
DRG
 10
535.94653631841618
 20
476.82784096578081
 30
0.0
 11
546.00577146550995
 21
581.94026592973114
 31
0.0
  0
LINE
  5
18E
  8
DIM
 10
734.36395156419258
 20
582.41492323970419
 30
0.0
 11
734.36395156419258
 21
628.41492323970419
 31
0.0
  0
SOLID
  5
18F
  8
DIM
 10
733.36395156419258
 20
582.41492323970419
 30
0.0
 11
735.36395156419246
 21
582.41492323970419
 31
0.0
 12
734.36395156419258
 22
576.41492323970408
 32
0.0
 13
734.36395156419258
 23
576.41492323970408
 33
0.0
  0
SOLID
  5
190
  8
DIM
 10
733.36395156419258
 20
628.41492323970419
 30
0.0
 11
735.36395156419246
 21
628.41492323970419
 31
0.0
 12
734.36395156419258
 22
634.41492323970408
 32
0.0
 13
734.36395156419258
 23
634.41492323970408
 33
0.0
  0
TEXT
  5
191
  8
DIM
 10
731.86395156419246
 20
601.36730419208504
 30
0.0
 40
5.0
  1
58
 50
90.0
 72
     1
 11
729.36395156419258
 21
605.41492323970408
 31
0.0
 73
     2
  0
LINE
  5
192
  8
DIM
 10
620.81787438610365
 20
634.41492323970408
 30
0.0
 11
736.36395156419246
 21
634.41492323970408
 31
0.0
  0
LINE
  5
195
  8
DIM
 10
122.898773205087
 20
693.73959178957659
 30
0.0
 11
119.1905551508044
 21
693.73959178957659
 31
0.0
  0
LINE
  5
196
  8
DIM
 10
104.6905551508044
 20
591.41492323970328
 30
0.0
 11
67.233966969377093
 21
591.41492323970328
 31
0.0
  0
LINE
  5
197
  8
DIM
 10
104.6905551508044
 20
561.41492323970317
 30
0.0
 11
67.233966969377093
 21
561.41492323970317
 31
0.0
  0
LINE
  5
198
  8
DIM
 10
69.233966969377093
 20
561.41492323970317
 30
0.0
 11
69.233966969377093
 21
668.42608257290669
 31
0.0
  0
SOLID
  5
199
  8
DIM
 10
68.233966969377093
 20
585.41492323970317
 30
0.0
 11
70.233966969377093
 21
585.41492323970317
 31
0.0
 12
69.233966969377093
 22
591.41492323970328
 32
0.0
 13
69.233966969377093
 23
591.41492323970328
 33
0.0
  0
SOLID
  5
19A
  8
DIM
 10
68.233966969377093
 20
567.41492323970328
 30
0.0
 11
70.233966969377093
 21
567.41492323970328
 31
0.0
 12
69.233966969377093
 22
561.41492323970317
 32
0.0
 13
69.233966969377093
 23
561.41492323970317
 33
0.0
  0
TEXT
  5
19B
  8
DIM
 10
65.229260740992913
 20
604.38811131982345
 30
0.0
 40
5.0
  1
%%c30.00 -0.05
 50
90.0
 72
     4
 11
62.72926074099292
 21
630.34049227220453
 31
0.0
  0
TEXT
  5
19C
  8
DIM
 10
77.876824112234232
 20
596.65001608172827
 30
0.0
 40
5.0
  1
(%%c1.181" -0.002")
 50
90.0
 72
     4
 11
75.733966969377093
 21
630.34049227220453
 31
0.0
  0
LINE
  5
19D
  8
DIM
 10
664.84240238022778
 20
437.0674608087154
 30
0.0
 11
568.8800155945064
 21
416.41049980023843
 31
0.0
  0
LINE
  5
19E
  8
DIM
 10
568.8800155945064
 20
416.41049980023843
 30
0.0
 11
505.81710968799638
 21
402.83551451667239
 31
0.0
  0
SOLID
  5
19F
  8
DIM
 10
548.29677095968339
 20
413.00263592285972
 30
0.0
 11
548.71765216189158
 21
411.04742263177678
 31
0.0
 12
542.64157168753843
 22
410.76238567069311
 32
0.0
 13
542.64157168753843
 23
410.76238567069311
 33
0.0
  0
SOLID
  5
1A0
  8
DIM
 10
659.18720310808499
 20
434.82721055654901
 30
0.0
 11
658.76632190587657
 21
436.782423847632
 31
0.0
 12
664.84240238022994
 22
437.06746080871551
 32
0.0
 13
664.84240238022994
 23
437.06746080871551
 33
0.0
  0
POLYLINE
  5
1B6
  8
DRG2
 66
     1
 10
0.0
 20
0.0
 30
0.0
  0
VERTEX
  5
1488
  8
DRG2
 10
212.6905551508043
 20
621.53802925199784
 30
0.0
  0
VERTEX
  5
1489
  8
DRG2
 10
211.1905551508043
 20
620.03802925199784
 30
0.0
  0
VERTEX
  5
148A
  8
DRG2
 10
211.1905551508043
 20
607.03802925199784
 30
0.0
  0
VERTEX
  5
148B
  8
DRG2
 10
212.6905551508043
 20
605.53802925199784
 30
0.0
  0
SEQEND
  5
148C
  8
DRG2
  0
LINE
  5
1BC
  8
CRS
 10
222.96153573959899
 20
613.53802925199784
 30
0.0
 11
209.18125445083709
 21
613.53802925199784
 31
0.0
  0
POLYLINE
  5
1BD
  8
DRG2
 66
     1
 10
0.0
 20
0.0
 30
0.0
  0
VERTEX
  5
148D
  8
DRG2
 10
212.6905551508043
 20
547.29181722741032
 30
0.0
  0
VERTEX
  5
148E
  8
DRG2
 10
211.1905551508043
 20
545.79181722741032
 30
0.0
  0
VERTEX
  5
148F
  8
DRG2
 10
211.1905551508043
 20
532.79181722741021
 30
0.0
  0
VERTEX
  5
1490
  8
DRG2
 10
212.6905551508043
 20
531.29181722741032
 30
0.0
  0
SEQEND
  5
1491
  8
DRG2
  0
LINE
  5
1C3
  8
CRS
 10
222.96153573959899
 20
539.29181722741032
 30
0.0
 11
209.18125445083709
 21
539.29181722741032
 31
0.0
  0
LINE
  5
1C4
  8
DRG2
 10
221.1905551508043
 20
605.53802925199784
 30
0.0
 11
212.6905551508043
 21
605.53802925199784
 31
0.0
  0
LINE
  5
1C5
  8
DRG2
 10
212.6905551508043
 20
605.53802925199784
 30
0.0
 11
212.6905551508043
 21
621.53802925199784
 31
0.0
  0
LINE
  5
1C6
  8
DRG2
 10
212.6905551508043
 20
621.53802925199784
 30
0.0
 11
221.1905551508043
 21
621.53802925199784
 31
0.0
  0
LINE
  5
1C7
  8
DRG2
 10
221.1905551508043
 20
531.29181722741032
 30
0.0
 11
212.6905551508043
 21
531.29181722741032
 31
0.0
  0
LINE
  5
1C8
  8
DRG2
 10
212.6905551508043
 20
531.29181722741032
 30
0.0
 11
212.6905551508043
 21
547.29181722741032
 31
0.0
  0
LINE
  5
1C9
  8
DRG2
 10
212.6905551508043
 20
547.29181722741032
 30
0.0
 11
221.1905551508043
 21
547.29181722741032
 31
0.0
  0
CIRCLE
  5
1FA
  8
DRG2
 10
575.04072960650262
 20
493.20588817805071
 30
0.0
 40
6.4999998000000003
  0
CIRCLE
  5
1FB
  8
DRG2
 10
575.0407296065024
 20
493.2058881780506
 30
0.0
 40
5.9867932928637497
  0
POLYLINE
  5
1FC
  8
DRG2
 66
     1
 10
0.0
 20
0.0
 30
0.0
 70
     1
  0
VERTEX
  5
1492
  8
DRG2
 10
573.30867879893367
 20
496.20588817805083
 30
0.0
  0
VERTEX
  5
1493
  8
DRG2
 10
571.57662799136483
 20
493.20588817805071
 30
0.0
  0
VERTEX
  5
1494
  8
DRG2
 10
573.30867879893367
 20
490.20588817805071
 30
0.0
  0
VERTEX
  5
1495
  8
DRG2
 10
576.77278041407135
 20
490.20588817805071
 30
0.0
  0
VERTEX
  5
1496
  8
DRG2
 10
578.50483122164042
 20
493.20588817805071
 30
0.0
  0
VERTEX
  5
1497
  8
DRG2
 10
576.77278041407135
 20
496.20588817805083
 30
0.0
  0
SEQEND
  5
1498
  8
DRG2
  0
POLYLINE
  5
204
  8
CRS
 66
     1
 10
0.0
 20
0.0
 30
0.0
  0
VERTEX
  5
1499
  8
CRS
 10
575.04072960650262
 20
500.64959832057059
 30
0.0
  0
VERTEX
  5
149A
  8
CRS
 10
575.0407296065024
 20
493.2058881780506
 30
0.0
  0
VERTEX
  5
149B
  8
CRS
 10
575.0407296065024
 20
485.90771492013329
 30
0.0
  0
SEQEND
  5
149C
  8
CRS
  0
POLYLINE
  5
209
  8
CRS
 66
     1
 10
0.0
 20
0.0
 30
0.0
  0
VERTEX
  5
149D
  8
CRS
 10
582.07903683712493
 20
493.2058881780506
 30
0.0
  0
VERTEX
  5
149E
  8
CRS
 10
575.04072960650262
 20
493.2058881780506
 30
0.0
  0
VERTEX
  5
149F
  8
CRS
 10
567.6040831882359
 20
493.2058881780506
 30
0.0
  0
SEQEND
  5
14A0
  8
CRS
  0
CIRCLE
  5
20E
  8
DRG2
 10
632.44324446126598
 20
493.20588817805071
 30
0.0
 40
6.4999998000000003
  0
CIRCLE
  5
20F
  8
DRG2
 10
632.44324446126575
 20
493.2058881780506
 30
0.0
 40
5.9867932928637497
  0
POLYLINE
  5
210
  8
DRG2
 66
     1
 10
0.0
 20
0.0
 30
0.0
 70
     1
  0
VERTEX
  5
14A1
  8
DRG2
 10
630.71119365369714
 20
496.20588817805083
 30
0.0
  0
VERTEX
  5
14A2
  8
DRG2
 10
628.97914284612807
 20
493.20588817805071
 30
0.0
  0
VERTEX
  5
14A3
  8
DRG2
 10
630.71119365369714
 20
490.20588817805071
 30
0.0
  0
VERTEX
  5
14A4
  8
DRG2
 10
634.17529526883482
 20
490.20588817805071
 30
0.0
  0
VERTEX
  5
14A5
  8
DRG2
 10
635.90734607640377
 20
493.20588817805071
 30
0.0
  0
VERTEX
  5
14A6
  8
DRG2
 10
634.17529526883482
 20
496.20588817805083
 30
0.0
  0
SEQEND
  5
14A7
  8
DRG2
  0
POLYLINE
  5
218
  8
CRS
 66
     1
 10
0.0
 20
0.0
 30
0.0
  0
VERTEX
  5
14A8
  8
CRS
 10
632.44324446126598
 20
500.64959832057059
 30
0.0
  0
VERTEX
  5
14A9
  8
CRS
 10
632.44324446126575
 20
493.2058881780506
 30
0.0
  0
VERTEX
  5
14AA
  8
CRS
 10
632.44324446126575
 20
485.90771492013329
 30
0.0
  0
SEQEND
  5
14AB
  8
CRS
  0
POLYLINE
  5
21D
  8
CRS
 66
     1
 10
0.0
 20
0.0
 30
0.0
  0
VERTEX
  5
14AC
  8
CRS
 10
639.48155169188828
 20
493.2058881780506
 30
0.0
  0
VERTEX
  5
14AD
  8
CRS
 10
632.44324446126598
 20
493.2058881780506
 30
0.0
  0
VERTEX
  5
14AE
  8
CRS
 10
625.00659804299937
 20
493.2058881780506
 30
0.0
  0
SEQEND
  5
14AF
  8
CRS
  0
CIRCLE
  5
222
  8
DRG2
 10
534.45102209553772
 20
452.61618066708593
 30
0.0
 40
6.4999998000000003
  0
CIRCLE
  5
223
  8
DRG2
 10
534.45102209553761
 20
452.6161806670857
 30
0.0
 40
5.9867932928637497
  0
POLYLINE
  5
224
  8
DRG2
 66
     1
 10
0.0
 20
0.0
 30
0.0
 70
     1
  0
VERTEX
  5
14B0
  8
DRG2
 10
532.71897128796888
 20
455.61618066708598
 30
0.0
  0
VERTEX
  5
14B1
  8
DRG2
 10
530.98692048039993
 20
452.61618066708593
 30
0.0
  0
VERTEX
  5
14B2
  8
DRG2
 10
532.71897128796888
 20
449.61618066708593
 30
0.0
  0
VERTEX
  5
14B3
  8
DRG2
 10
536.18307290310656
 20
449.61618066708593
 30
0.0
  0
VERTEX
  5
14B4
  8
DRG2
 10
537.9151237106754
 20
452.61618066708593
 30
0.0
  0
VERTEX
  5
14B5
  8
DRG2
 10
536.18307290310656
 20
455.61618066708598
 30
0.0
  0
SEQEND
  5
14B6
  8
DRG2
  0
POLYLINE
  5
22C
  8
CRS
 66
     1
 10
0.0
 20
0.0
 30
0.0
  0
VERTEX
  5
14B7
  8
CRS
 10
534.45102209553772
 20
460.0598908096058
 30
0.0
  0
VERTEX
  5
14B8
  8
CRS
 10
534.45102209553761
 20
452.61618066708593
 30
0.0
  0
VERTEX
  5
14B9
  8
CRS
 10
534.45102209553761
 20
445.3180074091685
 30
0.0
  0
SEQEND
  5
14BA
  8
CRS
  0
POLYLINE
  5
231
  8
CRS
 66
     1
 10
0.0
 20
0.0
 30
0.0
  0
VERTEX
  5
14BB
  8
CRS
 10
541.48932932616003
 20
452.61618066708593
 30
0.0
  0
VERTEX
  5
14BC
  8
CRS
 10
534.45102209553772
 20
452.61618066708593
 30
0.0
  0
VERTEX
  5
14BD
  8
CRS
 10
527.01437567727112
 20
452.61618066708593
 30
0.0
  0
SEQEND
  5
14BE
  8
CRS
  0
CIRCLE
  5
236
  8
DRG2
 10
673.03295197223076
 20
452.61618066708593
 30
0.0
 40
6.4999998000000003
  0
CIRCLE
  5
237
  8
DRG2
 10
673.03295197223076
 20
452.6161806670857
 30
0.0
 40
5.9867932928637497
  0
POLYLINE
  5
238
  8
DRG2
 66
     1
 10
0.0
 20
0.0
 30
0.0
 70
     1
  0
VERTEX
  5
14BF
  8
DRG2
 10
671.30090116466204
 20
455.61618066708581
 30
0.0
  0
VERTEX
  5
14C0
  8
DRG2
 10
669.56885035709308
 20
452.61618066708593
 30
0.0
  0
VERTEX
  5
14C1
  8
DRG2
 10
671.30090116466204
 20
449.61618066708581
 30
0.0
  0
VERTEX
  5
14C2
  8
DRG2
 10
674.7650027797996
 20
449.61618066708581
 30
0.0
  0
VERTEX
  5
14C3
  8
DRG2
 10
676.49705358736855
 20
452.61618066708593
 30
0.0
  0
VERTEX
  5
14C4
  8
DRG2
 10
674.7650027797996
 20
455.61618066708581
 30
0.0
  0
SEQEND
  5
14C5
  8
DRG2
  0
POLYLINE
  5
240
  8
CRS
 66
     1
 10
0.0
 20
0.0
 30
0.0
  0
VERTEX
  5
14C6
  8
CRS
 10
673.03295197223076
 20
460.05989080960569
 30
0.0
  0
VERTEX
  5
14C7
  8
CRS
 10
673.03295197223076
 20
452.6161806670857
 30
0.0
  0
VERTEX
  5
14C8
  8
CRS
 10
673.03295197223076
 20
445.31800740916827
 30
0.0
  0
SEQEND
  5
14C9
  8
CRS
  0
POLYLINE
  5
245
  8
CRS
 66
     1
 10
0.0
 20
0.0
 30
0.0
  0
VERTEX
  5
14CA
  8
CRS
 10
680.07125920285307
 20
452.6161806670857
 30
0.0
  0
VERTEX
  5
14CB
  8
CRS
 10
673.03295197223076
 20
452.6161806670857
 30
0.0
  0
VERTEX
  5
14CC
  8
CRS
 10
665.59630555396416
 20
452.6161806670857
 30
0.0
  0
SEQEND
  5
14CD
  8
CRS
  0
CIRCLE
  5
24A
  8
DRG2
 10
534.45102209553772
 20
395.21366581232252
 30
0.0
 40
6.4999998000000003
  0
CIRCLE
  5
24B
  8
DRG2
 10
534.45102209553761
 20
395.2136658123224
 30
0.0
 40
5.9867932928637497
  0
POLYLINE
  5
24C
  8
DRG2
 66
     1
 10
0.0
 20
0.0
 30
0.0
 70
     1
  0
VERTEX
  5
14CE
  8
DRG2
 10
532.71897128796888
 20
398.21366581232252
 30
0.0
  0
VERTEX
  5
14CF
  8
DRG2
 10
530.98692048039993
 20
395.21366581232252
 30
0.0
  0
VERTEX
  5
14D0
  8
DRG2
 10
532.71897128796888
 20
392.21366581232252
 30
0.0
  0
VERTEX
  5
14D1
  8
DRG2
 10
536.18307290310656
 20
392.21366581232252
 30
0.0
  0
VERTEX
  5
14D2
  8
DRG2
 10
537.9151237106754
 20
395.21366581232252
 30
0.0
  0
VERTEX
  5
14D3
  8
DRG2
 10
536.18307290310656
 20
398.21366581232252
 30
0.0
  0
SEQEND
  5
14D4
  8
DRG2
  0
POLYLINE
  5
254
  8
CRS
 66
     1
 10
0.0
 20
0.0
 30
0.0
  0
VERTEX
  5
14D5
  8
CRS
 10
534.45102209553772
 20
402.65737595484239
 30
0.0
  0
VERTEX
  5
14D6
  8
CRS
 10
534.45102209553761
 20
395.2136658123224
 30
0.0
  0
VERTEX
  5
14D7
  8
CRS
 10
534.45102209553761
 20
387.91549255440498
 30
0.0
  0
SEQEND
  5
14D8
  8
CRS
  0
POLYLINE
  5
259
  8
CRS
 66
     1
 10
0.0
 20
0.0
 30
0.0
  0
VERTEX
  5
14D9
  8
CRS
 10
541.48932932616003
 20
395.2136658123224
 30
0.0
  0
VERTEX
  5
14DA
  8
CRS
 10
534.45102209553772
 20
395.2136658123224
 30
0.0
  0
VERTEX
  5
14DB
  8
CRS
 10
527.01437567727112
 20
395.2136658123224
 30
0.0
  0
SEQEND
  5
14DC
  8
CRS
  0
CIRCLE
  5
25E
  8
DRG2
 10
575.04072960650262
 20
354.62395830135767
 30
0.0
 40
6.4999998000000003
  0
CIRCLE
  5
25F
  8
DRG2
 10
575.0407296065024
 20
354.6239583013575
 30
0.0
 40
5.9867932928637497
  0
POLYLINE
  5
260
  8
DRG2
 66
     1
 10
0.0
 20
0.0
 30
0.0
 70
     1
  0
VERTEX
  5
14DD
  8
DRG2
 10
573.30867879893367
 20
357.62395830135767
 30
0.0
  0
VERTEX
  5
14DE
  8
DRG2
 10
571.57662799136483
 20
354.62395830135767
 30
0.0
  0
VERTEX
  5
14DF
  8
DRG2
 10
573.30867879893367
 20
351.62395830135767
 30
0.0
  0
VERTEX
  5
14E0
  8
DRG2
 10
576.77278041407135
 20
351.62395830135767
 30
0.0
  0
VERTEX
  5
14E1
  8
DRG2
 10
578.50483122164042
 20
354.62395830135767
 30
0.0
  0
VERTEX
  5
14E2
  8
DRG2
 10
576.77278041407135
 20
357.62395830135767
 30
0.0
  0
SEQEND
  5
14E3
  8
DRG2
  0
POLYLINE
  5
268
  8
CRS
 66
     1
 10
0.0
 20
0.0
 30
0.0
  0
VERTEX
  5
14E4
  8
CRS
 10
575.04072960650262
 20
362.06766844387761
 30
0.0
  0
VERTEX
  5
14E5
  8
CRS
 10
575.0407296065024
 20
354.62395830135762
 30
0.0
  0
VERTEX
  5
14E6
  8
CRS
 10
575.0407296065024
 20
347.32578504344019
 30
0.0
  0
SEQEND
  5
14E7
  8
CRS
  0
POLYLINE
  5
26D
  8
CRS
 66
     1
 10
0.0
 20
0.0
 30
0.0
  0
VERTEX
  5
14E8
  8
CRS
 10
582.07903683712493
 20
354.62395830135762
 30
0.0
  0
VERTEX
  5
14E9
  8
CRS
 10
575.04072960650262
 20
354.62395830135762
 30
0.0
  0
VERTEX
  5
14EA
  8
CRS
 10
567.6040831882359
 20
354.62395830135762
 30
0.0
  0
SEQEND
  5
14EB
  8
CRS
  0
CIRCLE
  5
272
  8
DRG2
 10
632.44324446126598
 20
354.62395830135767
 30
0.0
 40
6.4999998000000003
  0
CIRCLE
  5
273
  8
DRG2
 10
632.44324446126575
 20
354.62395830135762
 30
0.0
 40
5.9867932928637497
  0
POLYLINE
  5
274
  8
DRG2
 66
     1
 10
0.0
 20
0.0
 30
0.0
 70
     1
  0
VERTEX
  5
14EC
  8
DRG2
 10
630.71119365369714
 20
357.62395830135767
 30
0.0
  0
VERTEX
  5
14ED
  8
DRG2
 10
628.97914284612807
 20
354.62395830135767
 30
0.0
  0
VERTEX
  5
14EE
  8
DRG2
 10
630.71119365369714
 20
351.62395830135767
 30
0.0
  0
VERTEX
  5
14EF
  8
DRG2
 10
634.17529526883482
 20
351.62395830135767
 30
0.0
  0
VERTEX
  5
14F0
  8
DRG2
 10
635.90734607640377
 20
354.62395830135767
 30
0.0
  0
VERTEX
  5
14F1
  8
DRG2
 10
634.17529526883482
 20
357.62395830135767
 30
0.0
  0
SEQEND
  5
14F2
  8
DRG2
  0
POLYLINE
  5
27C
  8
CRS
 66
     1
 10
0.0
 20
0.0
 30
0.0
  0
VERTEX
  5
14F3
  8
CRS
 10
632.44324446126598
 20
362.06766844387761
 30
0.0
  0
VERTEX
  5
14F4
  8
CRS
 10
632.44324446126575
 20
354.62395830135762
 30
0.0
  0
VERTEX
  5
14F5
  8
CRS
 10
632.44324446126575
 20
347.32578504344019
 30
0.0
  0
SEQEND
  5
14F6
  8
CRS
  0
POLYLINE
  5
281
  8
CRS
 66
     1
 10
0.0
 20
0.0
 30
0.0
  0
VERTEX
  5
14F7
  8
CRS
 10
639.48155169188828
 20
354.62395830135762
 30
0.0
  0
VERTEX
  5
14F8
  8
CRS
 10
632.44324446126598
 20
354.62395830135762
 30
0.0
  0
VERTEX
  5
14F9
  8
CRS
 10
625.00659804299937
 20
354.62395830135762
 30
0.0
  0
SEQEND
  5
14FA
  8
CRS
  0
CIRCLE
  5
286
  8
DRG2
 10
673.03295197223076
 20
395.21366581232257
 30
0.0
 40
6.4999998000000003
  0
CIRCLE
  5
287
  8
DRG2
 10
673.03295197223076
 20
395.2136658123224
 30
0.0
 40
5.9867932928637497
  0
POLYLINE
  5
288
  8
DRG2
 66
     1
 10
0.0
 20
0.0
 30
0.0
 70
     1
  0
VERTEX
  5
14FB
  8
DRG2
 10
671.30090116466204
 20
398.21366581232257
 30
0.0
  0
VERTEX
  5
14FC
  8
DRG2
 10
669.56885035709308
 20
395.21366581232257
 30
0.0
  0
VERTEX
  5
14FD
  8
DRG2
 10
671.30090116466204
 20
392.21366581232257
 30
0.0
  0
VERTEX
  5
14FE
  8
DRG2
 10
674.7650027797996
 20
392.21366581232257
 30
0.0
  0
VERTEX
  5
14FF
  8
DRG2
 10
676.49705358736855
 20
395.21366581232257
 30
0.0
  0
VERTEX
  5
1500
  8
DRG2
 10
674.7650027797996
 20
398.21366581232257
 30
0.0
  0
SEQEND
  5
1501
  8
DRG2
  0
POLYLINE
  5
290
  8
CRS
 66
     1
 10
0.0
 20
0.0
 30
0.0
  0
VERTEX
  5
1502
  8
CRS
 10
673.03295197223076
 20
402.65737595484251
 30
0.0
  0
VERTEX
  5
1503
  8
CRS
 10
673.03295197223076
 20
395.21366581232252
 30
0.0
  0
VERTEX
  5
1504
  8
CRS
 10
673.03295197223076
 20
387.91549255440509
 30
0.0
  0
SEQEND
  5
1505
  8
CRS
  0
POLYLINE
  5
295
  8
CRS
 66
     1
 10
0.0
 20
0.0
 30
0.0
  0
VERTEX
  5
1506
  8
CRS
 10
680.07125920285307
 20
395.21366581232252
 30
0.0
  0
VERTEX
  5
1507
  8
CRS
 10
673.03295197223076
 20
395.21366581232252
 30
0.0
  0
VERTEX
  5
1508
  8
CRS
 10
665.59630555396416
 20
395.21366581232252
 30
0.0
  0
SEQEND
  5
1509
  8
CRS
  0
POLYLINE
  5
29A
  8
DRG2
 66
     1
 10
0.0
 20
0.0
 30
0.0
  0
VERTEX
  5
150A
  8
DRG2
 10
320.21575515080411
 20
348.1241583013578
 30
0.0
  0
VERTEX
  5
150B
  8
DRG2
 10
320.21575515080423
 20
361.12375830135733
 30
0.0
  0
SEQEND
  5
150C
  8
DRG2
  0
LINE
  5
29E
  8
CRS
 10
322.67258718893572
 20
354.62395830135762
 30
0.0
 11
312.20087061311028
 21
354.62395830135762
 31
0.0
  0
LINE
  5
29F
  8
DRG2
 10
313.21555515080428
 20
348.1241583013578
 30
0.0
 11
320.21575515080423
 21
348.1241583013578
 31
0.0
  0
LINE
  5
2A0
  8
DRG2
 10
320.21575515080423
 20
348.1241583013578
 30
0.0
 11
321.21475515080448
 21
349.12375830135733
 31
0.0
  0
LINE
  5
2A1
  8
DRG2
 10
321.21475515080448
 20
349.12375830135733
 30
0.0
 11
321.21475515080448
 21
360.12415830135791
 31
0.0
  0
LINE
  5
2A2
  8
DRG2
 10
321.21475515080448
 20
360.12415830135791
 30
0.0
 11
320.21575515080423
 21
361.12375830135733
 31
0.0
  0
LINE
  5
2A3
  8
DRG2
 10
320.21575515080423
 20
361.12375830135733
 30
0.0
 11
313.21555515080428
 21
361.12375830135733
 31
0.0
  0
POLYLINE
  5
2A4
  8
DRG2
 66
     1
 10
0.0
 20
0.0
 30
0.0
  0
VERTEX
  5
150D
  8
DRG2
 10
320.21575515080423
 20
486.706088178051
 30
0.0
  0
VERTEX
  5
150E
  8
DRG2
 10
320.21575515080423
 20
499.70568817805048
 30
0.0
  0
SEQEND
  5
150F
  8
DRG2
  0
LINE
  5
2A8
  8
CRS
 10
322.67258718893578
 20
493.20588817805071
 30
0.0
 11
312.20087061311028
 21
493.20588817805071
 31
0.0
  0
LINE
  5
2A9
  8
DRG2
 10
313.21555515080428
 20
486.706088178051
 30
0.0
 11
320.21575515080423
 21
486.706088178051
 31
0.0
  0
LINE
  5
2AA
  8
DRG2
 10
320.21575515080423
 20
486.706088178051
 30
0.0
 11
321.21475515080448
 21
487.70568817805048
 31
0.0
  0
LINE
  5
2AB
  8
DRG2
 10
321.21475515080448
 20
487.70568817805048
 30
0.0
 11
321.21475515080448
 21
498.706088178051
 31
0.0
  0
LINE
  5
2AC
  8
DRG2
 10
321.21475515080448
 20
498.706088178051
 30
0.0
 11
320.21575515080423
 21
499.70568817805048
 31
0.0
  0
LINE
  5
2AD
  8
DRG2
 10
320.21575515080423
 20
499.70568817805048
 30
0.0
 11
313.21555515080428
 21
499.70568817805048
 31
0.0
  0
LINE
  5
2AE
  8
DRG
 10
215.19055515080441
 20
605.53802925199784
 30
0.0
 11
215.19055515080441
 21
547.29181722741032
 31
0.0
  0
LINE
  5
2AF
  8
DIM
 10
174.35748728849069
 20
386.36492323970322
 30
0.0
 11
129.62196438736399
 21
386.36492323970322
 31
0.0
  0
LINE
  5
2B7
  8
DRG2
 10
166.0
 20
105.3330754159503
 30
0.0
 11
466.0
 21
105.3330754159503
 31
0.0
  0
LINE
  5
2B8
  8
DRG2
 10
166.0
 20
89.333075415950319
 30
0.0
 11
466.0
 21
89.333075415950319
 31
0.0
  0
LINE
  5
2B9
  8
DRG2
 10
166.0
 20
73.333075415950333
 30
0.0
 11
466.0
 21
73.333075415950333
 31
0.0
  0
LINE
  5
2BA
  8
DRG2
 10
166.0
 20
57.333075415950333
 30
0.0
 11
466.0
 21
57.333075415950333
 31
0.0
  0
LINE
  5
2BC
  8
DRG2
 10
286.0
 20
57.333075415950333
 30
0.0
 11
286.0
 21
105.3330754159503
 31
0.0
  0
LINE
  5
2BD
  8
DRG2
 10
346.0
 20
57.333075415950333
 30
0.0
 11
346.0
 21
105.3330754159503
 31
0.0
  0
LINE
  5
2BE
  8
DRG2
 10
406.0
 20
57.333075415950333
 30
0.0
 11
406.0
 21
105.3330754159503
 31
0.0
  0
LINE
  5
2BF
  8
DRG2
 10
466.0
 20
57.333075415950333
 30
0.0
 11
466.0
 21
105.3330754159503
 31
0.0
  0
TEXT
  5
2C0
  8
TXT
 10
197.3095238095238
 20
94.833075415950333
 30
0.0
 40
5.0
  1
NOMINAL RATIO
 72
     4
 11
226.0
 21
97.333075415950333
 31
0.0
  0
TEXT
  5
2C1
  8
TXT
 10
311.71428571428572
 20
94.833075415950333
 30
0.0
 40
5.0
  1
1:1
 72
     4
 11
316.0
 21
97.333075415950333
 31
0.0
  0
TEXT
  5
2C2
  8
TXT
 10
201.71428571428569
 20
78.833075415950333
 30
0.0
 40
5.0
  1
EXACT RATIO
 72
     4
 11
226.0
 21
81.333075415950333
 31
0.0
  0
TEXT
  5
2C3
  8
TXT
 10
170.76190476190479
 20
63.190218273093187
 30
0.0
 40
5.0
  1
FACTOR (MECH. ADVANTAGE)
 72
     4
 11
226.0
 21
65.333075415950333
 31
0.0
  0
TEXT
  5
2C4
  8
TXT
 10
305.7619047619047
 20
78.833075415950333
 30
0.0
 40
5.0
  1
1.25:1
 72
     4
 11
316.0
 21
81.333075415950333
 31
0.0
  0
TEXT
  5
2C5
  8
TXT
 10
306.95238095238091
 20
62.833075415950333
 30
0.0
 40
5.0
  1
1.125
 72
     4
 11
316.0
 21
65.333075415950333
 31
0.0
  0
TEXT
  5
2C6
  8
TXT
 10
366.47619047619042
 20
62.833075415950333
 30
0.0
 40
5.0
  1
1.830
 72
     4
 11
376.0
 21
65.333075415950333
 31
0.0
  0
TEXT
  5
2C7
  8
TXT
 10
426.0
 20
62.833075415950333
 30
0.0
 40
5.0
  1
2.700
 72
     4
 11
436.0
 21
65.333075415950333
 31
0.0
  0
TEXT
  5
2C8
  8
TXT
 10
431.23809523809518
 20
94.833075415950333
 30
0.0
 40
5.0
  1
3:1
 72
     4
 11
436.0
 21
97.333075415950333
 31
0.0
  0
TEXT
  5
2C9
  8
TXT
 10
425.28571428571422
 20
78.833075415950333
 30
0.0
 40
5.0
  1
3.00:1
 72
     4
 11
436.0
 21
81.333075415950333
 31
0.0
  0
TEXT
  5
2CA
  8
TXT
 10
365.28571428571428
 20
78.833075415950333
 30
0.0
 40
5.0
  1
2.04:1
 72
     4
 11
376.0
 21
81.333075415950333
 31
0.0
  0
TEXT
  5
2CB
  8
TXT
 10
371.23809523809518
 20
94.833075415950333
 30
0.0
 40
5.0
  1
2:1
 72
     4
 11
376.0
 21
97.333075415950333
 31
0.0
  0
POLYLINE
  5
2CC
  8
BORT
 66
     1
 10
0.0
 20
0.0
 30
0.0
 39
1.8
  0
VERTEX
  5
1510
  8
BORT
 10
166.0
 20
153.3330754159503
 30
0.0
  0
VERTEX
  5
1511
  8
BORT
 10
166.0
 20
111.3330754159503
 30
0.0
  0
SEQEND
  5
1512
  8
BORT
  0
POLYLINE
  5
2D0
  8
BORT
 66
     1
 10
0.0
 20
0.0
 30
0.0
 39
1.8
  0
VERTEX
  5
1513
  8
BORT
 10
38.0
 20
111.3330754159503
 30
0.0
  0
VERTEX
  5
1514
  8
BORT
 10
38.0
 20
153.3330754159503
 30
0.0
  0
SEQEND
  5
1515
  8
BORT
  0
CIRCLE
  5
2D4
  8
DRG
 10
603.7419870338847
 20
423.91492323970402
 30
0.0
 40
29.350000000000001
  0
LINE
  5
2D5
  8
HID
 10
301.16555515080432
 20
479.47742323970323
 30
0.0
 11
316.16555515080432
 21
479.47742323970323
 31
0.0
  0
LINE
  5
2D6
  8
HID
 10
301.16555515080432
 20
469.95242323970331
 30
0.0
 11
316.16555515080432
 21
469.95242323970331
 31
0.0
  0
LINE
  5
2D7
  8
HID
 10
295.16555515080432
 20
478.70272323970329
 30
0.0
 11
316.16555515080432
 21
478.70272323970329
 31
0.0
  0
LINE
  5
2D8
  8
HID
 10
295.16555515080432
 20
470.72712323970319
 30
0.0
 11
316.16555515080432
 21
470.72712323970319
 31
0.0
  0
LINE
  5
2DB
  8
CRS
 10
567.82096254960811
 20
453.10887187035058
 30
0.0
 11
567.82096254960811
 21
466.56302357760927
 31
0.0
  0
LINE
  5
2DC
  8
CRS
 10
561.09388669597888
 20
459.83594772397998
 30
0.0
 11
574.54803840323746
 21
459.83594772397998
 31
0.0
  0
LINE
  5
2DD
  8
CRS
 10
574.54803840323825
 20
387.99389875542738
 30
0.0
 11
561.09388669597945
 21
387.99389875542738
 31
0.0
  0
LINE
  5
2DE
  8
CRS
 10
567.82096254960868
 20
381.26682290179809
 30
0.0
 11
567.82096254960868
 21
394.72097460905678
 31
0.0
  0
LINE
  5
2DF
  8
CRS
 10
639.6630115181614
 20
394.72097460905741
 30
0.0
 11
639.6630115181614
 21
381.26682290179872
 31
0.0
  0
LINE
  5
2E0
  8
CRS
 10
646.39008737179074
 20
387.99389875542801
 30
0.0
 11
632.93593566453205
 21
387.99389875542801
 31
0.0
  0
ARC
  5
2E1
  8
DRG2
 10
639.66301151816083
 20
459.83594772398072
 30
0.0
 40
4.7625000000000002
 50
64.071538288951047
 51
14.291002022106049
  0
CIRCLE
  5
2E2
  8
DRG2
 10
639.66301151816083
 20
459.83594772398072
 30
0.0
 40
3.9878
  0
ARC
  5
2E3
  8
DRG2
 10
567.82096254960811
 20
459.83594772397998
 30
0.0
 40
4.7625000000000002
 50
64.071538288951047
 51
14.291002022106049
  0
CIRCLE
  5
2E4
  8
DRG2
 10
567.82096254960811
 20
459.83594772397998
 30
0.0
 40
3.9878
  0
ARC
  5
2E5
  8
DRG2
 10
567.82096254960868
 20
387.99389875542738
 30
0.0
 40
4.7625000000000002
 50
64.071538288951047
 51
14.291002022106049
  0
CIRCLE
  5
2E6
  8
DRG2
 10
567.82096254960868
 20
387.99389875542738
 30
0.0
 40
3.9878
  0
ARC
  5
2E7
  8
DRG2
 10
639.6630115181614
 20
387.99389875542801
 30
0.0
 40
4.7625000000000002
 50
64.071538288951047
 51
14.291002022106049
  0
CIRCLE
  5
2E8
  8
DRG2
 10
639.6630115181614
 20
387.99389875542801
 30
0.0
 40
3.9878
  0
TEXT
  5
2E9
  8
DIM
 10
741.50680870704969
 20
592.7958756206566
 30
0.0
 40
5.0
  1
(2.28")
 50
90.0
 72
     4
 11
739.36395156419246
 21
605.41492323970408
 31
0.0
  0
TEXT
  5
2EA
  8
DIM
 10
741.50680870704946
 20
487.54587562065649
 30
0.0
 40
5.0
  1
(6.00")
 50
90.0
 72
     4
 11
739.36395156419246
 21
500.16492323970408
 31
0.0
  0
TEXT
  5
2EB
  8
DIM
 10
588.86103465293172
 20
289.13737394242929
 30
0.0
 40
5.0
  1
(%%c6.77")
 72
     4
 11
603.74198703388413
 21
291.28023108528652
 31
0.0
  0
ARC
  5
2EC
  8
DIM
 10
603.7419870338839
 20
423.91492323970408
 30
0.0
 40
62.500000000000142
 50
8.9711672192086951
 51
36.819214207672474
  0
ARC
  5
2ED
  8
DIM
 10
603.7419870338839
 20
423.91492323970408
 30
0.0
 40
62.500000000000142
 50
188.8857614545413
 51
216.9645196696838
  0
TEXT
  5
2EE
  8
DIM
 10
479.04736138356282
 20
406.5062620154344
 30
0.0
 40
5.0
  1
%%c125
 50
359.99999999999989
 72
     1
 11
487.26164709784859
 21
409.0062620154344
 31
0.0
 73
     2
  0
TEXT
  5
2EF
  8
DIM
 10
472.38069471689607
 20
394.5219098750531
 30
0.0
 40
5.0
  1
(%%c4.92")
 50
0.000000000000132
 72
     4
 11
487.26164709784848
 21
396.66476701791032
 31
0.0
  0
LINE
  5
2F0
  8
DIM
 10
505.81710968799638
 20
402.83551451667239
 30
0.0
 11
471.74456196307239
 21
402.83551451667239
 31
0.0
  0
TEXT
  5
2F1
  8
DIM
 10
266.60900753175667
 20
713.89510013900485
 30
0.0
 40
5.0
  1
(3.74")
 72
     4
 11
279.22805515080432
 21
716.03795728186185
 31
0.0
  0
TEXT
  5
2F2
  8
DIM
 10
156.0840075317567
 20
713.89510013900485
 30
0.0
 40
5.0
  1
(4.76")
 72
     4
 11
168.7030551508044
 21
716.03795728186185
 31
0.0
  0
TEXT
  5
2F4
  8
DIM
 10
188.3898374065019
 20
659.10946961783975
 30
0.0
 40
5.0
  1
(0.32")
 72
     4
 11
201.00888502554949
 21
661.25232676069675
 31
0.0
  0
TEXT
  5
2F5
  8
DIM
 10
75.094834637063585
 20
686.59673464671948
 30
0.0
 40
5.0
  1
(0.20")
 72
     4
 11
87.713882256111219
 21
688.73959178957671
 31
0.0
  0
TEXT
  5
2F6
  8
DIM
 10
165.53028367549891
 20
642.87683965035365
 30
0.0
 40
5.0
  1
8x7x40
 72
     4
 11
178.3874265326418
 21
645.37683965035365
 31
0.0
  0
TEXT
  5
2F7
  8
DIM
 10
142.43504558026081
 20
634.66255393606798
 30
0.0
 40
5.0
  1
(0.31"x0.28"x1.57")
 72
     4
 11
178.3874265326418
 21
636.80541107892509
 31
0.0
  0
TEXT
  5
2F8
  8
DIM
 10
171.72075986597511
 20
625.73398250749665
 30
0.0
 40
5.0
  1
KEY
 72
     4
 11
178.3874265326418
 21
628.23398250749665
 31
0.0
  0
LINE
  5
2FC
  8
DIM
 10
178.98470234088981
 20
362.80147572504899
 30
0.0
 11
178.98470234088981
 21
449.90992323970318
 31
0.0
  0
TEXT
  5
2FD
  8
DIM
 10
276.30269800794707
 20
428.46873075111318
 30
0.0
 40
5.0
  1
(2.15")
 72
     4
 11
288.4455551508043
 21
430.61158789397041
 31
0.0
  0
TEXT
  5
2FE
  8
DIM
 10
327.18809992383069
 20
289.13737394242929
 30
0.0
 40
5.0
  1
(0.11")
 72
     4
 11
338.85476659049738
 21
291.28023108528652
 31
0.0
  0
TEXT
  5
2FF
  8
DIM
 10
260.07150753175671
 20
289.13737394242929
 30
0.0
 40
5.0
  1
(3.42")
 72
     4
 11
272.6905551508043
 21
291.28023108528652
 31
0.0
  0
LINE
  5
300
  8
DRG
 10
143.45218587777359
 20
816.12359592887697
 30
0.0
 11
143.45218587777359
 21
991.12359592887697
 31
0.0
  0
LINE
  5
301
  8
DRG
 10
128.45218587777359
 20
991.12359592887697
 30
0.0
 11
128.45218587777359
 21
816.12359592887697
 31
0.0
  0
LINE
  5
302
  8
DRG
 10
128.45218587777359
 20
816.12359592887697
 30
0.0
 11
143.45218587777359
 21
816.12359592887697
 31
0.0
  0
LINE
  5
303
  8
DRG
 10
186.20218587777359
 20
853.62359592887697
 30
0.0
 11
198.45218587777359
 21
853.62359592887697
 31
0.0
  0
LINE
  5
304
  8
CRS
 10
212.6683097374414
 20
903.62359592887697
 30
0.0
 11
68.63707701528142
 21
903.62359592887697
 31
0.0
  0
LINE
  5
305
  8
DRG
 10
186.20218587777359
 20
853.62359592887697
 30
0.0
 11
186.20218587777589
 21
953.62359592887697
 31
0.0
  0
LINE
  5
306
  8
DRG
 10
128.45218587777359
 20
888.62359592887697
 30
0.0
 11
78.952185877774582
 21
888.62359592887697
 31
0.0
  0
LINE
  5
307
  8
DRG
 10
128.45218587777359
 20
918.62359592887685
 30
0.0
 11
78.952185877774582
 21
918.62359592887685
 31
0.0
  0
LINE
  5
308
  8
DRG
 10
122.4521858777745
 20
921.92359592887681
 30
0.0
 11
82.452185877774582
 21
921.92359592887681
 31
0.0
  0
LINE
  5
309
  8
DRG
 10
77.452185877774582
 20
917.12359592887697
 30
0.0
 11
77.452185877774582
 21
890.12359592887685
 31
0.0
  0
LINE
  5
30A
  8
DRG2
 10
78.952185877774582
 20
918.62359592887685
 30
0.0
 11
78.952185877774582
 21
888.62359592887697
 31
0.0
  0
LINE
  5
30B
  8
DRG
 10
77.452185877774582
 20
890.12359592887685
 30
0.0
 11
78.952185877774582
 21
888.62359592887697
 31
0.0
  0
LINE
  5
30C
  8
DRG
 10
78.952185877774582
 20
918.62359592887685
 30
0.0
 11
77.452185877774582
 21
917.12359592887697
 31
0.0
  0
LINE
  5
30D
  8
DRG
 10
82.452185877774582
 20
921.92359592887681
 30
0.0
 11
82.452185877774582
 21
918.62359592887685
 31
0.0
  0
LINE
  5
30E
  8
HID
 10
133.45218587777359
 20
948.62359592887231
 30
0.0
 11
133.45218587777359
 21
858.62359592887708
 31
0.0
  0
LINE
  5
30F
  8
DRG
 10
149.45218587777359
 20
877.52755244481079
 30
0.0
 11
180.20218587777359
 21
877.52755244481079
 31
0.0
  0
LINE
  5
310
  8
HID
 10
133.45218587777359
 20
861.02359592887694
 30
0.0
 11
133.45218587777359
 21
856.99859592887697
 31
0.0
  0
LINE
  5
311
  8
HID
 10
132.45218587777359
 20
855.99859592887697
 30
0.0
 11
128.45218587777359
 21
855.99859592887697
 31
0.0
  0
ARC
  5
312
  8
HID
 10
132.45218587777359
 20
856.99859592887697
 30
0.0
 40
1.0
 50
270.0
 51
0.0
  0
ARC
  5
313
  8
DRG
 10
149.45218587777359
 20
871.52755244481057
 30
0.0
 40
6.0
 50
90.0
 51
180.0
  0
ARC
  5
314
  8
DRG
 10
180.20218587777359
 20
871.52755244481091
 30
0.0
 40
6.0
 50
0.0
 51
90.000000000000114
  0
LINE
  5
315
  8
DRG
 10
180.20218587777541
 20
929.71963941294302
 30
0.0
 11
149.45218587777359
 21
929.71963941294268
 31
0.0
  0
LINE
  5
316
  8
DRG
 10
122.4521858777745
 20
921.92359592887681
 30
0.0
 11
122.4521858777745
 21
918.62359592887685
 31
0.0
  0
LINE
  5
317
  8
HID
 10
132.45218587777359
 20
951.24859592887685
 30
0.0
 11
128.45218587777359
 21
951.24859592887685
 31
0.0
  0
LINE
  5
318
  8
HID
 10
133.45218587777359
 20
948.62359592887685
 30
0.0
 11
133.45218587777359
 21
950.24859592887685
 31
0.0
  0
ARC
  5
319
  8
HID
 10
132.45218587777359
 20
950.24859592887685
 30
0.0
 40
1.0
 50
0.0
 51
90.0
  0
LINE
  5
31A
  8
DRG
 10
128.45218587777359
 20
991.12359592887697
 30
0.0
 11
143.45218587777359
 21
991.12359592887697
 31
0.0
  0
LINE
  5
31B
  8
HID
 10
128.45218587777359
 20
961.26500459887677
 30
0.0
 11
143.45218587777359
 21
961.26500459887677
 31
0.0
  0
LINE
  5
31C
  8
HID
 10
128.45218587777359
 20
944.76500459887689
 30
0.0
 11
143.45218587777359
 21
944.76500459887689
 31
0.0
  0
LINE
  5
31D
  8
CRS
 10
125.4336545077346
 20
953.01500459887689
 30
0.0
 11
147.26456969605101
 21
953.01500459887689
 31
0.0
  0
ARC
  5
31E
  8
DRG
 10
149.45218587777359
 20
935.71963941294268
 30
0.0
 40
6.0
 50
180.0
 51
270.0
  0
ARC
  5
31F
  8
DRG
 10
180.20218587777541
 20
935.71963941294291
 30
0.0
 40
6.0
 50
270.00000000000011
 51
359.99999999999869
  0
LINE
  5
320
  8
DRG
 10
198.45218587777359
 20
853.40544706847595
 30
0.0
 11
198.45218587777561
 21
961.82359592887656
 31
0.0
  0
LINE
  5
321
  8
DRG
 10
186.20218587777359
 20
953.62359592887697
 30
0.0
 11
198.45218587777359
 21
953.62359592887697
 31
0.0
  0
LINE
  5
322
  8
CRS
 10
125.0209957820018
 20
854.23218725887705
 30
0.0
 11
146.2555289259482
 21
854.23218725887705
 31
0.0
  0
LINE
  5
323
  8
HID
 10
128.45218587777359
 20
845.98218725887705
 30
0.0
 11
143.45218587777359
 21
845.98218725887705
 31
0.0
  0
LINE
  5
324
  8
HID
 10
128.45218587777359
 20
862.48218725887693
 30
0.0
 11
143.45218587777359
 21
862.48218725887693
 31
0.0
  0
LINE
  5
325
  8
DIM
 10
43.868285813743803
 20
816.12359592887697
 30
0.0
 11
43.868285813743803
 21
991.12359592887697
 31
0.0
  0
SOLID
  5
326
  8
DIM
 10
42.868285813743789
 20
822.12359592887685
 30
0.0
 11
44.868285813743789
 21
822.12359592887685
 31
0.0
 12
43.868285813743803
 22
816.12359592887697
 32
0.0
 13
43.868285813743803
 23
816.12359592887697
 33
0.0
  0
TEXT
  5
327
  8
DIM
 10
41.368285813743803
 20
865.88550069078167
 30
0.0
 40
5.0
  1
FOR INPUT OPTIONS
 50
90.0
 72
     4
 11
38.868285813743789
 21
903.62359592887697
 31
0.0
  0
SOLID
  5
328
  8
DIM
 10
42.868285813743789
 20
985.12359592887697
 30
0.0
 11
44.868285813743789
 21
985.12359592887697
 31
0.0
 12
43.868285813743803
 22
991.12359592887697
 32
0.0
 13
43.868285813743803
 23
991.12359592887697
 33
0.0
  0
TEXT
  5
329
  8
DIM
 10
102.37926767471301
 20
964.42359592887692
 30
0.0
 40
5.0
  1
5
 72
     1
 11
104.04593434137971
 21
966.92359592887692
 31
0.0
 73
     2
  0
LINE
  5
32A
  8
DIM
 10
77.452185877774582
 20
961.92359592887692
 30
0.0
 11
64.531201284590452
 21
961.92359592887692
 31
0.0
  0
LINE
  5
32B
  8
DIM
 10
88.452185877774568
 20
961.92359592887692
 30
0.0
 11
116.5890557475862
 21
961.92359592887692
 31
0.0
  0
SOLID
  5
32C
  8
DIM
 10
88.452185877774568
 20
962.92359592887681
 30
0.0
 11
88.452185877774568
 21
960.92359592887692
 31
0.0
 12
82.452185877774582
 22
961.92359592887692
 32
0.0
 13
82.452185877774582
 23
961.92359592887692
 33
0.0
  0
LINE
  5
32D
  8
DIM
 10
82.452185877774582
 20
926.22088923658919
 30
0.0
 11
82.452185877774582
 21
963.92359592887681
 31
0.0
  0
SOLID
  5
32E
  8
DIM
 10
71.452185877774582
 20
962.92359592887681
 30
0.0
 11
71.452185877774582
 21
960.92359592887692
 31
0.0
 12
77.452185877774582
 22
961.92359592887692
 32
0.0
 13
77.452185877774582
 23
961.92359592887692
 33
0.0
  0
LINE
  5
32F
  8
DIM
 10
124.980626224283
 20
991.12359592887697
 30
0.0
 11
41.868285813743789
 21
991.12359592887697
 31
0.0
  0
ARC
  5
331
  8
DRG
 10
146.45218587777359
 20
910.62359592887685
 30
0.0
 40
3.0
 50
180.0
 51
270.0
  0
ARC
  5
332
  8
DRG
 10
146.45218587777359
 20
896.62359592887697
 30
0.0
 40
3.0
 50
90.0
 51
179.99999999999989
  0
LINE
  5
333
  8
DRG
 10
183.20218587777501
 20
907.62359592887685
 30
0.0
 11
146.45218587777359
 21
907.62359592887685
 31
0.0
  0
LINE
  5
334
  8
DRG
 10
183.2021858777745
 20
899.62359592887674
 30
0.0
 11
146.45218587777359
 21
899.62359592887685
 31
0.0
  0
ARC
  5
335
  8
DRG
 10
183.20218587777501
 20
910.62359592887685
 30
0.0
 40
3.0
 50
270.0
 51
359.99999999999869
  0
ARC
  5
336
  8
DRG
 10
183.2021858777745
 20
896.62359592887685
 30
0.0
 40
3.0
 50
359.99999999999869
 51
90.0
  0
LINE
  5
337
  8
DRG
 10
186.20218587777359
 20
853.62359592887697
 30
0.0
 11
144.95218587777359
 21
829.80789732480491
 31
0.0
  0
ARC
  5
338
  8
DRG
 10
146.45218587777359
 20
827.20982111345154
 30
0.0
 40
3.0
 50
119.9999999999999
 51
180.0
  0
LINE
  5
339
  8
DRG
 10
186.20218587777359
 20
953.62359592887697
 30
0.0
 11
144.95218587777359
 21
977.43929453294891
 31
0.0
  0
ARC
  5
33A
  8
DRG
 10
146.45218587777359
 20
980.03737074430228
 30
0.0
 40
3.0
 50
180.0
 51
240.0
  0
TEXT
  5
33B
  8
DIM
 10
51.368285813743803
 20
883.62359592887685
 30
0.0
 40
5.0
  1
SEE TABLE
 50
90.0
 72
     4
 11
48.868285813743803
 21
903.62359592887697
 31
0.0
  0
LINE
  5
33C
  8
DIM
 10
124.32326775322051
 20
816.12359592887697
 30
0.0
 11
41.868285813743789
 21
816.12359592887697
 31
0.0
  0
TEXT
  5
33D
  8
DIM
 10
91.426886722332114
 20
954.7807387860197
 30
0.0
 40
5.0
  1
(0.20")
 72
     4
 11
104.04593434137971
 21
956.92359592887703
 31
0.0
  0
TEXT
  5
33E
  8
DIM
 10
142.05429565016021
 20
768.98073878601986
 30
0.0
 40
5.0
  1
(0.20")
 72
     4
 11
154.67334326920781
 21
771.12359592887685
 31
0.0
  0
LINE
  5
33F
  8
DIM
 10
139.45218587777339
 20
776.12359592887685
 30
0.0
 11
151.50667660254109
 21
776.12359592887685
 31
0.0
  0
LINE
  5
340
  8
DIM
 10
133.45218587777339
 20
851.125399339978
 30
0.0
 11
133.45218587777339
 21
774.12359592887685
 31
0.0
  0
LINE
  5
341
  8
DIM
 10
128.45218587777359
 20
814.12359592887685
 30
0.0
 11
128.45218587777359
 21
774.12359592887685
 31
0.0
  0
SOLID
  5
342
  8
DIM
 10
122.4521858777736
 20
777.12359592887697
 30
0.0
 11
122.4521858777736
 21
775.12359592887685
 31
0.0
 12
128.45218587777359
 22
776.12359592887685
 32
0.0
 13
128.45218587777359
 23
776.12359592887685
 33
0.0
  0
LINE
  5
343
  8
DIM
 10
122.4521858777736
 20
776.12359592887685
 30
0.0
 11
116.4521858777736
 21
776.12359592887685
 31
0.0
  0
SOLID
  5
344
  8
DIM
 10
139.45218587777339
 20
777.12359592887697
 30
0.0
 11
139.45218587777339
 21
775.12359592887685
 31
0.0
 12
133.45218587777339
 22
776.12359592887685
 32
0.0
 13
133.45218587777339
 23
776.12359592887685
 33
0.0
  0
LINE
  5
345
  8
DIM
 10
151.50667660254109
 20
776.12359592887685
 30
0.0
 11
167.80792664397831
 21
776.12359592887685
 31
0.0
  0
TEXT
  5
346
  8
DIM
 10
153.00667660254121
 20
778.62359592887685
 30
0.0
 40
5.0
  1
5
 72
     1
 11
154.67334326920781
 21
781.12359592887697
 31
0.0
 73
     2
  0
LINE
  5
34B
  8
DIM
 10
198.45218587777541
 20
1031.1235959288761
 30
0.0
 11
128.45218587777359
 21
1031.1235959288761
 31
0.0
  0
SOLID
  5
34C
  8
DIM
 10
134.45218587777359
 20
1032.123595928877
 30
0.0
 11
134.45218587777359
 21
1030.123595928877
 31
0.0
 12
128.45218587777359
 22
1031.1235959288761
 32
0.0
 13
128.45218587777359
 23
1031.1235959288761
 33
0.0
  0
LINE
  5
34D
  8
DIM
 10
198.45218587777549
 20
968.29834313117271
 30
0.0
 11
198.45218587777541
 21
1033.0637758110199
 31
0.0
  0
TEXT
  5
34E
  8
DIM
 10
150.8331382587269
 20
1022.550503975756
 30
0.0
 40
5.0
  1
(2.76")
 72
     4
 11
163.4521858777745
 21
1024.6933611186139
 31
0.0
  0
TEXT
  5
34F
  8
DIM
 10
159.40456683015549
 20
1033.623595928877
 30
0.0
 40
5.0
  1
70
 72
     4
 11
163.4521858777745
 21
1036.123595928877
 31
0.0
  0
SOLID
  5
350
  8
DIM
 10
192.45218587777549
 20
1032.123595928877
 30
0.0
 11
192.45218587777549
 21
1030.123595928877
 31
0.0
 12
198.45218587777541
 22
1031.123595928877
 32
0.0
 13
198.45218587777541
 23
1031.123595928877
 33
0.0
  0
TEXT
  5
351
  8
DIM
 10
141.82840616687389
 20
393.43873276351269
 30
0.0
 40
5.0
  1
B.S.P. OR N.P.T.
 50
90.0
 72
     4
 11
139.32840616687389
 21
423.91492323970323
 31
0.0
  0
TEXT
  5
352
  8
TXT
 10
584.40400719441197
 20
198.5919736093191
 30
0.0
 40
5.0
  1
4 HOLES M10x15 (0.59") DEEP
 72
     4
 11
643.33257862298353
 21
200.73483075217629
 31
0.0
  0
TEXT
  5
353
  8
TXT
 10
578.09448338488824
 20
214.5919736093191
 30
0.0
 40
5.0
  1
HOLE DETAILS (45%%d OFF CENTRES)
 72
     4
 11
643.33257862298353
 21
216.73483075217629
 31
0.0
  0
LINE
  5
354
  8
DRG2
 10
418.33257862298342
 20
240.73483075217629
 30
0.0
 11
718.33257862298353
 21
240.73483075217629
 31
0.0
  0
LINE
  5
355
  8
DRG2
 10
418.33257862298342
 20
224.73483075217629
 30
0.0
 11
718.33257862298353
 21
224.73483075217629
 31
0.0
  0
LINE
  5
356
  8
DRG2
 10
418.33257862298342
 20
208.73483075217629
 30
0.0
 11
718.33257862298353
 21
208.73483075217629
 31
0.0
  0
LINE
  5
357
  8
DRG2
 10
418.33257862298342
 20
182.23483075217629
 30
0.0
 11
718.33257862298353
 21
182.23483075217629
 31
0.0
  0
TEXT
  5
358
  8
TXT
 10
530.59448338488812
 20
230.23483075217629
 30
0.0
 40
5.0
  1
BASEPLATE DETAILS
 72
     4
 11
568.33257862298342
 21
232.73483075217629
 31
0.0
  0
TEXT
  5
359
  8
TXT
 10
429.40400719441197
 20
192.98483075217629
 30
0.0
 40
5.0
  1
ISO F10
 72
     4
 11
443.33257862298348
 21
195.48483075217629
 31
0.0
  0
LINE
  5
35A
  8
DRG2
 10
418.33257862298348
 20
155.73483075217629
 30
0.0
 11
418.33257862298342
 21
240.73483075217629
 31
0.0
  0
TEXT
  5
35C
  8
TXT
 10
434.99924528965022
 20
166.48483075217629
 30
0.0
 40
5.0
  1
FA10
 72
     4
 11
443.33257862298348
 21
168.98483075217629
 31
0.0
  0
TEXT
  5
35D
  8
TXT
 10
574.64210243250739
 20
172.0919736093191
 30
0.0
 40
5.0
  1
4 HOLES 3/8"UNCx15 (0.59") DEEP
 72
     4
 11
643.33257862298353
 21
174.23483075217629
 31
0.0
  0
TEXT
  5
35E
  8
TXT
 10
492.38019767060268
 20
171.73483075217629
 30
0.0
 40
5.0
  1
%%c58.70 -0.05
 72
     4
 11
518.33257862298365
 21
174.23483075217629
 31
0.0
  0
TEXT
  5
35F
  8
TXT
 10
496.6659119563169
 20
214.23483075217629
 30
0.0
 40
5.0
  1
SPIGOT DIA.
 72
     4
 11
518.33257862298365
 21
216.73483075217629
 31
0.0
  0
TEXT
  5
360
  8
TXT
 10
492.38019767060268
 20
198.23483075217629
 30
0.0
 40
5.0
  1
%%c69.95 -0.05
 72
     4
 11
518.33257862298365
 21
200.73483075217629
 31
0.0
  0
LINE
  5
361
  8
DRG2
 10
418.33257862298342
 20
155.73483075217629
 30
0.0
 11
718.33257862298353
 21
155.73483075217629
 31
0.0
  0
TEXT
  5
362
  8
TXT
 10
480.11829290869792
 20
188.09197360931921
 30
0.0
 40
5.0
  1
(%%c2.754" -0.002") 
 72
     4
 11
518.33257862298365
 21
190.23483075217629
 31
0.0
  0
TEXT
  5
363
  8
TXT
 10
481.07067386107889
 20
161.5919736093191
 30
0.0
 40
5.0
  1
(%%c2.311" -0.002") 
 72
     4
 11
518.33257862298365
 21
163.73483075217629
 31
0.0
  0
TEXT
  5
364
  8
TXT
 10
597.14210243250727
 20
161.5919736093191
 30
0.0
 40
5.0
  1
ON %%c101.6 (%%c4.00") P.C.
 72
     4
 11
643.33257862298353
 21
163.73483075217629
 31
0.0
  0
TEXT
  5
365
  8
TXT
 10
596.6659119563169
 20
188.09197360931921
 30
0.0
 40
5.0
  1
ON %%c102.0 (%%c4.02") P.C.
 72
     4
 11
643.33257862298353
 21
190.23483075217629
 31
0.0
  0
LINE
  5
366
  8
DRG2
 10
468.33257862298348
 20
155.73483075217629
 30
0.0
 11
468.33257862298348
 21
224.73483075217629
 31
0.0
  0
LINE
  5
367
  8
DRG2
 10
568.33257862298365
 20
155.73483075217641
 30
0.0
 11
568.33257862298365
 21
224.73483075217629
 31
0.0
  0
LINE
  5
368
  8
DRG2
 10
718.33257862298353
 20
155.73483075217661
 30
0.0
 11
718.33257862298353
 21
240.73483075217661
 31
0.0
  0
TEXT
  5
369
  8
DIM
 10
363.7566627411469
 20
335.05092046577079
 30
0.0
 40
5.0
  1
SPIGOT DIA.
 50
90.0
 72
     4
 11
361.25666274114701
 21
356.71758713243747
 31
0.0
  0
LINE
  5
36A
  8
DIM
 10
356.25666274114701
 20
325.79138724635101
 30
0.0
 11
356.25666274114701
 21
453.26492323970331
 31
0.0
  0
TEXT
  5
36B
  8
TXT
 10
306.54761904761892
 20
931.13673221769454
 30
0.0
 40
5.0
  1
x 10 (0.39")
 72
     4
 11
329.99999999999977
 21
933.27958936055165
 31
0.0
  0
LINE
  5
36C
  8
DRG2
 10
239.99999999999989
 20
994.27958936055165
 30
0.0
 11
759.99999999999977
 21
994.279589360552
 31
0.0
  0
LINE
  5
36D
  8
DRG2
 10
239.99999999999989
 20
978.27958936055165
 30
0.0
 11
759.99999999999977
 21
978.27958936055222
 31
0.0
  0
LINE
  5
36E
  8
DRG2
 10
239.99999999999989
 20
951.77958936055165
 30
0.0
 11
759.99999999999977
 21
951.77958936055211
 31
0.0
  0
TEXT
  5
36F
  8
TXT
 10
418.80952380952363
 20
983.77958936055165
 30
0.0
 40
5.0
  1
INPUT FLANGE DETAILS
 72
     4
 11
462.49999999999977
 21
986.27958936055165
 31
0.0
  0
LINE
  5
370
  8
DRG2
 10
239.99999999999989
 20
898.77958936055177
 30
0.0
 11
759.99999999999977
 21
898.779589360552
 31
0.0
  0
LINE
  5
371
  8
DRG2
 10
239.99999999999989
 20
925.27958936055165
 30
0.0
 11
759.99999999999977
 21
925.27958936055211
 31
0.0
  0
LINE
  5
372
  8
DRG2
 10
289.99999999999977
 20
845.77958936055165
 30
0.0
 11
289.99999999999977
 21
978.27958936055165
 31
0.0
  0
LINE
  5
373
  8
DRG2
 10
239.99999999999989
 20
845.77958936055165
 30
0.0
 11
239.99999999999989
 21
994.27958936055165
 31
0.0
  0
TEXT
  5
374
  8
TXT
 10
251.07142857142841
 20
936.02958936055165
 30
0.0
 40
5.0
  1
ISO F10
 72
     4
 11
264.99999999999989
 21
938.52958936055154
 31
0.0
  0
TEXT
  5
375
  8
TXT
 10
256.66666666666652
 20
909.52958936055165
 30
0.0
 40
5.0
  1
FA10
 72
     4
 11
264.99999999999989
 21
912.02958936055165
 31
0.0
  0
TEXT
  5
376
  8
TXT
 10
303.92857142857127
 20
941.63673221769454
 30
0.0
 40
5.0
  1
%%c125 (%%c4.92")
 72
     4
 11
329.99999999999977
 21
943.77958936055165
 31
0.0
  0
TEXT
  5
377
  8
TXT
 10
304.99999999999977
 20
957.27958936055154
 30
0.0
 40
5.0
  1
& THICKNESS
 72
     4
 11
329.99999999999977
 21
959.77958936055165
 31
0.0
  0
LINE
  5
378
  8
DRG2
 10
459.99999999999977
 20
845.77958936055188
 30
0.0
 11
459.99999999999977
 21
978.27958936055222
 31
0.0
  0
LINE
  5
379
  8
DRG2
 10
370.0
 20
845.77958936055188
 30
0.0
 11
369.99999999999977
 21
978.27958936055165
 31
0.0
  0
TEXT
  5
37A
  8
TXT
 10
389.04761904761892
 20
941.27958936055165
 30
0.0
 40
5.0
  1
%%c20.00 -0.05
 72
     4
 11
414.99999999999977
 21
943.77958936055165
 31
0.0
  0
TEXT
  5
37B
  8
TXT
 10
408.69047619047609
 20
957.27958936055154
 30
0.0
 40
5.0
  1
DIA.
 72
     4
 11
414.99999999999977
 21
959.77958936055165
 31
0.0
  0
TEXT
  5
37C
  8
TXT
 10
702.142857142857
 20
941.27958936055165
 30
0.0
 40
5.0
  1
6x6x40
 72
     4
 11
714.99999999999977
 21
943.77958936055165
 31
0.0
  0
TEXT
  5
37D
  8
TXT
 10
678.57142857142844
 20
931.13673221769454
 30
0.0
 40
5.0
  1
(0.24"x0.24"x1.57")
 72
     4
 11
714.99999999999977
 21
933.27958936055165
 31
0.0
  0
LINE
  5
37E
  8
DRG2
 10
550.00000000000023
 20
845.77958936055188
 30
0.0
 11
549.99999999999977
 21
978.27958936055165
 31
0.0
  0
TEXT
  5
37F
  8
TXT
 10
573.69047619047615
 20
957.63673221769454
 30
0.0
 40
5.0
  1
(45%%d OFF CENTRES)
 72
     4
 11
610.00000000000011
 21
959.77958936055165
 31
0.0
  0
TEXT
  5
380
  8
TXT
 10
564.40476190476204
 20
941.63673221769454
 30
0.0
 40
5.0
  1
4 HOLES %%c10.5 (%%c0.41")
 72
     4
 11
610.00000000000011
 21
943.77958936055165
 31
0.0
  0
TEXT
  5
381
  8
TXT
 10
563.33333333333337
 20
931.13673221769454
 30
0.0
 40
5.0
  1
ON %%c102.0 (%%c4.02") P.C.
 72
     4
 11
610.00000000000011
 21
933.27958936055165
 31
0.0
  0
LINE
  5
382
  8
DRG2
 10
670.00000000000011
 20
845.77958936055188
 30
0.0
 11
670.00000000000011
 21
978.27958936055165
 31
0.0
  0
TEXT
  5
383
  8
TXT
 10
695.83333333333326
 20
957.27958936055154
 30
0.0
 40
5.0
  1
DETAILS
 72
     4
 11
709.99999999999977
 21
959.77958936055165
 31
0.0
  0
LINE
  5
384
  8
DRG2
 10
760.0
 20
845.77958936055188
 30
0.0
 11
759.99999999999977
 21
994.279589360552
 31
0.0
  0
TEXT
  5
385
  8
TXT
 10
498.69047619047598
 20
957.27958936055154
 30
0.0
 40
5.0
  1
DIA.
 72
     4
 11
504.99999999999977
 21
959.77958936055165
 31
0.0
  0
TEXT
  5
386
  8
TXT
 10
703.33333333333314
 20
967.77958936055165
 30
0.0
 40
5.0
  1
KEY
 72
     4
 11
709.99999999999977
 21
970.27958936055165
 31
0.0
  0
TEXT
  5
387
  8
TXT
 10
584.04761904761915
 20
967.77958936055165
 30
0.0
 40
5.0
  1
HOLE DETAILS
 72
     4
 11
610.00000000000011
 21
970.27958936055165
 31
0.0
  0
TEXT
  5
388
  8
TXT
 10
491.42857142857122
 20
967.77958936055165
 30
0.0
 40
5.0
  1
RECESS
 72
     4
 11
504.99999999999977
 21
970.27958936055165
 31
0.0
  0
TEXT
  5
389
  8
TXT
 10
403.57142857142838
 20
967.77958936055165
 30
0.0
 40
5.0
  1
SHAFT
 72
     4
 11
414.99999999999977
 21
970.27958936055165
 31
0.0
  0
TEXT
  5
38A
  8
TXT
 10
302.0238095238094
 20
968.13673221769454
 30
0.0
 40
5.0
  1
FLANGE O/DIA.
 72
     4
 11
329.99999999999977
 21
970.27958936055165
 31
0.0
  0
TEXT
  5
38B
  8
TXT
 10
303.92857142857127
 20
915.13673221769454
 30
0.0
 40
5.0
  1
%%c125 (%%c4.92")
 72
     4
 11
329.99999999999977
 21
917.27958936055165
 31
0.0
  0
TEXT
  5
38C
  8
TXT
 10
306.54761904761892
 20
904.63673221769454
 30
0.0
 40
5.0
  1
x 10 (0.39")
 72
     4
 11
329.99999999999977
 21
906.77958936055165
 31
0.0
  0
TEXT
  5
38D
  8
TXT
 10
389.04761904761892
 20
914.77958936055165
 30
0.0
 40
5.0
  1
%%c20.00 -0.05
 72
     4
 11
414.99999999999977
 21
917.27958936055165
 31
0.0
  0
TEXT
  5
38E
  8
TXT
 10
466.78571428571399
 20
931.13673221769454
 30
0.0
 40
5.0
  1
(%%c2.758" +0.002") 
 72
     4
 11
504.99999999999977
 21
933.27958936055165
 31
0.0
  0
TEXT
  5
38F
  8
TXT
 10
479.04761904761881
 20
941.27958936055165
 30
0.0
 40
5.0
  1
%%c70.05 +0.05
 72
     4
 11
504.99999999999977
 21
943.77958936055165
 31
0.0
  0
TEXT
  5
390
  8
TXT
 10
467.26190476190447
 20
904.63673221769454
 30
0.0
 40
5.0
  1
(%%c2.313" +0.002") 
 72
     4
 11
504.99999999999977
 21
906.77958936055165
 31
0.0
  0
TEXT
  5
391
  8
TXT
 10
479.04761904761881
 20
914.77958936055165
 30
0.0
 40
5.0
  1
%%c58.75 +0.05
 72
     4
 11
504.99999999999977
 21
917.27958936055165
 31
0.0
  0
TEXT
  5
392
  8
TXT
 10
564.40476190476204
 20
915.13673221769454
 30
0.0
 40
5.0
  1
4 HOLES %%c10.5 (%%c0.41")
 72
     4
 11
610.00000000000011
 21
917.27958936055165
 31
0.0
  0
TEXT
  5
393
  8
TXT
 10
563.33333333333337
 20
904.63673221769454
 30
0.0
 40
5.0
  1
ON %%c102.0 (%%c4.02") P.C.
 72
     4
 11
610.00000000000011
 21
906.77958936055165
 31
0.0
  0
TEXT
  5
394
  8
TXT
 10
678.57142857142844
 20
904.63673221769454
 30
0.0
 40
5.0
  1
(0.24"x0.24"x1.57")
 72
     4
 11
714.99999999999977
 21
906.77958936055165
 31
0.0
  0
TEXT
  5
395
  8
TXT
 10
702.142857142857
 20
914.77958936055165
 30
0.0
 40
5.0
  1
6x6x40
 72
     4
 11
714.99999999999977
 21
917.27958936055165
 31
0.0
  0
TEXT
  5
396
  8
TXT
 10
379.88095238095218
 20
931.13673221769454
 30
0.0
 40
5.0
  1
(%%c0.787" -0.002")
 72
     4
 11
414.99999999999977
 21
933.27958936055165
 31
0.0
  0
TEXT
  5
397
  8
TXT
 10
379.88095238095218
 20
904.63673221769454
 30
0.0
 40
5.0
  1
(%%c0.787" -0.002")
 72
     4
 11
414.99999999999977
 21
906.77958936055165
 31
0.0
  0
TEXT
  5
398
  8
TXT
 10
479.04761904761881
 20
861.77958936055165
 30
0.0
 40
5.0
  1
%%c95.27 +0.05
 72
     4
 11
504.99999999999977
 21
864.27958936055177
 31
0.0
  0
TEXT
  5
399
  8
TXT
 10
477.14285714285688
 20
888.27958936055177
 30
0.0
 40
5.0
  1
%%c100.05 +0.05
 72
     4
 11
504.99999999999977
 21
890.77958936055177
 31
0.0
  0
LINE
  5
39A
  8
DRG2
 10
239.99999999999989
 20
845.77958936055165
 30
0.0
 11
759.99999999999977
 21
845.77958936055188
 31
0.0
  0
LINE
  5
39B
  8
DRG2
 10
239.99999999999989
 20
898.77958936055177
 30
0.0
 11
759.99999999999977
 21
898.779589360552
 31
0.0
  0
LINE
  5
39C
  8
DRG2
 10
239.99999999999989
 20
872.27958936055177
 30
0.0
 11
759.99999999999977
 21
872.27958936055188
 31
0.0
  0
TEXT
  5
39D
  8
TXT
 10
467.26190476190447
 20
851.63673221769466
 30
0.0
 40
5.0
  1
(%%c3.751" +0.002") 
 72
     4
 11
504.99999999999977
 21
853.77958936055165
 31
0.0
  0
TEXT
  5
39E
  8
TXT
 10
466.78571428571399
 20
878.13673221769454
 30
0.0
 40
5.0
  1
(%%c3.939" +0.002") 
 72
     4
 11
504.99999999999977
 21
880.27958936055177
 31
0.0
  0
TEXT
  5
39F
  8
TXT
 10
256.54761904761892
 20
856.52958936055165
 30
0.0
 40
5.0
  1
FA14
 72
     4
 11
264.99999999999989
 21
859.02958936055165
 31
0.0
  0
TEXT
  5
3A0
  8
TXT
 10
250.95238095238079
 20
883.02958936055177
 30
0.0
 40
5.0
  1
ISO F14
 72
     4
 11
264.99999999999989
 21
885.52958936055177
 31
0.0
  0
TEXT
  5
3A1
  8
TXT
 10
381.30952380952363
 20
878.13673221769454
 30
0.0
 40
5.0
  1
(%%c1.181" -0.002")
 72
     4
 11
414.99999999999977
 21
880.27958936055177
 31
0.0
  0
TEXT
  5
3A2
  8
TXT
 10
381.30952380952363
 20
851.63673221769466
 30
0.0
 40
5.0
  1
(%%c1.181" -0.002")
 72
     4
 11
414.99999999999977
 21
853.77958936055165
 31
0.0
  0
TEXT
  5
3A3
  8
TXT
 10
389.04761904761892
 20
888.27958936055177
 30
0.0
 40
5.0
  1
%%c30.00 -0.05
 72
     4
 11
414.99999999999977
 21
890.77958936055177
 31
0.0
  0
TEXT
  5
3A4
  8
TXT
 10
389.04761904761892
 20
861.77958936055165
 30
0.0
 40
5.0
  1
%%c30.00 -0.05
 72
     4
 11
414.99999999999977
 21
864.27958936055177
 31
0.0
  0
TEXT
  5
3A5
  8
TXT
 10
303.92857142857127
 20
862.13673221769466
 30
0.0
 40
5.0
  1
%%c175 (%%c6.89")
 72
     4
 11
329.99999999999977
 21
864.27958936055177
 31
0.0
  0
TEXT
  5
3A6
  8
TXT
 10
306.54761904761892
 20
851.63673221769466
 30
0.0
 40
5.0
  1
x 15 (0.59")
 72
     4
 11
329.99999999999977
 21
853.77958936055165
 31
0.0
  0
TEXT
  5
3A7
  8
TXT
 10
306.54761904761892
 20
878.13673221769454
 30
0.0
 40
5.0
  1
x 15 (0.59")
 72
     4
 11
329.99999999999977
 21
880.27958936055177
 31
0.0
  0
TEXT
  5
3A8
  8
TXT
 10
303.92857142857127
 20
888.63673221769454
 30
0.0
 40
5.0
  1
%%c175 (%%c6.89")
 72
     4
 11
329.99999999999977
 21
890.77958936055177
 31
0.0
  0
TEXT
  5
3A9
  8
TXT
 10
679.04761904761892
 20
851.63673221769466
 30
0.0
 40
5.0
  1
(0.31"x0.28"x1.57")
 72
     4
 11
714.99999999999977
 21
853.77958936055165
 31
0.0
  0
TEXT
  5
3AA
  8
TXT
 10
679.04761904761892
 20
878.13673221769454
 30
0.0
 40
5.0
  1
(0.31"x0.28"x1.57")
 72
     4
 11
714.99999999999977
 21
880.27958936055177
 31
0.0
  0
TEXT
  5
3AB
  8
TXT
 10
702.142857142857
 20
861.77958936055165
 30
0.0
 40
5.0
  1
8x7x40
 72
     4
 11
714.99999999999977
 21
864.27958936055177
 31
0.0
  0
TEXT
  5
3AC
  8
TXT
 10
702.142857142857
 20
888.27958936055177
 30
0.0
 40
5.0
  1
8x7x40
 72
     4
 11
714.99999999999977
 21
890.77958936055177
 31
0.0
  0
TEXT
  5
3AD
  8
TXT
 10
563.80952380952385
 20
851.63673221769466
 30
0.0
 40
5.0
  1
ON %%c140.0 (%%c5.51") P.C.
 72
     4
 11
610.00000000000011
 21
853.77958936055165
 31
0.0
  0
TEXT
  5
3AE
  8
TXT
 10
563.80952380952385
 20
878.13673221769454
 30
0.0
 40
5.0
  1
ON %%c140.0 (%%c5.51") P.C.
 72
     4
 11
610.00000000000011
 21
880.27958936055177
 31
0.0
  0
TEXT
  5
3AF
  8
TXT
 10
563.92857142857156
 20
862.13673221769466
 30
0.0
 40
5.0
  1
4 HOLES %%c16.5 (%%c0.65")
 72
     4
 11
610.00000000000011
 21
864.27958936055177
 31
0.0
  0
TEXT
  5
3B0
  8
TXT
 10
563.92857142857156
 20
888.63673221769454
 30
0.0
 40
5.0
  1
4 HOLES %%c16.5 (%%c0.65")
 72
     4
 11
610.00000000000011
 21
890.77958936055177
 31
0.0
  0
LINE
  5
3B1
  8
DIM
 10
128.45218587777359
 20
996.12359592887685
 30
0.0
 11
128.45218587777359
 21
1033.123595928877
 31
0.0
  0
LINE
  5
3B2
  8
DIM
 10
77.452185877774582
 20
922.12359592887685
 30
0.0
 11
77.452185877774582
 21
988.23076566111888
 31
0.0
  0
LINE
  5
3B3
  8
DIM
 10
122.4521858777736
 20
1031.1235959288761
 30
0.0
 11
83.452185877774568
 21
1031.1235959288761
 31
0.0
  0
SOLID
  5
3B4
  8
DIM
 10
122.4521858777736
 20
1032.123595928877
 30
0.0
 11
122.4521858777736
 21
1030.123595928877
 31
0.0
 12
128.45218587777359
 22
1031.1235959288761
 32
0.0
 13
128.45218587777359
 23
1031.1235959288761
 33
0.0
  0
SOLID
  5
3B5
  8
DIM
 10
83.452185877774568
 20
1032.123595928877
 30
0.0
 11
83.452185877774568
 21
1030.123595928877
 31
0.0
 12
77.452185877774582
 22
1031.1235959288761
 32
0.0
 13
77.452185877774582
 23
1031.1235959288761
 33
0.0
  0
TEXT
  5
3B6
  8
DIM
 10
99.975995401583646
 20
1033.623595928877
 30
0.0
 40
5.0
  1
51
 72
     1
 11
102.9521858777741
 21
1036.123595928877
 31
0.0
 73
     2
  0
TEXT
  5
3B7
  8
DIM
 10
90.809328734916988
 20
1023.9807387860189
 30
0.0
 40
5.0
  1
(2.01")
 72
     4
 11
102.9521858777741
 21
1026.123595928877
 31
0.0
  0
LINE
  5
3B8
  8
DIM
 10
77.452185877774582
 20
992.88254725621539
 30
0.0
 11
77.452185877774582
 21
1033.123595928877
 31
0.0
  0
LINE
  5
5E6
  8
DRG
 10
229.21555515080431
 20
483.91492323970328
 30
0.0
 11
229.21555515080431
 21
459.53492323970318
 31
0.0
  0
LINE
  5
5ED
  8
DRG
 10
229.21555515080431
 20
459.53492323970318
 30
0.0
 11
229.21555515080431
 21
363.91492323970323
 31
0.0
  0
ARC
  5
5EF
  8
DRG
 10
289.21555515080428
 20
341.91492323970323
 30
0.0
 40
4.0
 50
180.0
 51
270.0
  0
LINE
  5
5F0
  8
DRG
 10
289.21555515080428
 20
337.91492323970323
 30
0.0
 11
305.21555515080428
 21
337.91492323970323
 31
0.0
  0
LINE
  5
5F1
  8
DRG
 10
280.21555515080428
 20
349.940672634306
 30
0.0
 11
257.21555515080399
 21
349.940672634306
 31
0.0
  0
ARC
  5
5F3
  8
DRG
 10
244.21555515080411
 20
358.91492323970323
 30
0.0
 40
5.0
 50
0.0
 51
90.0
  0
ARC
  5
5F4
  8
DRG
 10
257.21555515080399
 20
357.940672634306
 30
0.0
 40
8.0
 50
180.0
 51
270.0
  0
LINE
  5
5F5
  8
DRG
 10
249.21555515080399
 20
358.91492323970328
 30
0.0
 11
249.21555515080399
 21
357.940672634306
 31
0.0
  0
LINE
  5
5F6
  8
DRG
 10
229.21555515080431
 20
363.91492323970323
 30
0.0
 11
244.21555515080411
 21
363.91492323970323
 31
0.0
  0
LINE
  5
5FA
  8
DRG
 10
285.21555515080428
 20
341.91492323970323
 30
0.0
 11
285.21555515080428
 21
425.59562364066409
 31
0.0
  0
ARC
  5
5FB
  8
DRG
 10
280.21555515080428
 20
344.940672634306
 30
0.0
 40
5.0
 50
0.0
 51
90.0
  0
LINE
  5
641
  8
DRG
 10
325.21555515080411
 20
605.61492323970413
 30
0.0
 11
325.21555515080428
 21
547.61492323970435
 31
0.0
  0
LINE
  5
648
  8
DRG
 10
229.21555515080411
 20
634.6149232397031
 30
0.0
 11
229.21555515080411
 21
526.19677437930204
 31
0.0
  0
ARC
  5
64C
  8
DRG
 10
313.21555515080428
 20
547.61492323970435
 30
0.0
 40
12.0
 50
270.0
 51
0.0
  0
LINE
  5
64D
  8
DRG
 10
241.21555515080411
 20
487.91492323970328
 30
0.0
 11
241.21555515080411
 21
522.39677437930209
 31
0.0
  0
LINE
  5
64F
  8
DRG
 10
229.21555515080431
 20
483.91492323970328
 30
0.0
 11
237.21555515080411
 21
483.91492323970328
 31
0.0
  0
ARC
  5
650
  8
DRG
 10
237.21555515080411
 20
487.91492323970328
 30
0.0
 40
4.0
 50
270.0
 51
0.0
  0
LINE
  5
656
  8
DRG
 10
229.21555515080411
 20
526.39677437930209
 30
0.0
 11
237.21555515080411
 21
526.39677437930209
 31
0.0
  0
ARC
  5
658
  8
DRG
 10
237.21555515080411
 20
522.39677437930209
 30
0.0
 40
4.0
 50
0.0
 51
90.0
  0
ARC
  5
661
  8
DRG
 10
304.21555515080593
 20
532.50750631256915
 30
0.0
 40
3.0
 50
180.0
 51
270.0
  0
LINE
  5
662
  8
DRG
 10
305.2155551508061
 20
525.73977703545631
 30
0.0
 11
305.21555515080399
 21
525.73977703545631
 31
0.0
  0
ARC
  5
663
  8
DRG
 10
304.21555515080593
 20
532.61492323970435
 30
0.0
 40
3.0
 50
90.0
 51
180.0
  0
LINE
  5
664
  8
DRG
 10
301.21555515080593
 20
532.61492323970435
 30
0.0
 11
301.21555515080593
 21
532.50750631256903
 31
0.0
  0
LINE
  5
665
  8
DRG
 10
304.21555515080593
 20
529.50750631256915
 30
0.0
 11
305.21555515080428
 21
529.50750631256915
 31
0.0
  0
LINE
  5
666
  8
DRG
 10
304.21555515080593
 20
535.61492323970435
 30
0.0
 11
313.21555515080382
 21
535.61492323970435
 31
0.0
  0
ARC
  5
66F
  8
DRG
 10
313.21555515080428
 20
605.61492323970413
 30
0.0
 40
12.0
 50
0.0
 51
90.0
  0
LINE
  5
683
  8
DRG
 10
232.21555515080399
 20
626.41492323970408
 30
0.0
 11
253.71555515080411
 21
626.41492323970408
 31
0.0
  0
ARC
  5
684
  8
DRG
 10
253.71555515080411
 20
621.91492323970408
 30
0.0
 40
4.5
 50
0.0
 51
90.0
  0
ARC
  5
688
  8
DRG
 10
295.21555515080411
 20
628.61492323970276
 30
0.0
 40
6.0
 50
0.0
 51
90.0
  0
ARC
  5
68B
  8
DRG
 10
307.21555515080428
 20
623.61492323970413
 30
0.0
 40
6.0
 50
180.0
 51
270.0
  0
LINE
  5
68E
  8
DRG
 10
307.21555515080428
 20
617.61492323970413
 30
0.0
 11
313.21555515080428
 21
617.61492323970413
 31
0.0
  0
LINE
  5
68F
  8
DRG
 10
301.21555515080399
 20
628.61492323970276
 30
0.0
 11
301.21555515080843
 21
532.61492323970435
 31
0.0
  0
LINE
  5
691
  8
DRG
 10
229.21555515080411
 20
634.61492323970299
 30
0.0
 11
295.21555515080411
 21
634.61492323970299
 31
0.0
  0
ARC
  5
6A4
  8
DRG
 10
603.74198703388413
 20
576.41492323970408
 30
0.0
 40
57.99999999999897
 50
304.22886632781172
 51
235.7711336721882
  0
CIRCLE
  5
6A7
  8
DRG
 10
603.74198703388413
 20
576.41492323970408
 30
0.0
 40
41.0
  0
LINE
  5
6AD
  8
DRG
 10
573.74198703388413
 20
507.04558986370358
 30
0.0
 11
573.74198703388413
 21
523.49989701841355
 31
0.0
  0
LINE
  5
6AE
  8
DRG
 10
633.74198703388413
 20
507.04558986370358
 30
0.0
 11
633.74198703388379
 21
523.49989701841332
 31
0.0
  0
ARC
  5
6CB
  8
DRG
 10
603.74198703388413
 20
423.714923239705
 30
0.0
 40
106.34999999999999
 50
73.395533819548987
 51
106.604466180451
  0
ARC
  5
6D0
  8
DRG
 10
567.74198703388436
 20
523.49989701841355
 30
0.0
 40
6.0
 50
0.0
 51
55.771133672188213
  0
ARC
  5
6DD
  8
DRG
 10
639.74198703388413
 20
523.49989701841344
 30
0.0
 40
6.0
 50
124.2288663278117
 51
180.0
  0
LINE
  5
D3A
  8
DRG
 10
249.21555515080399
 20
358.91492323970323
 30
0.0
 11
249.21555515080411
 21
558.78622545070903
 31
0.0
  0
LINE
  5
D3B
  8
DRG
 10
258.21555515080411
 20
621.91492323970408
 30
0.0
 11
258.21555515080411
 21
608.80880015310004
 31
0.0
  0
LINE
  5
D3D
  8
DRG
 10
305.21555515080422
 20
509.91492323970323
 30
0.0
 11
313.21555515080428
 21
509.91492323970328
 31
0.0
  0
LINE
  5
D45
  8
DRG
 10
221.1905551508043
 20
626.41492323970408
 30
0.0
 11
229.21555515080411
 21
626.41492323970408
 31
0.0
  0
LINE
  5
D46
  8
DRG
 10
221.1905551508043
 20
526.19677437930204
 30
0.0
 11
229.21555515080411
 21
526.19677437930204
 31
0.0
  0
POLYLINE
  8
0
  5
178A
  66
     1
 10
0.000000
 20
0.000000
 30
0.000000
  70
     8
  0
VERTEX
  8
0
  5
178B
 10
211.191
 20
536.476
 30
0.000000
  70
    32
  0
VERTEX
  8
0
  5
178C
 10
195.135
 20
520.825
 30
0.000000
  70
    32
  0
VERTEX
  8
0
  5
178D
 10
188.380
 20
520.825
 30
0.000000
  70
    32
  0
SEQEND
  8
0
  5
178E
  0
POLYLINE
  8
0
  5
178F
  66
     1
 10
0.000000
 20
0.000000
 30
0.000000
  70
     8
  0
VERTEX
  8
0
  5
1790
 10
115.727
 20
594.415
 30
0.000000
  70
    32
  0
VERTEX
  8
0
  5
1791
 10
134.659
 20
636.805
 30
0.000000
  70
    32
  0
VERTEX
  8
0
  5
1792
 10
140.607
 20
636.805
 30
0.000000
  70
    32
  0
SEQEND
  8
0
  5
1793
  0
LINE
  5
D8F
  8
DRG
 10
633.13586394727997
 20
626.41492323970431
 30
0.0
 11
643.74198703388436
 21
626.41492323970408
 31
0.0
  0
LINE
  5
D91
  8
DRG
 10
553.74198703388436
 20
605.80880015310095
 30
0.0
 11
553.74198703388436
 21
616.41492323970419
 31
0.0
  0
DIMENSION
  5
E01
  8
DIM
  2
*D0
 10
313.21555515080428
 20
549.33297790547965
 30
0.0
 11
342.41015114245232
 21
549.33297790547965
 31
0.0
 70
   128
 13
325.21555515080428
 23
547.61492323970435
 33
0.0
 14
313.21555515080428
 24
509.91492323970328
 34
0.0
  0
DIMENSION
  5
E0F
  8
DIM
  2
*D1
 10
321.21475515080448
 20
523.45355541943979
 30
0.0
 11
338.50272581013257
 21
523.45355541943979
 31
0.0
 70
   128
 13
313.21555515080428
 23
509.91492323970328
 33
0.0
 14
321.21475515080448
 24
498.706088178051
 34
0.0
  0
TEXT
  5
E48
  8
BORT
 10
51.999999999999979
 20
143.8330754159503
 30
0.0
 40
5.0
  1
CN1413   D.S.   23.10.02
 72
     4
 11
102.0
 21
146.3330754159503
 31
0.0
  0
TEXT
  5
E49
  8
BORT
 10
23.404761904761902
 20
143.8330754159503
 30
0.0
 40
5.0
  1
1
 72
     4
 11
24.0
 21
146.3330754159503
 31
0.0
  0
POLYLINE
  5
E4A
  8
BORT
 66
     1
 10
0.0
 20
0.0
 30
0.0
 39
1.8
  0
VERTEX
  5
1519
  8
BORT
 10
166.0
 20
153.3330754159503
 30
0.0
  0
VERTEX
  5
151A
  8
BORT
 10
10.0
 20
153.3330754159503
 30
0.0
  0
SEQEND
  5
151B
  8
BORT
  0
ARC
  5
E4C
  8
DRG
 10
206.45218587777461
 20
849.60544706847588
 30
0.0
 40
4.0
 50
0.0
 51
90.0
  0
LINE
  5
E4D
  8
DRG
 10
198.45218587777461
 20
853.60544706847577
 30
0.0
 11
206.45218587777461
 21
853.60544706847577
 31
0.0
  0
LINE
  5
E4E
  8
DRG
 10
210.45218587777461
 20
815.12359592887685
 30
0.0
 11
210.45218587777461
 21
849.60544706847588
 31
0.0
  0
POLYLINE
  8
0
  5
1794
  66
     1
 10
0.000000
 20
0.000000
 30
0.000000
  70
     8
  0
VERTEX
  8
0
  5
1795
 10
316.166
 20
476.446
 30
0.000000
  70
    32
  0
VERTEX
  8
0
  5
1796
 10
348.531
 20
498.577
 30
0.000000
  70
    32
  0
VERTEX
  8
0
  5
1797
 10
357.404
 20
498.577
 30
0.000000
  70
    32
  0
SEQEND
  8
0
  5
1798
  0
LINE
  5
113E
  8
DRG2
  6
PHANTOM
 10
431.21555515080382
 20
561.61492323970344
 30
0.0
 11
325.21555515080422
 21
561.61492323970356
 31
0.0
  0
LINE
  5
113F
  8
DRG2
  6
PHANTOM
 10
431.21555515080382
 20
591.61492323970344
 30
0.0
 11
325.21555515080411
 21
591.61492323970356
 31
0.0
  0
LINE
  5
11DF
  8
DRG2
  6
PHANTOM
 10
431.21555515080382
 20
591.61492323970344
 30
0.0
 11
431.21555515080382
 21
561.61492323970344
 31
0.0
  0
LINE
  5
11E0
  8
DRG2
  6
PHANTOM
 10
432.71555515080382
 20
590.11492323970356
 30
0.0
 11
432.71555515080382
 21
563.11492323970344
 31
0.0
  0
LINE
  5
11E1
  8
DRG2
  6
PHANTOM
 10
431.21555515080382
 20
561.61492323970344
 30
0.0
 11
432.71555515080382
 21
563.11492323970344
 31
0.0
  0
LINE
  5
11E3
  8
DRG2
  6
PHANTOM
 10
431.21555515080382
 20
591.61492323970344
 30
0.0
 11
432.71555515080382
 21
590.11492323970356
 31
0.0
  0
DIMENSION
  5
11F7
  8
DIM
  2
*D2
 10
432.71555515080382
 20
721.03795728186185
 30
0.0
 11
378.96555515080411
 21
726.88295728186199
 31
0.0
 70
     0
 13
325.21555515080428
 23
605.61492323970413
 33
0.0
 14
432.71555515080382
 24
590.11492323970356
 34
0.0
  0
TEXT
  5
1235
  8
DIM
 10
366.94505004979209
 20
712.67212212953575
 30
0.0
 40
5.0
  1
(4.25")
 72
     4
 11
379.56409766883968
 21
714.81497927239297
 31
0.0
  0
LINE
  5
1236
  8
DRG2
  6
PHANTOM
 10
387.21555515080382
 20
594.41492323970317
 30
0.0
 11
427.71055202189149
 21
594.4149232397034
 31
0.0
  0
LINE
  5
1237
  8
DRG2
  6
PHANTOM
 10
427.71055202189137
 20
591.61492323970344
 30
0.0
 11
427.71055202189137
 21
594.41492323970317
 31
0.0
  0
LINE
  5
1238
  8
DRG2
  6
PHANTOM
 10
387.21555515080382
 20
591.61492323970344
 30
0.0
 11
387.21555515080382
 21
594.41492323970317
 31
0.0
  0
TEXT
  5
1246
  8
DIM
 10
359.23857616561838
 20
702.84186475648573
 30
0.0
 40
5.0
  1
DOWNWARD 
  0
TEXT
  5
1247
  8
DIM
 10
346.10793537130189
 20
694.59060484244651
 30
0.0
 40
5.0
  1
FACING SHAFT IS
  0
ARC
  5
124B
  8
DRG
 10
232.21555515080399
 20
629.41492323970419
 30
0.0
 40
3.0
 50
180.0
 51
269.99999999999972
  0
ARC
  5
124D
  8
DRG
 10
261.21555515080411
 20
608.80880015310004
 30
0.0
 40
3.0
 50
180.0
 51
246.2045415318311
  0
LINE
  5
124E
  8
DRG
 10
285.21555515080428
 20
445.63028890307987
 30
0.0
 11
285.21555515080428
 21
560.10233025565446
 31
0.0
  0
LINE
  5
124F
  8
DRG
 10
305.21555515080422
 20
437.34008461699977
 30
0.0
 11
305.21555515080422
 21
529.50750631256915
 31
0.0
  0
LINE
  5
1250
  8
DRG
 10
313.21555515080428
 20
437.91579175742788
 30
0.0
 11
313.21555515080428
 21
509.91492323970328
 31
0.0
  0
ARC
  5
1251
  8
DRG
 10
222.95218587777461
 20
949.12359592887788
 30
0.0
 40
4.5
 50
0.0
 51
90.0
  0
ARC
  5
1252
  8
DRG
 10
230.45218587777461
 20
936.01747284227372
 30
0.0
 40
3.0
 50
180.0
 51
246.2045415318311
  0
LINE
  5
1253
  8
DRG
 10
227.45218587777461
 20
949.12359592887788
 30
0.0
 11
227.45218587777461
 21
936.01747284227372
 31
0.0
  0
LINE
  5
1254
  8
DRG
 10
201.45218587777461
 20
953.62359592887788
 30
0.0
 11
222.95218587777461
 21
953.62359592887788
 31
0.0
  0
ARC
  5
1255
  8
DRG
 10
201.45218587777461
 20
956.62359592887776
 30
0.0
 40
3.0
 50
180.0
 51
269.99999999999972
  0
LINE
  5
1256
  8
DRG
 10
198.45218587777461
 20
961.82359592887667
 30
0.0
 11
234.29692864271689
 21
961.82359592887656
 31
0.0
  0
TEXT
  5
1261
  8
DIM
 10
348.17140649404939
 20
685.82482197644561
 30
0.0
 40
5.0
  1
NON-STANDARD
  0
TEXT
  5
1262
  8
DIM
 10
358.70808176376272
 20
677.63857162781801
 30
0.0
 40
5.0
  1
BUT IS AN 
  0
TEXT
  5
1263
  8
DIM
 10
345.51286503254983
 20
668.57976559167923
 30
0.0
 40
5.0
  1
OPTIONAL EXTRA
  0
TEXT
  5
1265
  8
DIM
 10
330.85846525194808
 20
541.35320021994653
 30
0.0
 40
5.0
  1
(0.47")
 72
     4
 11
343.47751287099572
 21
543.49605736280364
 31
0.0
  0
TEXT
  5
1266
  8
DIM
 10
326.3591530085651
 20
515.66848573050777
 30
0.0
 40
5.0
  1
(0.32")
 72
     4
 11
338.97820062761269
 21
517.81134287336499
 31
0.0
  0
LINE
  5
12A3
  8
DIM
 10
349.32872257102372
 20
549.33297790547965
 30
0.0
 11
355.2313925056651
 21
549.33297790547965
 31
0.0
  0
LINE
  5
12A4
  8
DIM
 10
343.51272581013268
 20
523.45355541943979
 30
0.0
 11
351.24700165380472
 21
523.45355541943979
 31
0.0
  0
LINE
  5
12A5
  8
DRG2
  6
PHANTOM
 10
599.74198703388413
 20
594.4149232397034
 30
0.0
 11
607.74198703388424
 21
594.41492323970317
 31
0.0
  0
ARC
  5
12A6
  8
DRG2
  6
PHANTOM
 10
603.74198703388413
 20
576.41492323970408
 30
0.0
 40
15.0
 50
105.4660099534205
 51
74.533990046579447
  0
LINE
  5
12A7
  8
DRG2
  6
PHANTOM
 10
599.74198703388413
 20
587.4149232397034
 30
0.0
 11
599.74198703388413
 21
594.4149232397034
 31
0.0
  0
LINE
  5
12A8
  8
DRG2
  6
PHANTOM
 10
607.74198703388413
 20
587.4149232397034
 30
0.0
 11
607.74198703388413
 21
594.4149232397034
 31
0.0
  0
LINE
  5
12A9
  8
DRG2
  6
PHANTOM
 10
599.74198703388413
 20
587.4149232397034
 30
0.0
 11
607.74198703388424
 21
587.4149232397034
 31
0.0
  0
INSERT
  5
143F
  8
0
  2
ROTORK_GEARS_LOGO
 10
12.52691656796622
 20
29.599711487977871
 30
0.0
 41
0.70000000000001
 42
0.70000000000001
 43
0.7000000000000001
  0
VIEWPORT
  5
31
 67
     1
  8
0
 10
210.00000022409631
 20
152.0942409999999
 30
0.0
 40
420.00000044819268
 41
304.18848199999991
 68
     1
 69
     1
1001
ACAD
1000
MVIEW
1002
{
1070
    16
1010
0.0
1020
0.0
1030
0.0
1010
0.0
1020
0.0
1030
1.0
1040
0.0
1040
304.18848199999991
1040
210.00000022409631
1040
152.0942409999999
1040
50.0
1040
0.0
1040
0.0
1070
     0
1070
  2000
1070
     1
1070
     1
1070
     1
1070
     0
1070
     0
1070
     1
1040
0.0
1040
0.0
1040
0.0
1040
5.0
1040
5.0
1040
10.0
1040
10.0
1070
     0
1002
{
1002
}
1002
}
  0
ENDSEC
  0
EOF
