  0
SECTION
  2
HEADER
  9
$ACADVER
  1
AC1009
  9
$INSBASE
 10
0.0
 20
0.0
 30
0.0
  9
$EXTMIN
 10
10.0
 20
14.0
 30
0.0
  9
$EXTMAX
 10
760.0
 20
1025.2905205129259
 30
1.8
  9
$LIMMIN
 10
0.0
 20
0.0
  9
$LIMMAX
 10
840.0
 20
1188.0
  9
$ORTHOMODE
 70
     1
  9
$REGENMODE
 70
     1
  9
$FILLMODE
 70
     1
  9
$QTEXTMODE
 70
     0
  9
$MIRRTEXT
 70
     0
  9
$DRAGMODE
 70
     2
  9
$LTSCALE
 40
0.5
  9
$OSMODE
 70
    47
  9
$ATTMODE
 70
     1
  9
$TEXTSIZE
 40
5.0
  9
$TRACEWID
 40
10.0
  9
$TEXTSTYLE
  7
STANDARD
  9
$CLAYER
  8
0
  9
$CELTYPE
  6
BYLAYER
  9
$CECOLOR
 62
   256
  9
$DIMSCALE
 40
1.0
  9
$DIMASZ
 40
6.0
  9
$DIMEXO
 40
5.0
  9
$DIMDLI
 40
10.0
  9
$DIMRND
 40
0.0
  9
$DIMDLE
 40
1.25
  9
$DIMEXE
 40
2.0
  9
$DIMTP
 40
0.0
  9
$DIMTM
 40
0.0
  9
$DIMTXT
 40
5.0
  9
$DIMCEN
 40
-3.0
  9
$DIMTSZ
 40
0.0
  9
$DIMTOL
 70
     0
  9
$DIMLIM
 70
     0
  9
$DIMTIH
 70
     0
  9
$DIMTOH
 70
     0
  9
$DIMSE1
 70
     0
  9
$DIMSE2
 70
     0
  9
$DIMTAD
 70
     1
  9
$DIMZIN
 70
     0
  9
$DIMBLK
  1

  9
$DIMASO
 70
     0
  9
$DIMSHO
 70
     0
  9
$DIMPOST
  1

  9
$DIMAPOST
  1

  9
$DIMALT
 70
     0
  9
$DIMALTD
 70
     2
  9
$DIMALTF
 40
0.039
  9
$DIMLFAC
 40
1.0
  9
$DIMTOFL
 70
     0
  9
$DIMTVP
 40
1.5
  9
$DIMTIX
 70
     0
  9
$DIMSOXD
 70
     0
  9
$DIMSAH
 70
     0
  9
$DIMBLK1
  1

  9
$DIMBLK2
  1

  9
$DIMSTYLE
  2
STD
  9
$DIMCLRD
 70
   256
  9
$DIMCLRE
 70
   256
  9
$DIMCLRT
 70
   256
  9
$DIMTFAC
 40
0.75
  9
$DIMGAP
 40
1.5
  9
$LUNITS
 70
     2
  9
$LUPREC
 70
     2
  9
$SKETCHINC
 40
1.0
  9
$FILLETRAD
 40
0.0
  9
$AUNITS
 70
     0
  9
$AUPREC
 70
     2
  9
$MENU
  1
ACAD
  9
$ELEVATION
 40
0.0
  9
$PELEVATION
 40
0.0
  9
$THICKNESS
 40
0.0
  9
$LIMCHECK
 70
     0
  9
$BLIPMODE
 70
     0
  9
$CHAMFERA
 40
0.0
  9
$CHAMFERB
 40
0.0
  9
$SKPOLY
 70
     1
  9
$TDCREATE
 40
2450336.67714294
  9
$TDUPDATE
 40
2452817.4649931239
  9
$TDINDWG
 40
0.1906728125
  9
$TDUSRTIMER
 40
0.1906728125
  9
$USRTIMER
 70
     1
  9
$ANGBASE
 50
0.0
  9
$ANGDIR
 70
     0
  9
$PDMODE
 70
     3
  9
$PDSIZE
 40
0.0
  9
$PLINEWID
 40
0.0
  9
$COORDS
 70
     1
  9
$SPLFRAME
 70
     0
  9
$SPLINETYPE
 70
     6
  9
$SPLINESEGS
 70
     6
  9
$ATTDIA
 70
     0
  9
$ATTREQ
 70
     1
  9
$HANDLING
 70
  4097
  9
$HANDSEED
  5
F3E
  9
$SURFTAB1
 70
    18
  9
$SURFTAB2
 70
    18
  9
$SURFTYPE
 70
     6
  9
$SURFU
 70
    18
  9
$SURFV
 70
    18
  9
$UCSNAME
  2

  9
$UCSORG
 10
0.0
 20
0.0
 30
0.0
  9
$UCSXDIR
 10
1.0
 20
0.0
 30
0.0
  9
$UCSYDIR
 10
0.0
 20
1.0
 30
0.0
  9
$PUCSNAME
  2

  9
$PUCSORG
 10
0.0
 20
0.0
 30
0.0
  9
$PUCSXDIR
 10
1.0
 20
0.0
 30
0.0
  9
$PUCSYDIR
 10
0.0
 20
1.0
 30
0.0
  9
$USERI1
 70
     0
  9
$USERI2
 70
     0
  9
$USERI3
 70
     0
  9
$USERI4
 70
     0
  9
$USERI5
 70
     0
  9
$USERR1
 40
0.0
  9
$USERR2
 40
0.0
  9
$USERR3
 40
0.0
  9
$USERR4
 40
0.0
  9
$USERR5
 40
0.0
  9
$WORLDVIEW
 70
     0
  9
$SHADEDGE
 70
     3
  9
$SHADEDIF
 70
    70
  9
$TILEMODE
 70
     1
  9
$MAXACTVP
 70
    16
  9
$PLIMCHECK
 70
     0
  9
$PEXTMIN
 10
1.0000000000000000E+020
 20
1.0000000000000000E+020
 30
1.0000000000000000E+020
  9
$PEXTMAX
 10
-1.0000000000000000E+020
 20
-1.0000000000000000E+020
 30
-1.0000000000000000E+020
  9
$PLIMMIN
 10
0.0
 20
0.0
  9
$PLIMMAX
 10
420.0
 20
297.0
  9
$UNITMODE
 70
     0
  9
$VISRETAIN
 70
     0
  9
$PLINEGEN
 70
     0
  9
$PSLTSCALE
 70
     0
  0
ENDSEC
  0
SECTION
  2
TABLES
  0
TABLE
  2
VPORT
 70
     2
  0
VPORT
  2
*ACTIVE
 70
     0
 10
0.0
 20
0.0
 11
1.0
 21
1.0
 12
73.904764568232054
 22
0.0
 13
0.0
 23
0.0
 14
5.0
 24
5.0
 15
50.0
 25
50.0
 16
0.0
 26
0.0
 36
1.0
 17
494.85892284430969
 27
519.63217431031194
 37
0.0
 40
1019.142067807359
 41
1.7512195121951211
 42
50.0
 43
0.0
 44
0.0
 50
0.0
 51
0.0
 71
     0
 72
  2000
 73
     1
 74
     2
 75
     0
 76
     0
 77
     0
 78
     1
  0
ENDTAB
  0
TABLE
  2
LTYPE
 70
    14
  0
LTYPE
  2
CONTINUOUS
 70
     0
  3
Solid line
 72
    65
 73
     0
 40
0.0
  0
LTYPE
  2
CENTER
 70
     0
  3
____ _ ____ _ ____ _ ____ _ ____ _ ____ _ ____ 
 72
    65
 73
     4
 40
50.0
 49
31.25
 49
-6.25
 49
6.25
 49
-6.25
  0
LTYPE
  2
HIDDEN
 70
     0
  3
_ _ _ _ _ _ _ _ _ _ _ _ _ _ _ _ _ _ _ _ _ _ _ _
 72
    65
 73
     2
 40
9.375
 49
6.25
 49
-3.125
  0
LTYPE
  2
PHANTOM
 70
     0
  3
Phantom ______  __  __  ______  __  __  ______
 72
    65
 73
     6
 40
2.5
 49
1.25
 49
-0.25
 49
0.25
 49
-0.25
 49
0.25
 49
-0.25
  0
LTYPE
  2
PHANTOM2
 70
     0
  3
Phantom (.5x) ___ _ _ ___ _ _ ___ _ _ ___ _ _
 72
    65
 73
     6
 40
1.25
 49
0.625
 49
-0.125
 49
0.125
 49
-0.125
 49
0.125
 49
-0.125
  0
LTYPE
  2
ASULTYPE
 70
     0
  3
Solid line
 72
    65
 73
     2
 40
3.0
 49
2.5
 49
0.5
  0
LTYPE
  2
ASVLTYPE
 70
     0
  3
__ __ __ __ __ __ __ __ __ __ __ __ __ __ __ __ __ __ __ __ __
 72
    65
 73
     2
 40
0.75
 49
0.5
 49
-0.25
  0
LTYPE
  2
AM_ISO02W050
 70
     0
  3
__ __ __ __ __ __ __ __ __ __ __ __ __ __ __
 72
    65
 73
     2
 40
7.5
 49
6.0
 49
-1.5
  0
LTYPE
  2
AM_ISO08W050
 70
     0
  3
____ . ____ . ____ . ____ . ____ . ____ . ____
 72
    65
 73
     4
 40
18.0
 49
12.0
 49
-1.5
 49
3.0
 49
-1.5
  0
LTYPE
  2
AM_ISO09W050
 70
     0
  3
_____ . . _____ . . _____ . . ____ .. ____
 72
    65
 73
     6
 40
22.5
 49
12.0
 49
-1.5
 49
3.0
 49
-1.5
 49
3.0
 49
-1.5
  0
LTYPE
  2
AMCONSTR
 70
     0
  3
_______________________
 72
    65
 73
     2
 40
9999.0
 49
9999.0
 49
0.0
  0
LTYPE
  2
AM_ISO08W050X2
 70
     0
  3
__ . __ . __ . __ . __ . __
 72
    65
 73
     4
 40
9.0
 49
6.0
 49
-0.75
 49
1.5
 49
-0.75
  0
LTYPE
  2
AM_ISO02W050X2
 70
     0
  3
 _ _ _ _ _ _ _ _ _ _ _ _
 72
    65
 73
     2
 40
3.75
 49
3.0
 49
-0.75
  0
LTYPE
  2
AMZIGZAG
 70
     0
  3
/\/-/\/-/\/-/\/-/\/-/\/
 72
    65
 73
     2
 40
11.000099999999991
 49
0.0001
 49
-11.0
  0
ENDTAB
  0
TABLE
  2
LAYER
 70
     9
  0
LAYER
  2
0
 70
     0
 62
     7
  6
CONTINUOUS
  0
LAYER
  2
DRG
 70
     0
 62
     1
  6
CONTINUOUS
  0
LAYER
  2
CRS
 70
     0
 62
     3
  6
CENTER
  0
LAYER
  2
HID
 70
     0
 62
     6
  6
HIDDEN
  0
LAYER
  2
BORT
 70
     0
 62
     7
  6
CONTINUOUS
  0
LAYER
  2
DIM
 70
     0
 62
     2
  6
CONTINUOUS
  0
LAYER
  2
DRG2
 70
     0
 62
     8
  6
CONTINUOUS
  0
LAYER
  2
TXT
 70
     0
 62
     4
  6
CONTINUOUS
  0
LAYER
  2
DEFPOINTS
 70
     0
 62
     7
  6
CONTINUOUS
  0
ENDTAB
  0
TABLE
  2
STYLE
 70
     2
  0
STYLE
  2
STANDARD
 70
     0
 40
0.0
 41
1.0
 50
0.0
 71
     0
 42
5.0
  3
SIMPLEX
  4

  0
STYLE
  2

 70
     1
 40
0.0
 41
1.0
 50
0.0
 71
     0
 42
5.0
  3
ltypeshp.shx
  4

  0
ENDTAB
  0
TABLE
  2
VIEW
 70
     0
  0
ENDTAB
  0
TABLE
  2
UCS
 70
     0
  0
ENDTAB
  0
TABLE
  2
APPID
 70
    12
  0
APPID
  2
ACAD
 70
     0
  0
APPID
  2
GENIUS_GENDIM_13
 70
     0
  0
APPID
  2
GENIUS_GENDTOL_13
 70
     0
  0
APPID
  2
GENIUS_GE3DTOL_13
 70
     0
  0
APPID
  2
MCAD_NO_VIS
 70
     0
  0
APPID
  2
ACAD_TEMP_GRAPHIC
 70
     0
  0
APPID
  2
AD_DRAW
 70
     0
  0
APPID
  2
ACATTRIBSERVICES
 70
     0
  0
APPID
  2
ASURF_PCURVE_APPNAME
 70
     0
  0
APPID
  2
DESIGNERASSEMBLIES
 70
     0
  0
APPID
  2
ACADM_DIM_EDIT
 70
     0
  0
APPID
  2
CONTENTBLOCKICON
 70
     0
  0
ENDTAB
  0
TABLE
  2
DIMSTYLE
 70
     2
  0
DIMSTYLE
  2
STD
 70
     0
  3

  4

  5

  6

  7

 40
1.0
 41
6.0
 42
5.0
 43
10.0
 44
2.0
 45
0.0
 46
1.25
 47
0.0
 48
0.0
140
5.0
141
-3.0
142
0.0
143
0.039
144
1.0
145
1.5
146
0.75
147
1.5
 71
     0
 72
     0
 73
     0
 74
     0
 75
     0
 76
     0
 77
     1
 78
     0
170
     0
171
     2
172
     0
173
     0
174
     0
175
     0
176
   256
177
   256
178
   256
  0
DIMSTYLE
  2
STANDARD
 70
     0
  3

  4

  5

  6

  7

 40
1.669999999999999
 41
3.0
 42
2.0
 43
3.0
 44
2.0
 45
0.0
 46
0.0
 47
0.0
 48
0.0
140
3.0
141
0.0
142
0.0
143
0.03937
144
1.0
145
0.0
146
1.0
147
2.0
 71
     0
 72
     0
 73
     0
 74
     0
 75
     0
 76
     0
 77
     1
 78
     0
170
     0
171
     2
172
     0
173
     0
174
     0
175
     0
176
     0
177
     0
178
     0
  0
ENDTAB
  0
ENDSEC
  0
SECTION
  2
BLOCKS
  0
BLOCK
  8
0
  2
$MODEL_SPACE
 70
     0
 10
0.0
 20
0.0
 30
0.0
  3
$MODEL_SPACE
  1

  0
ENDBLK
  5
416
  8
0
  0
BLOCK
 67
     1
  8
0
  2
$PAPER_SPACE
 70
     0
 10
0.0
 20
0.0
 30
0.0
  3
$PAPER_SPACE
  1

  0
ENDBLK
  5
414
 67
     1
  8
0
  0
BLOCK
  8
0
  2
*D0
 70
     1
 10
0.0
 20
0.0
 30
0.0
  3
*D0
  1

  0
LINE
  5
A47
  8
DIM
 62
     0
 10
311.42271433812459
 20
537.62184782375311
 30
0.0
 11
311.42271433812459
 21
539.33990248952853
 31
0.0
  0
LINE
  5
A48
  8
DIM
 62
     0
 10
324.42271433812431
 20
499.9218478237529
 30
0.0
 11
324.42271433812431
 21
539.33990248952853
 31
0.0
  0
LINE
  5
A49
  8
DIM
 62
     0
 10
306.4127143381246
 20
535.99990248952849
 30
0.0
 11
301.4027143381245
 21
535.99990248952849
 31
0.0
  0
LINE
  5
A4A
  8
DIM
 62
     0
 10
329.4327143381243
 20
535.99990248952849
 30
0.0
 11
348.2798571952672
 21
535.99990248952849
 31
0.0
  0
SOLID
  5
A4B
  8
DIM
 62
     0
 10
306.4127143381246
 20
536.83490248952853
 30
0.0
 11
306.4127143381246
 21
535.16490248952846
 31
0.0
 12
311.42271433812459
 22
535.99990248952849
 32
0.0
 13
311.42271433812459
 23
535.99990248952849
 33
0.0
  0
SOLID
  5
A4C
  8
DIM
 62
     0
 10
329.4327143381243
 20
536.83490248952853
 30
0.0
 11
329.4327143381243
 21
535.16490248952846
 31
0.0
 12
324.42271433812431
 22
535.99990248952849
 32
0.0
 13
324.42271433812431
 23
535.99990248952849
 33
0.0
  0
TEXT
  5
A4D
  8
0
 62
     0
 10
337.78271433812432
 20
539.33990248952853
 30
0.0
 40
5.0099999999999989
  1
13
  0
POINT
  5
A4E
  8
DEFPOINTS
 62
     0
 10
311.42271433812459
 20
534.28184782375297
 30
0.0
  0
POINT
  5
A4F
  8
DEFPOINTS
 62
     0
 10
324.42271433812431
 20
496.58184782375292
 30
0.0
  0
POINT
  5
A50
  8
DEFPOINTS
 62
     0
 10
324.42271433812431
 20
535.99990248952849
 30
0.0
  0
ENDBLK
  5
9B8
  8
0
  0
BLOCK
  8
0
  2
*D1
 70
     1
 10
0.0
 20
0.0
 30
0.0
  3
*D1
  1

  0
LINE
  5
A15
  8
DIM
 62
     0
 10
311.42271433812459
 20
595.62184782375289
 30
0.0
 11
311.42271433812459
 21
711.04488186591072
 31
0.0
  0
LINE
  5
A16
  8
DIM
 62
     0
 10
418.92271433812408
 20
580.1218478237522
 30
0.0
 11
418.92271433812408
 21
711.04488186591072
 31
0.0
  0
LINE
  5
A17
  8
DIM
 62
     0
 10
316.43271433812458
 20
707.70488186591069
 30
0.0
 11
413.91271433812409
 21
707.70488186591069
 31
0.0
  0
SOLID
  5
A18
  8
DIM
 62
     0
 10
316.43271433812458
 20
708.53988186591073
 30
0.0
 11
316.43271433812458
 21
706.86988186591066
 31
0.0
 12
311.42271433812459
 22
707.70488186591069
 32
0.0
 13
311.42271433812459
 23
707.70488186591069
 33
0.0
  0
SOLID
  5
A19
  8
DIM
 62
     0
 10
413.91271433812409
 20
708.53988186591073
 30
0.0
 11
413.91271433812409
 21
706.86988186591066
 31
0.0
 12
418.92271433812408
 22
707.70488186591069
 32
0.0
 13
418.92271433812408
 23
707.70488186591069
 33
0.0
  0
TEXT
  5
A1A
  8
0
 62
     0
 10
359.20842862383859
 20
711.04488186591072
 30
0.0
 40
5.0099999999999989
  1
108
  0
POINT
  5
A1B
  8
DEFPOINTS
 62
     0
 10
311.42271433812459
 20
592.28184782375286
 30
0.0
  0
POINT
  5
A1C
  8
DEFPOINTS
 62
     0
 10
418.92271433812408
 20
576.78184782375217
 30
0.0
  0
POINT
  5
A1D
  8
DEFPOINTS
 62
     0
 10
418.92271433812408
 20
707.70488186591069
 30
0.0
  0
ENDBLK
  5
9D1
  8
0
  0
BLOCK
  8
0
  2
*U2
 70
     1
 10
0.0
 20
0.0
 30
0.0
  3
*U2
  1

  0
ENDBLK
  5
B09
  8
0
  0
BLOCK
  8
0
  2
LOGO
 70
     0
 10
0.0
 20
0.0
 30
0.0
  3
LOGO
  1

  0
INSERT
  5
B34
  8
DRG
  6
CONTINUOUS
 62
     7
  2
*U5
 10
0.0
 20
0.0
 30
0.0
1001
ACAD
1002
{
1000
R14_HATCH_DATA
1000
B34
1011
1.0
1021
0.0
1031
-4.5072499160783923E+227
1021
0.0
1031
0.0
1011
0.0
1021
0.0
1031
-4.5072499160783923E+227
1021
1.0
1031
0.0
1011
0.0
1021
0.0
1031
-4.5072499160783923E+227
1021
0.0
1031
1.0
1040
0.0
1010
0.0
1020
0.0
1030
1.0
1000
SOLID
1070
     1
1070
     1
1071
       17
1071
        7
1070
     1
1070
     1
1071
        9
1040
18.821661727211438
1040
85.569427875032716
1040
-0.4142135623730951
1040
26.821661727211438
1040
93.569427875032716
1040
0.0
1040
28.191279411133561
1040
93.56942787503273
1040
0.0
1040
28.191279411133561
1040
102.0369718403326
1040
0.2674368359602434
1040
18.821661727211438
1040
97.915857504065912
1040
0.0
1040
18.821661727211438
1040
102.0369718403326
1040
0.0
1040
7.7802673214059723
1040
102.0369718403326
1040
0.0
1040
7.7802673214059723
1040
62.115696081838671
1040
0.0
1040
18.821661727211438
1040
62.115696081838678
1040
0.0
1071
        9
1005
B57
1005
B5E
1005
B5D
1005
B5C
1005
B5B
1005
B56
1005
B46
1005
B48
1005
B44
1071
        7
1070
     1
1070
     1
1071
        8
1040
29.838142899665851
1040
72.897331735467191
1040
0.4142135623730863
1040
41.838142899665847
1040
60.89733173546756
1040
0.0
1040
47.650196927116667
1040
60.89733173546756
1040
0.4142126981028046
1040
59.650196927064421
1040
72.897296325816569
1040
0.0348233422700972
1040
59.650196927064421
1040
90.096337111694368
1040
0.4142126981028142
1040
47.650196927116667
1040
102.0963017020437
1040
0.0
1040
41.838142899665847
1040
102.0963017020437
1040
0.4142135623730893
1040
29.838142899665851
1040
90.096301702044016
1040
0.0348231985322414
1071
        8
1005
B38
1005
B5F
1005
B5A
1005
B59
1005
B45
1005
B55
1005
B37
1005
B96
1071
       22
1070
     1
1070
     1
1071
        4
1040
40.882971825549703
1040
90.337990088334166
1040
-1.0
1040
48.605370470334492
1040
90.337990088334735
1040
-0.0248818291691539
1040
48.605370470334492
1040
72.655643349175492
1040
-1.0
1040
40.882971825549703
1040
72.655643349177595
1040
-0.0248818291691501
1071
        4
1005
B3A
1005
B95
1005
B39
1005
B58
1071
        7
1070
     1
1070
     1
1071
       18
1040
67.331191210151701
1040
68.89733173546756
1040
0.4142135623730951
1040
75.331191210151701
1040
60.89733173546756
1040
0.0
1040
80.675802928262684
1040
60.89733173546756
1040
0.1450058980834471
1040
84.501142256151084
1040
62.072518178885289
1040
0.0
1040
84.501142256151084
1040
70.214764581409185
1040
-0.0833071563303517
1040
83.501142256151255
1040
69.876055965300111
1040
0.0
1040
80.482556033578916
1040
69.876055965300111
1040
-0.4142135623730951
1040
77.482556033578931
1040
72.876055965300111
1040
0.0
1040
77.482556033578931
1040
94.593352860836134
1040
0.0
1040
84.553623006881026
1040
94.593352860836134
1040
0.0
1040
84.553623006881026
1040
101.9948050433795
1040
0.0
1040
77.482556033578931
1040
101.9948050433795
1040
0.0
1040
77.482556033578931
1040
107.1280725498991
1040
0.0
1040
67.331191210151701
1040
107.1280725498991
1040
0.0
1040
67.331191210151701
1040
101.9948050433795
1040
0.0
1040
62.478989637268562
1040
101.9948050433795
1040
0.0
1040
62.478989637268569
1040
94.593352860836134
1040
0.0
1040
67.331191210151687
1040
94.593352860836134
1040
0.0
1071
       18
1005
B93
1005
BA7
1005
B94
1005
B9F
1005
B9D
1005
B9E
1005
B9A
1005
B9C
1005
B9B
1005
B97
1005
B69
1005
B7D
1005
B6C
1005
B6A
1005
BA4
1005
B92
1005
B99
1005
B98
1071
        7
1070
     1
1070
     1
1071
        8
1040
85.849782736700035
1040
72.897331735467475
1040
0.4142135623730931
1040
97.849782736700035
1040
60.89733173546756
1040
0.0
1040
103.66183676415081
1040
60.89733173546756
1040
0.4142126981028048
1040
115.6618367640986
1040
72.897296325816569
1040
0.0348233422700971
1040
115.6618367640986
1040
90.096337111694325
1040
0.4142126981028151
1040
103.66183676415081
1040
102.0963017020437
1040
0.0
1040
97.849782736700035
1040
102.0963017020437
1040
0.4142135623730893
1040
85.849782736700035
1040
90.096301702044016
1040
0.0348231985322409
1071
        8
1005
B68
1005
BA8
1005
BA6
1005
BA2
1005
B6B
1005
B91
1005
B67
1005
BCF
1071
       22
1070
     1
1070
     1
1071
        4
1040
96.894611662583884
1040
90.337990088335033
1040
-1.0
1040
104.6170103073686
1040
90.337990088334763
1040
-0.0248818291691539
1040
104.6170103073686
1040
72.655643349175506
1040
-1.0
1040
96.894611662583884
1040
72.655643349177595
1040
-0.0248818291691514
1071
        4
1005
BA5
1005
BA0
1005
BA3
1005
BA1
1071
        7
1070
     1
1070
     1
1071
        9
1040
119.0096173095521
1040
62.115696081838678
1040
0.0
1040
130.05101171535759
1040
62.115696081838671
1040
0.0
1040
130.05101171535759
1040
85.569427875032716
1040
-0.4142135623730946
1040
138.05101171535759
1040
93.569427875032716
1040
0.0
1040
139.4206293992797
1040
93.56942787503273
1040
0.0
1040
139.4206293992797
1040
102.0369718403325
1040
0.2674368359602435
1040
130.05101171535759
1040
97.915857504065855
1040
0.0
1040
130.05101171535759
1040
102.0369718403326
1040
0.0
1040
119.0096173095521
1040
102.0369718403326
1040
0.0
1071
        9
1005
BCE
1005
BD4
1005
BD3
1005
BD0
1005
BD2
1005
BD1
1005
BAA
1005
BB9
1005
BA9
1071
        7
1070
     0
1070
     1
1071
        4
1040
153.2899770207527
1040
102.0369718403326
1040
142.11987082690661
1040
102.0369718403326
1040
142.11987082690661
1040
62.115696081838678
1040
153.2899770207527
1040
62.115696081838678
1071
        4
1005
BCD
1005
BAE
1005
BB2
1005
BAD
1071
        7
1070
     0
1070
     1
1071
        9
1040
161.3332883364622
1040
62.115696081838678
1040
171.78072804963571
1040
62.115696081838678
1040
165.4162645291251
1040
78.311404477182364
1040
176.9709164189357
1040
78.31140447718235
1040
176.9709164189357
1040
86.855763084496857
1040
165.4162645291251
1040
86.855763084496886
1040
171.38205787173379
1040
102.0369718403326
1040
160.9346181585602
1040
102.0369718403326
1040
153.2899770207527
1040
82.583583780839575
1071
        9
1005
BDA
1005
BD9
1005
BD8
1005
BD5
1005
BAC
1005
BC8
1005
BAB
1005
BD7
1005
BD6
1071
        7
1070
     1
1070
     1
1071
       21
1040
152.52515784094209
1040
47.648154099737518
1040
-0.8501159182110916
1040
160.04745823702251
1040
46.421288526219293
1040
0.0
1040
160.04745823702251
1040
45.21828747592599
1040
0.0
1040
171.0912486890569
1040
45.21828747592599
1040
0.4103700463812956
1040
159.0922846938046
1040
57.06060729124669
1040
0.0
1040
153.28023066635379
1040
57.06060729124669
1040
0.3231315706904765
1040
141.8917942032017
1040
48.84260609145101
1040
0.1954153765693974
1040
142.3184035466634
1040
43.115005509834923
1040
0.2113556324406552
1040
155.72873071743231
1040
33.145354604103439
1040
-0.2264685134690167
1040
160.04745823702251
1040
29.300230626583549
1040
0.0
1040
160.04745823702251
1040
27.619948938379359
1040
-1.0
1040
152.32505959223769
1040
27.619948938379359
1040
0.0
1040
152.32505959223769
1040
29.959298931438969
1040
0.0
1040
141.28023066635379
1040
29.95929893143898
1040
0.0
1040
141.28023066635379
1040
27.861637324670479
1040
0.4142135623730951
1040
153.28023066635379
1040
15.861637324670481
1040
0.0
1040
159.0922846938046
1040
15.861637324670481
1040
0.4142135623730951
1040
171.0922846938046
1040
27.861637324670479
1040
0.0
1040
171.0922846938046
1040
29.95929893143904
1040
0.3201720163042325
1040
161.4128172083947
1040
39.98989916707626
1040
-0.1549843570040388
1040
153.4809683549079
1040
44.585756161105429
1040
-0.2969707756967668
1071
       21
1005
BC9
1005
BCB
1005
BC6
1005
BC7
1005
BCC
1005
BB1
1005
BBE
1005
BAF
1005
BC4
1005
BC1
1005
BC3
1005
BC2
1005
BB0
1005
BB6
1005
B61
1005
B65
1005
B62
1005
BC5
1005
BC0
1005
BBF
1005
BCA
1071
        7
1070
     1
1070
     1
1071
        9
1040
116.19314081319391
1040
17.28637227261407
1040
0.0
1040
127.2345352189994
1040
17.28637227261407
1040
0.0
1040
127.2345352189994
1040
40.740104065808097
1040
-0.4142135623730953
1040
135.23453521899941
1040
48.740104065808111
1040
0.0
1040
136.6041529029215
1040
48.740104065808111
1040
0.0
1040
136.6041529029215
1040
57.207648031108022
1040
0.2674368359602446
1040
127.2345352189994
1040
53.086533694841222
1040
0.0
1040
127.2345352189994
1040
57.207648031108022
1040
0.0
1040
116.19314081319391
1040
57.207648031108022
1040
0.0
1071
        9
1005
BB7
1005
BBB
1005
BBA
1005
BB4
1005
BB5
1005
BB3
1005
BB8
1005
BBD
1005
BBC
1071
        7
1070
     1
1070
     1
1071
       18
1040
111.2523129779601
1040
45.06060729124669
1040
0.4142135623730951
1040
99.252312977960173
1040
57.06060729124669
1040
0.0
1040
93.440258950509346
1040
57.06060729124669
1040
0.3935971290544443
1040
81.470405744524527
1040
45.910674481046733
1040
0.0
1040
92.485087876393209
1040
45.910674481046733
1040
0.0
1040
92.485087876393209
1040
47.313129977668268
1040
-1.0
1040
100.2074865211779
1040
47.313129977668268
1040
0.0
1040
100.207486521178
1040
42.948196427274922
1040
0.0
1040
93.358174068518778
1040
42.948196427274922
1040
0.3803366342075343
1040
81.440258950509346
1040
32.349374231810209
1040
0.0
1040
81.440258950509346
1040
27.861637324670479
1040
0.212203934851876
1040
85.398663329684837
1040
18.95474449545469
1040
0.2715779457989354
1040
94.991749269489972
1040
17.839408458597308
1040
0.2212147422997974
1040
102.1211660476033
1040
23.542010892025001
1040
0.0
1040
102.1211660476033
1040
21.102600968374279
1040
0.048558820350044
1040
102.6710305977499
1040
17.89352120355198
1040
0.0
1040
111.8021775281067
1040
17.893521203552009
1040
-0.0850534761391249
1040
111.2523129779601
1040
23.54201089202471
1040
0.0
1071
       18
1005
B66
1005
B8D
1005
B6F
1005
B8E
1005
B8F
1005
B8C
1005
B90
1005
B8B
1005
B6D
1005
B83
1005
B6E
1005
B60
1005
B7F
1005
B87
1005
B86
1005
B85
1005
B88
1005
B7E
1071
       22
1070
     1
1070
     1
1071
        6
1040
101.5095597489034
1040
37.384730871555568
1040
0.0
1040
101.5095597489034
1040
29.984856014372749
1040
-0.4101584254678068
1040
95.863486513980718
1040
23.758749615986972
1040
-0.4142135623730822
1040
92.002287191588479
1040
27.619948938379359
1040
0.0
1040
92.002287191588479
1040
33.041326503689838
1040
-0.3592987923427892
1040
97.969021393668683
1040
37.384730871555568
1040
0.0
1071
        6
1005
B89
1005
B81
1005
B84
1005
B82
1005
B80
1005
B8A
1071
        7
1070
     1
1070
     1
1071
       14
1040
74.280536421539182
1040
35.629722934820848
1040
0.0
1040
74.280536421539182
1040
45.06060729124669
1040
0.4142135623730951
1040
62.280536421539182
1040
57.06060729124669
1040
0.0
1040
56.468482394088369
1040
57.06060729124669
1040
0.4142135623730892
1040
44.468482394088362
1040
45.060607291246939
1040
0.0348231985322411
1040
44.468482394088362
1040
27.861637324670291
1040
0.4142135623730907
1040
56.468482394088369
1040
15.861637324670481
1040
0.0
1040
62.280536421539182
1040
15.861637324670481
1040
0.4142135623730951
1040
74.280536421539182
1040
27.861637324670479
1040
0.0
1040
74.280536421539196
1040
30.816887788353831
1040
0.0
1040
63.235709964757
1040
30.81688778835381
1040
0.0
1040
63.235709964757007
1040
27.61994893837937
1040
-1.0
1040
55.513311319972217
1040
27.61994893837937
1040
0.0
1040
55.513311319972232
1040
35.629722934820848
1040
0.0
1071
       14
1005
B77
1005
B7C
1005
B36
1005
B4A
1005
B35
1005
B64
1005
B63
1005
B76
1005
B71
1005
B73
1005
B75
1005
B74
1005
B72
1005
B70
1071
       22
1070
     1
1070
     1
1071
        4
1040
63.235709964756971
1040
41.923431282527652
1040
0.0
1040
55.51331131997221
1040
41.923431282527638
1040
0.0
1040
55.513311319972217
1040
46.690614073903141
1040
-1.0
1040
63.235709964757007
1040
46.690614073903127
1040
0.0
1071
        4
1005
B78
1005
B7A
1005
B79
1005
B7B
1071
        7
1070
     1
1070
     1
1071
       15
1040
37.639779947293832
1040
57.06060729124669
1040
0.0
1040
27.267121908897028
1040
57.06060729124669
1040
0.0
1040
27.267121908897021
1040
51.255838552818979
1040
0.3392741364964821
1040
18.58303542025671
1040
58.127888502333931
1040
0.3975671648689696
1040
7.030577403887583
1040
46.170226698962978
1040
0.0322586733839356
1040
7.0565934473582743
1040
30.23514359210488
1040
0.381674351628262
1040
18.58303542025671
1040
18.945146626805109
1040
0.3392741364964824
1040
27.267121908897021
1040
25.817196576320061
1040
0.0
1040
27.267121908897021
1040
13.51984597021351
1040
-1.0
1040
19.544723264112228
1040
13.51984597021351
1040
0.0
1040
19.544723264112239
1040
14.846027306936771
1040
0.0
1040
7.7279273094568479
1040
14.846027306936771
1040
0.435111756420548
1040
18.100585347853119
1040
3.392610111620797
1040
0.0
1040
25.69916102541525
1040
3.392610111620797
1040
0.3589835117613411
1040
37.639779947293839
1040
13.760967175618781
1040
0.0
1071
       15
1005
B50
1005
B54
1005
B53
1005
B47
1005
B49
1005
B3B
1005
B4F
1005
B3C
1005
B42
1005
B43
1005
B3E
1005
B3F
1005
B41
1005
B40
1005
B3D
1071
       22
1070
     1
1070
     1
1071
        6
1040
27.387732575171409
1040
32.086434320449378
1040
-0.3635850888704513
1040
22.683854862926161
1040
25.455509253088579
1040
-0.4081657147783189
1040
17.256300807526252
1040
30.5191262631974
1040
0.0
1040
17.256300807526252
1040
46.312783983787632
1040
-0.4081657147783226
1040
22.683854862926282
1040
51.376400993896397
1040
-0.3635850888704468
1040
27.387732575171409
1040
44.745475926535612
1040
0.0
1071
        6
1005
B4E
1005
B4D
1005
B4C
1005
B51
1005
B52
1005
B4B
1070
     0
1070
     1
1040
0.2228598800114194
1071
       17
1040
17.63743802729277
1040
76.626905651017751
1040
0.0
1040
33.91754890401171
1040
77.741205688022092
1040
0.0
1040
33.91754890401171
1040
77.741205688022092
1040
0.0
1040
69.153945982282949
1040
79.301225382558854
1040
0.0
1040
91.455465417142008
1040
80.861243290751887
1040
0.0
1040
91.455465417142008
1040
80.861243290751887
1040
0.0
1040
120.67045393727309
1040
80.861243290751887
1040
0.0
1040
151.44655150816561
1040
79.746945040091759
1040
0.0
1040
157.69097519808881
1040
82.198402263350317
1040
0.0
1040
149.43941532211869
1040
47.209401108474808
1040
0.0
1040
122.2315629880345
1040
49.21514046054449
1040
0.0
1040
107.73557316557979
1040
43.19792419067948
1040
0.0
1040
107.73557316557979
1040
43.19792419067948
1040
0.0
1040
69.376961114066034
1040
40.30074552354403
1040
0.0
1040
69.376961114066034
1040
40.30074552354403
1040
0.0
1040
30.572318798986078
1040
42.306483089269697
1040
0.0
1040
30.572318798986078
1040
42.306483089269697
1040
0.0
1002
}
  0
ARC
  5
B35
  8
DRG
 62
     7
 10
56.468482394088369
 20
27.861637324670479
 30
0.0
 40
12.0
 50
180.0
 51
270.0
  0
ARC
  5
B36
  8
DRG
 62
     7
 10
56.468482394088369
 20
45.06060729124669
 30
0.0
 40
12.0
 50
90.0
 51
180.0
  0
ARC
  5
B37
  8
DRG
 62
     7
 10
47.650196927116667
 20
72.89733173546756
 30
0.0
 40
12.0
 50
270.0
 51
0.0
  0
ARC
  5
B38
  8
DRG
 62
     7
 10
47.650196927116667
 20
90.096301702043775
 30
0.0
 40
12.0
 50
0.0
 51
90.0
  0
ARC
  5
B39
  8
DRG
 62
     7
 10
44.74417114794209
 20
72.655643349176444
 30
0.0
 40
3.8611993223923942
 50
180.0
 51
0.0
  0
ARC
  5
B3A
  8
DRG
 62
     7
 10
44.74417114794209
 20
90.337990088334877
 30
0.0
 40
3.8611993223923942
 50
0.0
 51
180.0
  0
ARC
  5
B3B
  8
DRG
 62
     7
 10
19.137584483414571
 20
31.0402274344309
 30
0.0
 40
12.107786932649869
 50
183.81258486583951
 51
267.37487616930952
  0
LINE
  5
B3C
  8
DRG
 62
     7
 10
27.267121908897021
 20
13.51984597021351
 30
0.0
 11
27.267121908897021
 21
25.817196576319979
 31
0.0
  0
LINE
  5
B3D
  8
DRG
 62
     7
 10
37.639779947293839
 20
13.760967175618591
 30
0.0
 11
37.639779947293839
 21
57.06060729124669
 31
0.0
  0
LINE
  5
B3E
  8
DRG
 62
     7
 10
7.7279273094568453
 20
14.846027306936771
 30
0.0
 11
19.544723264112228
 21
14.846027306936771
 31
0.0
  0
ARC
  5
B3F
  8
DRG
 62
     7
 10
18.249110221157022
 20
13.95076893658401
 30
0.0
 40
10.559203445863639
 50
175.13635846835899
 51
269.19405577571678
  0
ARC
  5
B40
  8
DRG
 62
     7
 10
25.379351800633462
 20
15.82074347040526
 30
0.0
 40
12.432247452652581
 50
271.47404887186468
 51
350.4632534986161
  0
LINE
  5
B41
  8
DRG
 62
     7
 10
18.100585347854121
 20
3.392610111620797
 30
0.0
 11
25.699161025414639
 21
3.392610111620797
 31
0.0
  0
ARC
  5
B42
  8
DRG
 62
     7
 10
23.40592258650463
 20
13.51984597021351
 30
0.0
 40
3.8611993223923942
 50
180.0
 51
0.0
  0
LINE
  5
B43
  8
DRG
 62
     7
 10
19.544723264112228
 20
13.51984597021351
 30
0.0
 11
19.544723264112228
 21
14.846027306936771
 31
0.0
  0
LINE
  5
B44
  8
DRG
 62
     7
 10
18.821661727211438
 20
62.115696081838678
 30
0.0
 11
18.821661727211438
 21
85.569427875032716
 31
0.0
  0
ARC
  5
B45
  8
DRG
 62
     7
 10
41.838142899665847
 20
72.89733173546756
 30
0.0
 40
12.0
 50
180.0
 51
270.0
  0
LINE
  5
B46
  8
DRG
 62
     7
 10
7.7802673214059723
 20
102.0369718403326
 30
0.0
 11
7.7802673214059723
 21
62.115696081838678
 31
0.0
  0
ARC
  5
B47
  8
DRG
 62
     7
 10
19.137584483414571
 20
46.032807694708133
 30
0.0
 40
12.107786932649869
 50
92.625123830690427
 51
179.34969965531249
  0
LINE
  5
B48
  8
DRG
 62
     7
 10
7.7802673214059723
 20
62.115696081838678
 30
0.0
 11
18.821661727211438
 21
62.115696081838678
 31
0.0
  0
ARC
  5
B49
  8
DRG
 62
     7
 10
130.4096373956734
 20
38.404095866101891
 30
0.0
 40
123.62323904739679
 50
176.39825231050591
 51
183.7888327716102
  0
ARC
  5
B4A
  8
DRG
 62
     7
 10
167.7922598686371
 20
36.46112230795859
 30
0.0
 40
123.62323904739679
 50
176.01116722839041
 51
183.98883277160959
  0
LINE
  5
B4B
  8
DRG
 62
     7
 10
27.387732575171409
 20
32.086434320449371
 30
0.0
 11
27.387732575171409
 21
44.745475926535619
 31
0.0
  0
LINE
  5
B4C
  8
DRG
 62
     7
 10
17.256300807526252
 20
30.519126263197901
 30
0.0
 11
17.256300807526252
 21
46.312783983787199
 31
0.0
  0
ARC
  5
B4D
  8
DRG
 62
     7
 10
22.554825927420261
 20
30.757839296791811
 30
0.0
 40
5.3038997311936118
 50
182.57958705316651
 51
271.39398239048438
  0
ARC
  5
B4E
  8
DRG
 62
     7
 10
21.079116203706629
 20
31.577778829510549
 30
0.0
 40
6.3290892655085571
 50
284.68766481341447
 51
4.6097118352224014
  0
ARC
  5
B4F
  8
DRG
 62
     7
 10
18.444167318675341
 20
28.04361904615444
 30
0.0
 40
9.0995321151857773
 50
270.87442572940842
 51
345.83740798549388
  0
LINE
  5
B50
  8
DRG
 62
     7
 10
37.639779947293839
 20
57.06060729124669
 30
0.0
 11
27.267121908897021
 21
57.06060729124669
 31
0.0
  0
ARC
  5
B51
  8
DRG
 62
     7
 10
22.554825927420261
 20
46.074070950193168
 30
0.0
 40
5.3038997311936118
 50
88.606017609515575
 51
177.42041294683341
  0
ARC
  5
B52
  8
DRG
 62
     7
 10
21.079116203706629
 20
45.254131417474468
 30
0.0
 40
6.3290892655085571
 50
355.39028816477759
 51
75.312335186585557
  0
ARC
  5
B53
  8
DRG
 62
     7
 10
18.444167318675341
 20
49.029416082984589
 30
0.0
 40
9.0995321151857773
 50
14.16259201450603
 51
89.125574270591571
  0
LINE
  5
B54
  8
DRG
 62
     7
 10
27.267121908897021
 20
51.255838552819107
 30
0.0
 11
27.267121908897021
 21
57.06060729124669
 31
0.0
  0
LINE
  5
B55
  8
DRG
 62
     7
 10
41.838142899665847
 20
60.89733173546756
 30
0.0
 11
47.650196927116667
 21
60.89733173546756
 31
0.0
  0
LINE
  5
B56
  8
DRG
 62
     7
 10
7.7802673214059723
 20
102.0369718403326
 30
0.0
 11
18.821661727211438
 21
102.0369718403326
 31
0.0
  0
ARC
  5
B57
  8
DRG
 62
     7
 10
26.821661727211438
 20
85.569427875032716
 30
0.0
 40
8.0
 50
90.0
 51
180.0
  0
ARC
  5
B58
  8
DRG
 62
     7
 10
218.4362314981995
 20
81.496816718755667
 30
0.0
 40
177.77324423808651
 50
177.14934059322539
 51
182.85065940677461
  0
ARC
  5
B59
  8
DRG
 62
     7
 10
153.16192037421459
 20
81.496816718755667
 30
0.0
 40
123.62323904739679
 50
176.01116722839041
 51
183.98883277160959
  0
ARC
  5
B5A
  8
DRG
 62
     7
 10
41.838142899665847
 20
90.096301702043775
 30
0.0
 40
12.0
 50
90.0
 51
180.0
  0
LINE
  5
B5B
  8
DRG
 62
     7
 10
18.821661727211438
 20
97.915857504065912
 30
0.0
 11
18.821661727211438
 21
102.0369718403326
 31
0.0
  0
ARC
  5
B5C
  8
DRG
 62
     7
 10
27.083354510939952
 20
91.844139685506846
 30
0.0
 40
10.2528691067876
 50
83.7965056449153
 51
143.68693404466879
  0
LINE
  5
B5D
  8
DRG
 62
     7
 10
28.191279411133561
 20
102.0369718403326
 30
0.0
 11
28.191279411133561
 21
93.569427875032716
 31
0.0
  0
LINE
  5
B5E
  8
DRG
 62
     7
 10
28.191279411133561
 20
93.569427875032716
 30
0.0
 11
26.821661727211438
 21
93.569427875032716
 31
0.0
  0
LINE
  5
B5F
  8
DRG
 62
     7
 10
41.838142899665847
 20
102.0963017020437
 30
0.0
 11
47.650196927116667
 21
102.0963017020437
 31
0.0
  0
ARC
  5
B60
  8
DRG
 62
     7
 10
91.146199293645054
 20
26.576636016635941
 30
0.0
 40
9.5460672539884595
 50
232.98068850611
 51
293.75592135571679
  0
ARC
  5
B61
  8
DRG
 62
     7
 10
153.28023066635379
 20
27.861637324670479
 30
0.0
 40
12.0
 50
180.0
 51
270.0
  0
ARC
  5
B62
  8
DRG
 62
     7
 10
159.0922846938046
 20
27.861637324670479
 30
0.0
 40
12.0
 50
270.0
 51
0.0
  0
ARC
  5
B63
  8
DRG
 62
     7
 10
62.280536421539182
 20
27.861637324670479
 30
0.0
 40
12.0
 50
270.0
 51
0.0
  0
LINE
  5
B64
  8
DRG
 62
     7
 10
56.468482394088369
 20
15.861637324670481
 30
0.0
 11
62.280536421539182
 21
15.861637324670481
 31
0.0
  0
LINE
  5
B65
  8
DRG
 62
     7
 10
153.28023066635379
 20
15.861637324670481
 30
0.0
 11
159.0922846938046
 21
15.861637324670481
 31
0.0
  0
ARC
  5
B66
  8
DRG
 62
     7
 10
99.252312977960173
 20
45.06060729124669
 30
0.0
 40
12.0
 50
0.0
 51
90.0
  0
ARC
  5
B67
  8
DRG
 62
     7
 10
103.66183676415081
 20
72.89733173546756
 30
0.0
 40
12.0
 50
270.0
 51
0.0
  0
ARC
  5
B68
  8
DRG
 62
     7
 10
103.66183676415081
 20
90.096301702043775
 30
0.0
 40
12.0
 50
0.0
 51
90.0
  0
ARC
  5
B69
  8
DRG
 62
     7
 10
75.331191210151701
 20
68.89733173546756
 30
0.0
 40
8.0
 50
180.0
 51
270.0
  0
LINE
  5
B6A
  8
DRG
 62
     7
 10
84.501142256151084
 20
62.072518178885268
 30
0.0
 11
84.501142256151084
 21
70.214764581409213
 31
0.0
  0
ARC
  5
B6B
  8
DRG
 62
     7
 10
97.849782736700035
 20
72.89733173546756
 30
0.0
 40
12.0
 50
180.0
 51
270.0
  0
ARC
  5
B6C
  8
DRG
 62
     7
 10
80.604973725058926
 20
67.941395133310024
 30
0.0
 40
7.044419488421358
 50
270.57609896713558
 51
303.5789717876612
  0
ARC
  5
B6D
  8
DRG
 62
     7
 10
93.358174068518778
 20
30.948196427274919
 30
0.0
 40
12.0
 50
90.0
 51
173.29457252003729
  0
ARC
  5
B6E
  8
DRG
 62
     7
 10
93.44025895050936
 20
27.861637324670479
 30
0.0
 40
12.0
 50
180.0
 51
227.9226718038604
  0
ARC
  5
B6F
  8
DRG
 62
     7
 10
93.44025895050936
 20
45.06060729124669
 30
0.0
 40
12.0
 50
90.0
 51
175.93782586434531
  0
LINE
  5
B70
  8
DRG
 62
     7
 10
74.280536421539182
 20
45.06060729124669
 30
0.0
 11
74.280536421539182
 21
35.629722934820848
 31
0.0
  0
LINE
  5
B71
  8
DRG
 62
     7
 10
63.235709964757007
 20
30.816887788353821
 30
0.0
 11
74.280536421539182
 21
30.816887788353821
 31
0.0
  0
LINE
  5
B72
  8
DRG
 62
     7
 10
55.513311319972217
 20
35.629722934820848
 30
0.0
 11
74.280536421539182
 21
35.629722934820848
 31
0.0
  0
LINE
  5
B73
  8
DRG
 62
     7
 10
63.235709964757007
 20
30.816887788353821
 30
0.0
 11
63.235709964757007
 21
27.619948938379359
 31
0.0
  0
LINE
  5
B74
  8
DRG
 62
     7
 10
55.513311319972217
 20
35.629722934820848
 30
0.0
 11
55.513311319972217
 21
27.619948938379359
 31
0.0
  0
ARC
  5
B75
  8
DRG
 62
     7
 10
59.374510642364612
 20
27.619948938379359
 30
0.0
 40
3.8611993223923942
 50
180.0
 51
0.0
  0
LINE
  5
B76
  8
DRG
 62
     7
 10
74.280536421539182
 20
30.816887788353821
 30
0.0
 11
74.280536421539182
 21
27.861637324670479
 31
0.0
  0
ARC
  5
B77
  8
DRG
 62
     7
 10
62.280536421539182
 20
45.06060729124669
 30
0.0
 40
12.0
 50
0.0
 51
90.0
  0
LINE
  5
B78
  8
DRG
 62
     7
 10
55.513311319972217
 20
41.923431282527652
 30
0.0
 11
63.235709964757007
 21
41.923431282527652
 31
0.0
  0
ARC
  5
B79
  8
DRG
 62
     7
 10
59.374510642364612
 20
46.690614073903127
 30
0.0
 40
3.8611993223923942
 50
0.0
 51
180.0
  0
LINE
  5
B7A
  8
DRG
 62
     7
 10
55.513311319972217
 20
46.690614073903127
 30
0.0
 11
55.513311319972217
 21
41.923431282527652
 31
0.0
  0
LINE
  5
B7B
  8
DRG
 62
     7
 10
63.235709964757007
 20
46.690614073903127
 30
0.0
 11
63.235709964757007
 21
41.923431282527652
 31
0.0
  0
LINE
  5
B7C
  8
DRG
 62
     7
 10
56.468482394088369
 20
57.06060729124669
 30
0.0
 11
62.280536421539182
 21
57.06060729124669
 31
0.0
  0
LINE
  5
B7D
  8
DRG
 62
     7
 10
75.331191210151701
 20
60.89733173546756
 30
0.0
 11
80.675802928264815
 21
60.89733173546756
 31
0.0
  0
LINE
  5
B7E
  8
DRG
 62
     7
 10
111.2523129779601
 20
45.06060729124669
 30
0.0
 11
111.2523129779601
 21
21.10260096837424
 31
0.0
  0
ARC
  5
B7F
  8
DRG
 62
     7
 10
92.427187023305351
 20
28.353548776339029
 30
0.0
 40
10.822390038051561
 50
283.70766965543032
 51
333.6028219757398
  0
ARC
  5
B80
  8
DRG
 62
     7
 10
97.617648860406234
 20
31.597336783954741
 30
0.0
 40
5.7980507916306081
 50
86.525641605078704
 51
165.57884810514051
  0
ARC
  5
B81
  8
DRG
 62
     7
 10
95.530005668639475
 20
29.734254501986349
 30
0.0
 40
5.9848030975807349
 50
273.19424815916329
 51
2.3998464036014582
  0
LINE
  5
B82
  8
DRG
 62
     7
 10
92.002287191588479
 20
27.619948938379359
 30
0.0
 11
92.002287191588479
 21
33.041326503689788
 31
0.0
  0
LINE
  5
B83
  8
DRG
 62
     7
 10
81.440258950509346
 20
32.349374231809861
 30
0.0
 11
81.440258950509346
 21
27.861637324670479
 31
0.0
  0
ARC
  5
B84
  8
DRG
 62
     7
 10
95.863486513980874
 20
27.619948938379359
 30
0.0
 40
3.8611993223923942
 50
180.0
 51
270.0
  0
LINE
  5
B85
  8
DRG
 62
     7
 10
102.6710305977499
 20
17.89352120355198
 30
0.0
 11
111.8021775281067
 21
17.893521203552009
 31
0.0
  0
ARC
  5
B86
  8
DRG
 62
     7
 10
118.87875205644769
 20
22.322305930199491
 30
0.0
 40
16.801915635954131
 50
175.83705377070211
 51
195.28307330703629
  0
LINE
  5
B87
  8
DRG
 62
     7
 10
102.1211660476033
 20
23.542010892025068
 30
0.0
 11
102.1211660476033
 21
21.102600968374329
 31
0.0
  0
ARC
  5
B88
  8
DRG
 62
     7
 10
128.00989898680459
 20
22.322305930199519
 30
0.0
 40
16.801915635954131
 50
175.83705377070211
 51
195.28307330703629
  0
LINE
  5
B89
  8
DRG
 62
     7
 10
101.5095597489034
 20
37.384730871555568
 30
0.0
 11
101.5095597489034
 21
29.483652989600269
 31
0.0
  0
LINE
  5
B8A
  8
DRG
 62
     7
 10
101.5095597489034
 20
37.384730871555568
 30
0.0
 11
97.266276327143615
 21
37.384730871555568
 31
0.0
  0
LINE
  5
B8B
  8
DRG
 62
     7
 10
100.2074865211779
 20
42.948196427274922
 30
0.0
 11
93.358174068518778
 21
42.948196427274922
 31
0.0
  0
ARC
  5
B8C
  8
DRG
 62
     7
 10
96.346287198785603
 20
47.313129977668268
 30
0.0
 40
3.8611993223923942
 50
0.0
 51
180.0
  0
LINE
  5
B8D
  8
DRG
 62
     7
 10
93.44025895050936
 20
57.06060729124669
 30
0.0
 11
99.252312977960173
 21
57.06060729124669
 31
0.0
  0
LINE
  5
B8E
  8
DRG
 62
     7
 10
92.485087876393209
 20
45.910674481046733
 30
0.0
 11
81.470405744524555
 21
45.910674481046733
 31
0.0
  0
LINE
  5
B8F
  8
DRG
 62
     7
 10
92.485087876393209
 20
47.313129977668268
 30
0.0
 11
92.485087876393209
 21
45.910674481046733
 31
0.0
  0
LINE
  5
B90
  8
DRG
 62
     7
 10
100.2074865211779
 20
47.313129977668268
 30
0.0
 11
100.2074865211779
 21
42.948196427274922
 31
0.0
  0
LINE
  5
B91
  8
DRG
 62
     7
 10
97.849782736700035
 20
60.89733173546756
 30
0.0
 11
103.66183676415081
 21
60.89733173546756
 31
0.0
  0
LINE
  5
B92
  8
DRG
 62
     7
 10
80.482556033578916
 20
69.876055965300111
 30
0.0
 11
83.501142256151056
 21
69.876055965300111
 31
0.0
  0
LINE
  5
B93
  8
DRG
 62
     7
 10
77.482556033578931
 20
94.593352860836134
 30
0.0
 11
84.553623006881026
 21
94.593352860836134
 31
0.0
  0
LINE
  5
B94
  8
DRG
 62
     7
 10
77.482556033578931
 20
101.9948050433795
 30
0.0
 11
84.553623006881026
 21
101.9948050433795
 31
0.0
  0
ARC
  5
B95
  8
DRG
 62
     7
 10
-128.9478892023152
 20
81.496816718755667
 30
0.0
 40
177.77324423808651
 50
357.1493405932253
 51
2.8506594067746178
  0
ARC
  5
B96
  8
DRG
 62
     7
 10
-63.673578078330422
 20
81.496816718755667
 30
0.0
 40
123.62323904739679
 50
356.01116722839038
 51
3.9888327716095779
  0
LINE
  5
B97
  8
DRG
 62
     7
 10
67.331191210151701
 20
94.593352860836134
 30
0.0
 11
67.331191210151701
 21
68.89733173546756
 31
0.0
  0
LINE
  5
B98
  8
DRG
 62
     7
 10
77.482556033578931
 20
94.593352860836134
 30
0.0
 11
77.482556033578931
 21
72.876055965300111
 31
0.0
  0
ARC
  5
B99
  8
DRG
 62
     7
 10
80.482556033578916
 20
72.876055965300111
 30
0.0
 40
3.0
 50
180.0
 51
270.0
  0
LINE
  5
B9A
  8
DRG
 62
     7
 10
62.478989637268569
 20
101.9948050433795
 30
0.0
 11
67.331191210151701
 21
101.9948050433795
 31
0.0
  0
LINE
  5
B9B
  8
DRG
 62
     7
 10
62.478989637268569
 20
94.593352860836134
 30
0.0
 11
67.331191210151701
 21
94.593352860836134
 31
0.0
  0
LINE
  5
B9C
  8
DRG
 62
     7
 10
62.478989637268569
 20
94.593352860836134
 30
0.0
 11
62.478989637268569
 21
101.9948050433795
 31
0.0
  0
LINE
  5
B9D
  8
DRG
 62
     7
 10
67.331191210151701
 20
107.1280725498991
 30
0.0
 11
77.482556033578931
 21
107.1280725498991
 31
0.0
  0
LINE
  5
B9E
  8
DRG
 62
     7
 10
67.331191210151701
 20
107.1280725498991
 30
0.0
 11
67.331191210151701
 21
101.9948050433795
 31
0.0
  0
LINE
  5
B9F
  8
DRG
 62
     7
 10
77.482556033578931
 20
101.9948050433795
 30
0.0
 11
77.482556033578931
 21
107.1280725498991
 31
0.0
  0
ARC
  5
BA0
  8
DRG
 62
     7
 10
-72.936249365281071
 20
81.496816718755667
 30
0.0
 40
177.77324423808651
 50
357.1493405932253
 51
2.8506594067746178
  0
ARC
  5
BA1
  8
DRG
 62
     7
 10
274.44787133523357
 20
81.496816718755667
 30
0.0
 40
177.77324423808651
 50
177.14934059322539
 51
182.85065940677461
  0
ARC
  5
BA2
  8
DRG
 62
     7
 10
209.1735602112488
 20
81.496816718755667
 30
0.0
 40
123.62323904739679
 50
176.01116722839041
 51
183.98883277160959
  0
ARC
  5
BA3
  8
DRG
 62
     7
 10
100.75581098497619
 20
72.655643349176444
 30
0.0
 40
3.8611993223923942
 50
180.0
 51
0.0
  0
ARC
  5
BA4
  8
DRG
 62
     7
 10
82.991751330883176
 20
73.025526152493626
 30
0.0
 40
3.1903983410800212
 50
279.18737892597682
 51
298.2359877234839
  0
ARC
  5
BA5
  8
DRG
 62
     7
 10
100.75581098497619
 20
90.337990088334877
 30
0.0
 40
3.8611993223923942
 50
0.0
 51
180.0
  0
ARC
  5
BA6
  8
DRG
 62
     7
 10
97.849782736700035
 20
90.096301702043775
 30
0.0
 40
12.0
 50
90.0
 51
180.0
  0
LINE
  5
BA7
  8
DRG
 62
     7
 10
84.553623006881026
 20
101.9948050433795
 30
0.0
 11
84.553623006881026
 21
94.593352860836134
 31
0.0
  0
LINE
  5
BA8
  8
DRG
 62
     7
 10
97.849782736700035
 20
102.0963017020437
 30
0.0
 11
103.66183676415081
 21
102.0963017020437
 31
0.0
  0
LINE
  5
BA9
  8
DRG
 62
     7
 10
130.05101171535759
 20
62.115696081838678
 30
0.0
 11
130.05101171535759
 21
85.569427875032716
 31
0.0
  0
LINE
  5
BAA
  8
DRG
 62
     7
 10
119.0096173095521
 20
102.0369718403326
 30
0.0
 11
119.0096173095521
 21
62.115696081838678
 31
0.0
  0
LINE
  5
BAB
  8
DRG
 62
     7
 10
165.4162645291251
 20
78.31140447718235
 30
0.0
 11
171.78072804963571
 21
62.115696081838678
 31
0.0
  0
LINE
  5
BAC
  8
DRG
 62
     7
 10
153.2899770207527
 20
82.583583780839604
 30
0.0
 11
161.3332883364622
 21
62.115696081838678
 31
0.0
  0
LINE
  5
BAD
  8
DRG
 62
     7
 10
153.2899770207527
 20
102.0369718403326
 30
0.0
 11
153.2899770207527
 21
62.115696081838678
 31
0.0
  0
LINE
  5
BAE
  8
DRG
 62
     7
 10
142.11987082690661
 20
102.0369718403326
 30
0.0
 11
142.11987082690661
 21
62.115696081838678
 31
0.0
  0
ARC
  5
BAF
  8
DRG
 62
     7
 10
160.28928843394391
 20
53.283870983727013
 30
0.0
 40
20.648450998997479
 50
209.50344874889601
 51
257.2400493880096
  0
LINE
  5
BB0
  8
DRG
 62
     7
 10
141.28023066635379
 20
29.95929893143898
 30
0.0
 11
152.32505959223769
 21
29.95929893143898
 31
0.0
  0
ARC
  5
BB1
  8
DRG
 62
     7
 10
153.28023066635379
 20
45.06060729124669
 30
0.0
 40
12.0
 50
90.0
 51
161.62913043773071
  0
LINE
  5
BB2
  8
DRG
 62
     7
 10
153.2899770207527
 20
62.115696081838678
 30
0.0
 11
142.11987082690661
 21
62.115696081838678
 31
0.0
  0
LINE
  5
BB3
  8
DRG
 62
     7
 10
127.2345352189994
 20
17.28637227261407
 30
0.0
 11
127.2345352189994
 21
40.740104065808111
 31
0.0
  0
LINE
  5
BB4
  8
DRG
 62
     7
 10
116.19314081319391
 20
57.207648031108022
 30
0.0
 11
116.19314081319391
 21
17.28637227261407
 31
0.0
  0
LINE
  5
BB5
  8
DRG
 62
     7
 10
116.19314081319391
 20
17.28637227261407
 30
0.0
 11
127.2345352189994
 21
17.28637227261407
 31
0.0
  0
LINE
  5
BB6
  8
DRG
 62
     7
 10
141.28023066635379
 20
29.95929893143898
 30
0.0
 11
141.28023066635379
 21
27.861637324670479
 31
0.0
  0
ARC
  5
BB7
  8
DRG
 62
     7
 10
135.496228002728
 20
47.014815876282221
 30
0.0
 40
10.2528691067876
 50
83.7965056449153
 51
143.68693404466879
  0
ARC
  5
BB8
  8
DRG
 62
     7
 10
135.23453521899941
 20
40.740104065808111
 30
0.0
 40
8.0
 50
90.0
 51
180.0
  0
LINE
  5
BB9
  8
DRG
 62
     7
 10
119.0096173095521
 20
62.115696081838678
 30
0.0
 11
130.05101171535759
 21
62.115696081838678
 31
0.0
  0
LINE
  5
BBA
  8
DRG
 62
     7
 10
116.19314081319391
 20
57.207648031108022
 30
0.0
 11
127.2345352189994
 21
57.207648031108022
 31
0.0
  0
LINE
  5
BBB
  8
DRG
 62
     7
 10
127.2345352189994
 20
53.0865336948413
 30
0.0
 11
127.2345352189994
 21
57.207648031108079
 31
0.0
  0
LINE
  5
BBC
  8
DRG
 62
     7
 10
136.6041529029215
 20
57.207648031108022
 30
0.0
 11
136.6041529029215
 21
48.740104065808111
 31
0.0
  0
LINE
  5
BBD
  8
DRG
 62
     7
 10
136.6041529029215
 20
48.740104065808111
 30
0.0
 11
135.23453521899941
 21
48.740104065808111
 31
0.0
  0
ARC
  5
BBE
  8
DRG
 62
     7
 10
149.15275272984229
 20
46.50373678022958
 30
0.0
 40
7.6283568598071962
 50
162.14543119997589
 51
216.29372603558031
  0
ARC
  5
BBF
  8
DRG
 62
     7
 10
164.68224204875119
 20
54.775095406185869
 30
0.0
 40
15.14236331012172
 50
222.29150451995909
 51
257.53093545652467
  0
ARC
  5
BC0
  8
DRG
 62
     7
 10
159.223234097084
 20
28.191351553125511
 30
0.0
 40
12.0
 50
8.4721667757414814
 51
79.486612768212169
  0
LINE
  5
BC1
  8
DRG
 62
     7
 10
160.04745823702251
 20
29.300230626583438
 30
0.0
 11
160.04745823702251
 21
27.619948938379359
 31
0.0
  0
LINE
  5
BC2
  8
DRG
 62
     7
 10
152.32505959223769
 20
27.619948938379359
 30
0.0
 11
152.32505959223769
 21
29.95929893143898
 31
0.0
  0
ARC
  5
BC3
  8
DRG
 62
     7
 10
156.18625891463009
 20
27.619948938379359
 30
0.0
 40
3.8611993223923942
 50
180.0
 51
0.0
  0
ARC
  5
BC4
  8
DRG
 62
     7
 10
153.8611380906755
 20
26.699836406787622
 30
0.0
 40
6.7106338785129491
 50
22.799249772319211
 51
73.841024038773142
  0
LINE
  5
BC5
  8
DRG
 62
     7
 10
171.0922846938046
 20
29.95929893143915
 30
0.0
 11
171.0922846938046
 21
27.861637324670479
 31
0.0
  0
LINE
  5
BC6
  8
DRG
 62
     7
 10
171.0912486890569
 20
45.21828747592599
 30
0.0
 11
160.04745823702251
 21
45.21828747592599
 31
0.0
  0
ARC
  5
BC7
  8
DRG
 62
     7
 10
159.0922846938046
 20
45.06060729124669
 30
0.0
 40
12.0
 50
0.7528890912800703
 51
90.0
  0
LINE
  5
BC8
  8
DRG
 62
     7
 10
161.3332883364622
 20
62.115696081838678
 30
0.0
 11
171.78072804963571
 21
62.115696081838678
 31
0.0
  0
ARC
  5
BC9
  8
DRG
 62
     7
 10
156.18625891463009
 20
46.421288526219307
 30
0.0
 40
3.8611993223923942
 50
0.0
 51
161.4735686305323
  0
ARC
  5
BCA
  8
DRG
 62
     7
 10
155.35373214152469
 20
46.850626662257177
 30
0.0
 40
2.938857360854815
 50
164.25399710017811
 51
230.4135202949499
  0
LINE
  5
BCB
  8
DRG
 62
     7
 10
160.04745823702251
 20
46.421288526219307
 30
0.0
 11
160.04745823702251
 21
45.21828747592599
 31
0.0
  0
LINE
  5
BCC
  8
DRG
 62
     7
 10
153.28023066635379
 20
57.06060729124669
 30
0.0
 11
159.0922846938046
 21
57.06060729124669
 31
0.0
  0
LINE
  5
BCD
  8
DRG
 62
     7
 10
142.11987082690661
 20
102.0369718403326
 30
0.0
 11
153.2899770207527
 21
102.0369718403326
 31
0.0
  0
ARC
  5
BCE
  8
DRG
 62
     7
 10
138.05101171535759
 20
85.569427875032716
 30
0.0
 40
8.0
 50
90.0
 51
180.0
  0
ARC
  5
BCF
  8
DRG
 62
     7
 10
-7.66193824129624
 20
81.496816718755667
 30
0.0
 40
123.62323904739679
 50
356.01116722839038
 51
3.9888327716095779
  0
ARC
  5
BD0
  8
DRG
 62
     7
 10
138.3127044990861
 20
91.844139685506775
 30
0.0
 40
10.2528691067876
 50
83.7965056449153
 51
143.68693404466879
  0
LINE
  5
BD1
  8
DRG
 62
     7
 10
119.0096173095521
 20
102.0369718403326
 30
0.0
 11
130.05101171535759
 21
102.0369718403326
 31
0.0
  0
LINE
  5
BD2
  8
DRG
 62
     7
 10
130.05101171535759
 20
97.915857504065855
 30
0.0
 11
130.05101171535759
 21
102.0369718403326
 31
0.0
  0
LINE
  5
BD3
  8
DRG
 62
     7
 10
139.4206293992797
 20
102.0369718403326
 30
0.0
 11
139.4206293992797
 21
93.569427875032716
 31
0.0
  0
LINE
  5
BD4
  8
DRG
 62
     7
 10
139.4206293992797
 20
93.569427875032716
 30
0.0
 11
138.05101171535759
 21
93.569427875032716
 31
0.0
  0
LINE
  5
BD5
  8
DRG
 62
     7
 10
153.2899770207527
 20
82.583583780839604
 30
0.0
 11
160.9346181585602
 21
102.0369718403326
 31
0.0
  0
LINE
  5
BD6
  8
DRG
 62
     7
 10
176.9709164189357
 20
78.31140447718235
 30
0.0
 11
176.9709164189357
 21
86.855763084496857
 31
0.0
  0
LINE
  5
BD7
  8
DRG
 62
     7
 10
176.9709164189357
 20
78.31140447718235
 30
0.0
 11
165.4162645291251
 21
78.31140447718235
 31
0.0
  0
LINE
  5
BD8
  8
DRG
 62
     7
 10
160.9346181585602
 20
102.0369718403326
 30
0.0
 11
171.38205787173379
 21
102.0369718403326
 31
0.0
  0
LINE
  5
BD9
  8
DRG
 62
     7
 10
165.4162645291251
 20
86.855763084496857
 30
0.0
 11
171.38205787173379
 21
102.0369718403326
 31
0.0
  0
LINE
  5
BDA
  8
DRG
 62
     7
 10
176.9709164189357
 20
86.855763084496857
 30
0.0
 11
165.4162645291251
 21
86.855763084496857
 31
0.0
  0
ENDBLK
  5
BDC
  8
0
  0
BLOCK
  8
0
  2
ROTORK_GEARS_LOGO
 70
     0
 10
0.0
 20
0.0
 30
0.0
  3
ROTORK_GEARS_LOGO
  1

  0
INSERT
  5
BDE
  8
0
  2
LOGO
 10
16.592937132437999
 20
3.1720898939720419
 30
0.0
  0
ENDBLK
  5
BE0
  8
0
  0
BLOCK
  8
0
  2
*U5
 70
     1
 10
0.0
 20
0.0
 30
0.0
  3
*U5
  1

  0
SOLID
  5
CC8
  8
DRG
  6
CONTINUOUS
 62
     7
 10
27.591723902900771
 20
3.5869302298372978
 30
0.0
 11
18.100585347853119
 21
3.392610111620797
 31
0.0
 12
25.69916102541524
 22
3.392610111620797
 32
0.0
 13
25.69916102541524
 23
3.392610111620797
 33
0.0
210
0.0
220
0.0
230
1.0
  0
SOLID
  5
CC9
  8
DRG
  6
CONTINUOUS
 62
     7
 10
16.187882817280752
 20
3.5947021638827041
 30
0.0
 11
18.100585347853119
 21
3.392610111620797
 31
0.0
 12
27.591723902900771
 22
3.5869302298372978
 32
0.0
 13
27.591723902900771
 23
3.5869302298372978
 33
0.0
210
0.0
220
0.0
230
1.0
  0
SOLID
  5
CCA
  8
DRG
  6
CONTINUOUS
 62
     7
 10
29.43247673073007
 20
4.067745766627044
 30
0.0
 11
16.187882817280752
 21
3.5947021638827041
 31
0.0
 12
27.591723902900771
 22
3.5869302298372978
 32
0.0
 13
27.591723902900771
 23
3.5869302298372978
 33
0.0
210
0.0
220
0.0
230
1.0
  0
SOLID
  5
CCB
  8
DRG
  6
CONTINUOUS
 62
     7
 10
14.34356828270448
 20
4.1403907798498434
 30
0.0
 11
16.187882817280752
 21
3.5947021638827041
 31
0.0
 12
29.43247673073007
 22
4.067745766627044
 32
0.0
 13
29.43247673073007
 23
4.067745766627044
 33
0.0
210
0.0
220
0.0
230
1.0
  0
SOLID
  5
CCC
  8
DRG
  6
CONTINUOUS
 62
     7
 10
31.178312160316999
 20
4.823796827322667
 30
0.0
 11
14.34356828270448
 21
4.1403907798498434
 31
0.0
 12
29.43247673073007
 22
4.067745766627044
 32
0.0
 13
29.43247673073007
 23
4.067745766627044
 33
0.0
  0
SOLID
  5
CCD
  8
DRG
  6
CONTINUOUS
 62
     7
 10
12.628832942518519
 20
5.011570945580659
 30
0.0
 11
14.34356828270448
 21
4.1403907798498434
 31
0.0
 12
31.178312160316999
 22
4.823796827322667
 32
0.0
 13
31.178312160316999
 23
4.823796827322667
 33
0.0
210
0.0
220
0.0
230
1.0
  0
SOLID
  5
CCE
  8
DRG
  6
CONTINUOUS
 62
     7
 10
32.788345649587569
 20
5.83737796221381
 30
0.0
 11
12.628832942518519
 21
5.011570945580659
 31
0.0
 12
31.178312160316999
 22
4.823796827322667
 32
0.0
 13
31.178312160316999
 23
4.823796827322667
 33
0.0
210
0.0
220
0.0
230
1.0
  0
SOLID
  5
CCF
  8
DRG
  6
CONTINUOUS
 62
     7
 10
11.10056877931466
 20
6.1793383948239633
 30
0.0
 11
12.628832942518519
 21
5.011570945580659
 31
0.0
 12
32.788345649587569
 22
5.83737796221381
 32
0.0
 13
32.788345649587569
 23
5.83737796221381
 33
0.0
210
0.0
220
0.0
230
1.0
  0
SOLID
  5
CD0
  8
DRG
  6
CONTINUOUS
 62
     7
 10
34.22487291048742
 20
7.084752798528684
 30
0.0
 11
11.10056877931466
 21
6.1793383948239633
 31
0.0
 12
32.788345649587569
 22
5.83737796221381
 32
0.0
 13
32.788345649587569
 23
5.83737796221381
 33
0.0
210
0.0
220
0.0
230
1.0
  0
SOLID
  5
CD1
  8
DRG
  6
CONTINUOUS
 62
     7
 10
9.8094809813111574
 20
7.6049486030828204
 30
0.0
 11
11.10056877931466
 21
6.1793383948239633
 31
0.0
 12
34.22487291048742
 22
7.084752798528684
 32
0.0
 13
34.22487291048742
 23
7.084752798528684
 33
0.0
  0
SOLID
  5
CD2
  8
DRG
  6
CONTINUOUS
 62
     7
 10
35.454252880266083
 20
8.5367099065339396
 30
0.0
 11
9.8094809813111574
 21
7.6049486030828204
 31
0.0
 12
34.22487291048742
 22
7.084752798528684
 32
0.0
 13
34.22487291048742
 23
7.084752798528684
 33
0.0
210
0.0
220
0.0
230
1.0
  0
SOLID
  5
CD3
  8
DRG
  6
CONTINUOUS
 62
     7
 10
8.7984056310258474
 20
9.2411022645984033
 30
0.0
 11
9.8094809813111574
 21
7.6049486030828204
 31
0.0
 12
35.454252880266083
 22
8.5367099065339396
 32
0.0
 13
35.454252880266083
 23
8.5367099065339396
 33
0.0
210
0.0
220
0.0
230
1.0
  0
SOLID
  5
CD4
  8
DRG
  6
CONTINUOUS
 62
     7
 10
23.40592258650463
 20
9.658646647821115
 30
0.0
 11
8.7984056310258474
 21
9.2411022645984033
 31
0.0
 12
35.454252880266083
 22
8.5367099065339396
 32
0.0
 13
35.454252880266083
 23
8.5367099065339396
 33
0.0
210
0.0
220
0.0
230
1.0
  0
SOLID
  5
CD5
  8
DRG
  6
CONTINUOUS
 62
     7
 10
22.406570664932531
 20
9.7902138242648444
 30
0.0
 11
8.7984056310258474
 21
9.2411022645984033
 31
0.0
 12
23.40592258650463
 22
9.658646647821115
 32
0.0
 13
23.40592258650463
 23
9.658646647821115
 33
0.0
  0
SOLID
  5
CD6
  8
DRG
  6
CONTINUOUS
 62
     7
 10
24.405274508076729
 20
9.7902138242648462
 30
0.0
 11
23.40592258650463
 21
9.658646647821115
 31
0.0
 12
35.454252880266083
 22
8.5367099065339396
 32
0.0
 13
35.454252880266083
 23
8.5367099065339396
 33
0.0
210
0.0
220
0.0
230
1.0
  0
SOLID
  5
CD7
  8
DRG
  6
CONTINUOUS
 62
     7
 10
36.447695538829151
 20
10.1592468822997
 30
0.0
 11
24.405274508076729
 21
9.7902138242648462
 31
0.0
 12
35.454252880266083
 22
8.5367099065339396
 32
0.0
 13
35.454252880266083
 23
8.5367099065339396
 33
0.0
210
0.0
220
0.0
230
1.0
  0
SOLID
  5
CD8
  8
DRG
  6
CONTINUOUS
 62
     7
 10
21.475322925308429
 20
10.175949267946431
 30
0.0
 11
8.7984056310258474
 21
9.2411022645984033
 31
0.0
 12
22.406570664932531
 22
9.7902138242648444
 32
0.0
 13
22.406570664932531
 23
9.7902138242648444
 33
0.0
210
0.0
220
0.0
230
1.0
  0
SOLID
  5
CD9
  8
DRG
  6
CONTINUOUS
 62
     7
 10
25.336522247700831
 20
10.175949267946431
 30
0.0
 11
24.405274508076729
 21
9.7902138242648462
 31
0.0
 12
36.447695538829151
 22
10.1592468822997
 32
0.0
 13
36.447695538829151
 23
10.1592468822997
 33
0.0
210
0.0
220
0.0
230
1.0
  0
SOLID
  5
CDA
  8
DRG
  6
CONTINUOUS
 62
     7
 10
20.675642362128059
 20
10.78956574583694
 30
0.0
 11
8.7984056310258474
 21
9.2411022645984033
 31
0.0
 12
21.475322925308429
 22
10.175949267946431
 32
0.0
 13
21.475322925308429
 23
10.175949267946431
 33
0.0
210
0.0
220
0.0
230
1.0
  0
SOLID
  5
CDB
  8
DRG
  6
CONTINUOUS
 62
     7
 10
26.136202810881191
 20
10.78956574583694
 30
0.0
 11
25.336522247700831
 21
10.175949267946431
 31
0.0
 12
36.447695538829151
 22
10.1592468822997
 32
0.0
 13
36.447695538829151
 23
10.1592468822997
 33
0.0
210
0.0
220
0.0
230
1.0
  0
SOLID
  5
CDC
  8
DRG
  6
CONTINUOUS
 62
     7
 10
8.10088847740281
 20
11.033514602328481
 30
0.0
 11
8.7984056310258474
 21
9.2411022645984033
 31
0.0
 12
20.675642362128059
 22
10.78956574583694
 32
0.0
 13
20.675642362128059
 23
10.78956574583694
 33
0.0
  0
SOLID
  5
CDD
  8
DRG
  6
CONTINUOUS
 62
     7
 10
20.062025884237549
 20
11.5892463090173
 30
0.0
 11
8.10088847740281
 21
11.033514602328481
 31
0.0
 12
20.675642362128059
 22
10.78956574583694
 32
0.0
 13
20.675642362128059
 23
10.78956574583694
 33
0.0
210
0.0
220
0.0
230
1.0
  0
SOLID
  5
CDE
  8
DRG
  6
CONTINUOUS
 62
     7
 10
26.7498192887717
 20
11.589246309017311
 30
0.0
 11
26.136202810881191
 21
10.78956574583694
 31
0.0
 12
36.447695538829151
 22
10.1592468822997
 32
0.0
 13
36.447695538829151
 23
10.1592468822997
 33
0.0
210
0.0
220
0.0
230
1.0
  0
SOLID
  5
CDF
  8
DRG
  6
CONTINUOUS
 62
     7
 10
37.18193612279525
 20
11.914366627057049
 30
0.0
 11
26.7498192887717
 21
11.589246309017311
 31
0.0
 12
36.447695538829151
 22
10.1592468822997
 32
0.0
 13
36.447695538829151
 23
10.1592468822997
 33
0.0
  0
SOLID
  5
CE0
  8
DRG
  6
CONTINUOUS
 62
     7
 10
19.67629044055596
 20
12.5204940486414
 30
0.0
 11
8.10088847740281
 21
11.033514602328481
 31
0.0
 12
20.062025884237549
 22
11.5892463090173
 32
0.0
 13
20.062025884237549
 23
11.5892463090173
 33
0.0
210
0.0
220
0.0
230
1.0
  0
SOLID
  5
CE1
  8
DRG
  6
CONTINUOUS
 62
     7
 10
27.13555473245329
 20
12.52049404864141
 30
0.0
 11
26.7498192887717
 21
11.589246309017311
 31
0.0
 12
37.18193612279525
 22
11.914366627057049
 32
0.0
 13
37.18193612279525
 23
11.914366627057049
 33
0.0
210
0.0
220
0.0
230
1.0
  0
SOLID
  5
CE2
  8
DRG
  6
CONTINUOUS
 62
     7
 10
7.7400719452999134
 20
12.9227164439025
 30
0.0
 11
8.10088847740281
 21
11.033514602328481
 31
0.0
 12
19.67629044055596
 22
12.5204940486414
 32
0.0
 13
19.67629044055596
 23
12.5204940486414
 33
0.0
210
0.0
220
0.0
230
1.0
  0
SOLID
  5
CE3
  8
DRG
  6
CONTINUOUS
 62
     7
 10
19.544723264112228
 20
13.51984597021351
 30
0.0
 11
7.7400719452999134
 21
12.9227164439025
 31
0.0
 12
19.67629044055596
 22
12.5204940486414
 32
0.0
 13
19.67629044055596
 23
12.5204940486414
 33
0.0
210
0.0
220
0.0
230
1.0
  0
SOLID
  5
CE4
  8
DRG
  6
CONTINUOUS
 62
     7
 10
27.267121908897021
 20
13.51984597021351
 30
0.0
 11
27.13555473245329
 21
12.52049404864141
 31
0.0
 12
37.18193612279525
 22
11.914366627057049
 32
0.0
 13
37.18193612279525
 23
11.914366627057049
 33
0.0
210
0.0
220
0.0
230
1.0
  0
SOLID
  5
CE5
  8
DRG
  6
CONTINUOUS
 62
     7
 10
37.639779947293839
 20
13.760967175618781
 30
0.0
 11
27.267121908897021
 21
13.51984597021351
 31
0.0
 12
37.18193612279525
 22
11.914366627057049
 32
0.0
 13
37.18193612279525
 23
11.914366627057049
 33
0.0
210
0.0
220
0.0
230
1.0
  0
SOLID
  5
CE6
  8
DRG
  6
CONTINUOUS
 62
     7
 10
19.544723264112228
 20
13.51984597021351
 30
0.0
 11
19.544723264112239
 21
14.846027306936771
 31
0.0
 12
7.7279273094568479
 22
14.846027306936771
 32
0.0
 13
7.7279273094568479
 23
14.846027306936771
 33
0.0
210
0.0
220
0.0
230
1.0
  0
SOLID
  5
CE7
  8
DRG
  6
CONTINUOUS
 62
     7
 10
7.7279273094568479
 20
14.846027306936771
 30
0.0
 11
7.7400719452999134
 21
12.9227164439025
 31
0.0
 12
19.544723264112228
 22
13.51984597021351
 32
0.0
 13
19.544723264112228
 23
13.51984597021351
 33
0.0
  0
SOLID
  5
CE8
  8
DRG
  6
CONTINUOUS
 62
     7
 10
151.40301708587111
 20
16.00937723752882
 30
0.0
 11
153.28023066635379
 21
15.861637324670481
 31
0.0
 12
159.0922846938046
 22
15.861637324670481
 32
0.0
 13
159.0922846938046
 23
15.861637324670481
 33
0.0
  0
SOLID
  5
CE9
  8
DRG
  6
CONTINUOUS
 62
     7
 10
54.591268813605609
 20
16.00937723752882
 30
0.0
 11
56.468482394088369
 21
15.861637324670481
 31
0.0
 12
62.280536421539182
 22
15.861637324670481
 32
0.0
 13
62.280536421539182
 23
15.861637324670481
 33
0.0
210
0.0
220
0.0
230
1.0
  0
SOLID
  5
CEA
  8
DRG
  6
CONTINUOUS
 62
     7
 10
64.157750002021956
 20
16.009377237528831
 30
0.0
 11
54.591268813605609
 21
16.00937723752882
 31
0.0
 12
62.280536421539182
 22
15.861637324670481
 32
0.0
 13
62.280536421539182
 23
15.861637324670481
 33
0.0
210
0.0
220
0.0
230
1.0
  0
SOLID
  5
CEB
  8
DRG
  6
CONTINUOUS
 62
     7
 10
160.96949827428739
 20
16.009377237528831
 30
0.0
 11
151.40301708587111
 21
16.00937723752882
 31
0.0
 12
159.0922846938046
 22
15.861637324670481
 32
0.0
 13
159.0922846938046
 23
15.861637324670481
 33
0.0
210
0.0
220
0.0
230
1.0
  0
SOLID
  5
CEC
  8
DRG
  6
CONTINUOUS
 62
     7
 10
52.760278461589031
 20
16.448959129128621
 30
0.0
 11
54.591268813605609
 21
16.00937723752882
 31
0.0
 12
64.157750002021956
 22
16.009377237528831
 32
0.0
 13
64.157750002021956
 23
16.009377237528831
 33
0.0
210
0.0
220
0.0
230
1.0
  0
SOLID
  5
CED
  8
DRG
  6
CONTINUOUS
 62
     7
 10
162.800488626304
 20
16.448959129128632
 30
0.0
 11
151.40301708587111
 21
16.00937723752882
 31
0.0
 12
160.96949827428739
 22
16.009377237528831
 32
0.0
 13
160.96949827428739
 23
16.009377237528831
 33
0.0
  0
SOLID
  5
CEE
  8
DRG
  6
CONTINUOUS
 62
     7
 10
65.988740354038555
 20
16.448959129128632
 30
0.0
 11
52.760278461589031
 21
16.448959129128621
 31
0.0
 12
64.157750002021956
 22
16.009377237528831
 32
0.0
 13
64.157750002021956
 23
16.009377237528831
 33
0.0
  0
SOLID
  5
CEF
  8
DRG
  6
CONTINUOUS
 62
     7
 10
149.5720267338545
 20
16.448959129128632
 30
0.0
 11
151.40301708587111
 21
16.00937723752882
 31
0.0
 12
162.800488626304
 22
16.448959129128632
 32
0.0
 13
162.800488626304
 23
16.448959129128632
 33
0.0
210
0.0
220
0.0
230
1.0
  0
SOLID
  5
CF0
  8
DRG
  6
CONTINUOUS
 62
     7
 10
51.020596397213851
 20
17.169559034410039
 30
0.0
 11
52.760278461589031
 21
16.448959129128621
 31
0.0
 12
65.988740354038555
 22
16.448959129128632
 32
0.0
 13
65.988740354038555
 23
16.448959129128632
 33
0.0
210
0.0
220
0.0
230
1.0
  0
SOLID
  5
CF1
  8
DRG
  6
CONTINUOUS
 62
     7
 10
67.728422418413743
 20
17.16955903441006
 30
0.0
 11
51.020596397213851
 21
17.169559034410039
 31
0.0
 12
65.988740354038555
 22
16.448959129128632
 32
0.0
 13
65.988740354038555
 23
16.448959129128632
 33
0.0
  0
SOLID
  5
CF2
  8
DRG
  6
CONTINUOUS
 62
     7
 10
164.54017069067919
 20
17.16955903441006
 30
0.0
 11
149.5720267338545
 21
16.448959129128632
 31
0.0
 12
162.800488626304
 22
16.448959129128632
 32
0.0
 13
162.800488626304
 23
16.448959129128632
 33
0.0
210
0.0
220
0.0
230
1.0
  0
SOLID
  5
CF3
  8
DRG
  6
CONTINUOUS
 62
     7
 10
147.83234466947931
 20
17.16955903441006
 30
0.0
 11
149.5720267338545
 21
16.448959129128632
 31
0.0
 12
164.54017069067919
 22
17.16955903441006
 32
0.0
 13
164.54017069067919
 23
17.16955903441006
 33
0.0
210
0.0
220
0.0
230
1.0
  0
SOLID
  5
CF4
  8
DRG
  6
CONTINUOUS
 62
     7
 10
93.395207810878105
 20
17.299278596169501
 30
0.0
 11
90.043755964704772
 21
17.09444119032354
 31
0.0
 12
91.728558738884544
 22
17.048348788901301
 32
0.0
 13
91.728558738884544
 23
17.048348788901301
 33
0.0
  0
SOLID
  5
CF5
  8
DRG
  6
CONTINUOUS
 62
     7
 10
88.393319299007203
 20
17.436118976949761
 30
0.0
 11
90.043755964704772
 21
17.09444119032354
 31
0.0
 12
93.395207810878105
 22
17.299278596169501
 32
0.0
 13
93.395207810878105
 23
17.299278596169501
 33
0.0
210
0.0
220
0.0
230
1.0
  0
SOLID
  5
CF6
  8
DRG
  6
CONTINUOUS
 62
     7
 10
94.991749269489972
 20
17.839408458597301
 30
0.0
 11
88.393319299007203
 21
17.436118976949761
 31
0.0
 12
93.395207810878105
 22
17.299278596169501
 32
0.0
 13
93.395207810878105
 23
17.299278596169501
 33
0.0
210
0.0
220
0.0
230
1.0
  0
SOLID
  5
CF7
  8
DRG
  6
CONTINUOUS
 62
     7
 10
86.828697268901934
 20
18.062731137909029
 30
0.0
 11
88.393319299007203
 21
17.436118976949761
 31
0.0
 12
94.991749269489972
 22
17.839408458597301
 32
0.0
 13
94.991749269489972
 23
17.839408458597301
 33
0.0
  0
SOLID
  5
CF8
  8
DRG
  6
CONTINUOUS
 62
     7
 10
49.415059366578753
 20
18.15343339217106
 30
0.0
 11
51.020596397213851
 21
17.169559034410039
 31
0.0
 12
67.728422418413743
 22
17.16955903441006
 32
0.0
 13
67.728422418413743
 23
17.16955903441006
 33
0.0
210
0.0
220
0.0
230
1.0
  0
SOLID
  5
CF9
  8
DRG
  6
CONTINUOUS
 62
     7
 10
69.333959449048862
 20
18.153433392171099
 30
0.0
 11
49.415059366578753
 21
18.15343339217106
 31
0.0
 12
67.728422418413743
 22
17.16955903441006
 32
0.0
 13
67.728422418413743
 23
17.16955903441006
 33
0.0
210
0.0
220
0.0
230
1.0
  0
SOLID
  5
CFA
  8
DRG
  6
CONTINUOUS
 62
     7
 10
166.1457077213143
 20
18.153433392171099
 30
0.0
 11
147.83234466947931
 21
17.16955903441006
 31
0.0
 12
164.54017069067919
 22
17.16955903441006
 32
0.0
 13
164.54017069067919
 23
17.16955903441006
 33
0.0
210
0.0
220
0.0
230
1.0
  0
SOLID
  5
CFB
  8
DRG
  6
CONTINUOUS
 62
     7
 10
146.22680763884421
 20
18.153433392171099
 30
0.0
 11
147.83234466947931
 21
17.16955903441006
 31
0.0
 12
166.1457077213143
 22
18.153433392171099
 32
0.0
 13
166.1457077213143
 23
18.153433392171099
 33
0.0
210
0.0
220
0.0
230
1.0
  0
SOLID
  5
CFC
  8
DRG
  6
CONTINUOUS
 62
     7
 10
96.774922223832405
 20
18.44288155552006
 30
0.0
 11
86.828697268901934
 21
18.062731137909029
 31
0.0
 12
94.991749269489972
 22
17.839408458597301
 32
0.0
 13
94.991749269489972
 23
17.839408458597301
 33
0.0
  0
SOLID
  5
CFD
  8
DRG
  6
CONTINUOUS
 62
     7
 10
85.398663329684837
 20
18.95474449545469
 30
0.0
 11
86.828697268901934
 21
18.062731137909029
 31
0.0
 12
96.774922223832405
 22
18.44288155552006
 32
0.0
 13
96.774922223832405
 23
18.44288155552006
 33
0.0
210
0.0
220
0.0
230
1.0
  0
SOLID
  5
CFE
  8
DRG
  6
CONTINUOUS
 62
     7
 10
16.63887701418912
 20
19.193077338746122
 30
0.0
 11
18.58303542025671
 21
18.945146626805109
 31
0.0
 12
20.271303339863209
 22
19.129413603414459
 32
0.0
 13
20.271303339863209
 23
19.129413603414459
 33
0.0
210
0.0
220
0.0
230
1.0
  0
SOLID
  5
CFF
  8
DRG
  6
CONTINUOUS
 62
     7
 10
98.426543494326594
 20
19.34622686195554
 30
0.0
 11
85.398663329684837
 21
18.95474449545469
 31
0.0
 12
96.774922223832405
 22
18.44288155552006
 32
0.0
 13
96.774922223832405
 23
18.44288155552006
 33
0.0
210
0.0
220
0.0
230
1.0
  0
SOLID
  5
D00
  8
DRG
  6
CONTINUOUS
 62
     7
 10
47.983201019849858
 20
19.37635595043184
 30
0.0
 11
49.415059366578753
 21
18.15343339217106
 31
0.0
 12
69.333959449048862
 22
18.153433392171099
 32
0.0
 13
69.333959449048862
 23
18.153433392171099
 33
0.0
  0
SOLID
  5
D01
  8
DRG
  6
CONTINUOUS
 62
     7
 10
70.76581779577775
 20
19.376355950431901
 30
0.0
 11
47.983201019849858
 21
19.37635595043184
 31
0.0
 12
69.333959449048862
 22
18.153433392171099
 32
0.0
 13
69.333959449048862
 23
18.153433392171099
 33
0.0
210
0.0
220
0.0
230
1.0
  0
SOLID
  5
D02
  8
DRG
  6
CONTINUOUS
 62
     7
 10
167.57756606804321
 20
19.376355950431901
 30
0.0
 11
146.22680763884421
 21
18.153433392171099
 31
0.0
 12
166.1457077213143
 22
18.153433392171099
 32
0.0
 13
166.1457077213143
 23
18.153433392171099
 33
0.0
210
0.0
220
0.0
230
1.0
  0
SOLID
  5
D03
  8
DRG
  6
CONTINUOUS
 62
     7
 10
144.79494929211521
 20
19.376355950431911
 30
0.0
 11
146.22680763884421
 21
18.153433392171099
 31
0.0
 12
167.57756606804321
 22
19.376355950431901
 32
0.0
 13
167.57756606804321
 23
19.376355950431901
 33
0.0
210
0.0
220
0.0
230
1.0
  0
SOLID
  5
D04
  8
DRG
  6
CONTINUOUS
 62
     7
 10
102.3181837587821
 20
19.484710699009419
 30
0.0
 11
102.6710305977499
 21
17.89352120355198
 31
0.0
 12
111.8021775281067
 22
17.893521203552009
 32
0.0
 13
111.8021775281067
 23
17.893521203552009
 33
0.0
210
0.0
220
0.0
230
1.0
  0
SOLID
  5
D05
  8
DRG
  6
CONTINUOUS
 62
     7
 10
21.895927098915749
 20
19.624186812635841
 30
0.0
 11
16.63887701418912
 21
19.193077338746122
 31
0.0
 12
20.271303339863209
 22
19.129413603414459
 32
0.0
 13
20.271303339863209
 23
19.129413603414459
 33
0.0
210
0.0
220
0.0
230
1.0
  0
SOLID
  5
D06
  8
DRG
  6
CONTINUOUS
 62
     7
 10
14.76019055141534
 20
19.751430918834409
 30
0.0
 11
16.63887701418912
 21
19.193077338746122
 31
0.0
 12
21.895927098915749
 22
19.624186812635841
 32
0.0
 13
21.895927098915749
 23
19.624186812635841
 33
0.0
210
0.0
220
0.0
230
1.0
  0
SOLID
  5
D07
  8
DRG
  6
CONTINUOUS
 62
     7
 10
23.40031659456379
 20
20.41223194613077
 30
0.0
 11
14.76019055141534
 21
19.751430918834409
 31
0.0
 12
21.895927098915749
 22
19.624186812635841
 32
0.0
 13
21.895927098915749
 23
19.624186812635841
 33
0.0
210
0.0
220
0.0
230
1.0
  0
SOLID
  5
D08
  8
DRG
  6
CONTINUOUS
 62
     7
 10
84.027895067150837
 20
20.41802219979682
 30
0.0
 11
85.398663329684837
 21
18.95474449545469
 31
0.0
 12
98.426543494326594
 22
19.34622686195554
 32
0.0
 13
98.426543494326594
 23
19.34622686195554
 33
0.0
210
0.0
220
0.0
230
1.0
  0
SOLID
  5
D09
  8
DRG
  6
CONTINUOUS
 62
     7
 10
99.896639117703884
 20
20.522111389421919
 30
0.0
 11
84.027895067150837
 21
20.41802219979682
 31
0.0
 12
98.426543494326594
 22
19.34622686195554
 32
0.0
 13
98.426543494326594
 23
19.34622686195554
 33
0.0
210
0.0
220
0.0
230
1.0
  0
SOLID
  5
D0A
  8
DRG
  6
CONTINUOUS
 62
     7
 10
12.996201983781489
 20
20.605577205523009
 30
0.0
 11
14.76019055141534
 21
19.751430918834409
 31
0.0
 12
23.40031659456379
 22
20.41223194613077
 32
0.0
 13
23.40031659456379
 23
20.41223194613077
 33
0.0
210
0.0
220
0.0
230
1.0
  0
SOLID
  5
D0B
  8
DRG
  6
CONTINUOUS
 62
     7
 10
111.2870334115631
 20
20.69438210209054
 30
0.0
 11
102.3181837587821
 21
19.484710699009419
 31
0.0
 12
111.8021775281067
 22
17.893521203552009
 32
0.0
 13
111.8021775281067
 23
17.893521203552009
 33
0.0
210
0.0
220
0.0
230
1.0
  0
SOLID
  5
D0C
  8
DRG
  6
CONTINUOUS
 62
     7
 10
46.76027846158906
 20
20.80821429716071
 30
0.0
 11
47.983201019849858
 21
19.37635595043184
 31
0.0
 12
70.76581779577775
 22
19.376355950431901
 32
0.0
 13
70.76581779577775
 23
19.376355950431901
 33
0.0
  0
SOLID
  5
D0D
  8
DRG
  6
CONTINUOUS
 62
     7
 10
168.800488626304
 20
20.808214297160799
 30
0.0
 11
144.79494929211521
 21
19.376355950431911
 31
0.0
 12
167.57756606804321
 22
19.376355950431901
 32
0.0
 13
167.57756606804321
 23
19.376355950431901
 33
0.0
210
0.0
220
0.0
230
1.0
  0
SOLID
  5
D0E
  8
DRG
  6
CONTINUOUS
 62
     7
 10
71.988740354038555
 20
20.808214297160799
 30
0.0
 11
46.76027846158906
 21
20.80821429716071
 31
0.0
 12
70.76581779577775
 22
19.376355950431901
 32
0.0
 13
70.76581779577775
 23
19.376355950431901
 33
0.0
  0
SOLID
  5
D0F
  8
DRG
  6
CONTINUOUS
 62
     7
 10
143.57202673385439
 20
20.808214297160799
 30
0.0
 11
144.79494929211521
 21
19.376355950431911
 31
0.0
 12
168.800488626304
 22
20.808214297160799
 32
0.0
 13
168.800488626304
 23
20.808214297160799
 33
0.0
210
0.0
220
0.0
230
1.0
  0
SOLID
  5
D10
  8
DRG
  6
CONTINUOUS
 62
     7
 10
102.1211660476033
 20
21.102600968374279
 30
0.0
 11
102.3181837587821
 21
19.484710699009419
 31
0.0
 12
111.2870334115631
 22
20.69438210209054
 32
0.0
 13
111.2870334115631
 23
20.69438210209054
 33
0.0
210
0.0
220
0.0
230
1.0
  0
SOLID
  5
D11
  8
DRG
  6
CONTINUOUS
 62
     7
 10
24.732069813226289
 20
21.466099229816571
 30
0.0
 11
12.996201983781489
 21
20.605577205523009
 31
0.0
 12
23.40031659456379
 22
20.41223194613077
 32
0.0
 13
23.40031659456379
 23
20.41223194613077
 33
0.0
  0
SOLID
  5
D12
  8
DRG
  6
CONTINUOUS
 62
     7
 10
11.39313191169536
 20
21.733135580858232
 30
0.0
 11
12.996201983781489
 21
20.605577205523009
 31
0.0
 12
24.732069813226289
 22
21.466099229816571
 32
0.0
 13
24.732069813226289
 23
21.466099229816571
 33
0.0
210
0.0
220
0.0
230
1.0
  0
SOLID
  5
D13
  8
DRG
  6
CONTINUOUS
 62
     7
 10
101.14072764655459
 20
21.93495578856496
 30
0.0
 11
84.027895067150837
 21
20.41802219979682
 31
0.0
 12
99.896639117703884
 22
20.522111389421919
 32
0.0
 13
99.896639117703884
 23
20.522111389421919
 33
0.0
210
0.0
220
0.0
230
1.0
  0
SOLID
  5
D14
  8
DRG
  6
CONTINUOUS
 62
     7
 10
82.919900870315985
 20
22.089110506672171
 30
0.0
 11
84.027895067150837
 21
20.41802219979682
 31
0.0
 12
101.14072764655459
 22
21.93495578856496
 32
0.0
 13
101.14072764655459
 23
21.93495578856496
 33
0.0
  0
SOLID
  5
D15
  8
DRG
  6
CONTINUOUS
 62
     7
 10
45.776404103828007
 20
22.413751327795801
 30
0.0
 11
46.76027846158906
 21
20.80821429716071
 31
0.0
 12
71.988740354038555
 22
20.808214297160799
 32
0.0
 13
71.988740354038555
 23
20.808214297160799
 33
0.0
210
0.0
220
0.0
230
1.0
  0
SOLID
  5
D16
  8
DRG
  6
CONTINUOUS
 62
     7
 10
72.972614711799594
 20
22.413751327795911
 30
0.0
 11
45.776404103828007
 21
22.413751327795801
 31
0.0
 12
71.988740354038555
 22
20.808214297160799
 32
0.0
 13
71.988740354038555
 23
20.808214297160799
 33
0.0
210
0.0
220
0.0
230
1.0
  0
SOLID
  5
D17
  8
DRG
  6
CONTINUOUS
 62
     7
 10
169.78436298406501
 20
22.413751327795911
 30
0.0
 11
143.57202673385439
 21
20.808214297160799
 31
0.0
 12
168.800488626304
 22
20.808214297160799
 32
0.0
 13
168.800488626304
 23
20.808214297160799
 33
0.0
210
0.0
220
0.0
230
1.0
  0
SOLID
  5
D18
  8
DRG
  6
CONTINUOUS
 62
     7
 10
142.5881523760934
 20
22.413751327795921
 30
0.0
 11
143.57202673385439
 21
20.808214297160799
 31
0.0
 12
169.78436298406501
 22
22.413751327795911
 32
0.0
 13
169.78436298406501
 23
22.413751327795911
 33
0.0
210
0.0
220
0.0
230
1.0
  0
SOLID
  5
D19
  8
DRG
  6
CONTINUOUS
 62
     7
 10
25.844798136495001
 20
22.74907957480897
 30
0.0
 11
11.39313191169536
 21
21.733135580858232
 31
0.0
 12
24.732069813226289
 22
21.466099229816571
 32
0.0
 13
24.732069813226289
 23
21.466099229816571
 33
0.0
210
0.0
220
0.0
230
1.0
  0
SOLID
  5
D1A
  8
DRG
  6
CONTINUOUS
 62
     7
 10
9.9929844969679333
 20
23.104561394688101
 30
0.0
 11
11.39313191169536
 21
21.733135580858232
 31
0.0
 12
25.844798136495001
 22
22.74907957480897
 32
0.0
 13
25.844798136495001
 23
22.74907957480897
 33
0.0
210
0.0
220
0.0
230
1.0
  0
SOLID
  5
D1B
  8
DRG
  6
CONTINUOUS
 62
     7
 10
111.2523129779601
 20
23.54201089202471
 30
0.0
 11
102.1211660476033
 21
21.102600968374279
 31
0.0
 12
111.2870334115631
 22
20.69438210209054
 32
0.0
 13
111.2870334115631
 23
20.69438210209054
 33
0.0
210
0.0
220
0.0
230
1.0
  0
SOLID
  5
D1C
  8
DRG
  6
CONTINUOUS
 62
     7
 10
102.1211660476033
 20
23.542010892025001
 30
0.0
 11
82.919900870315985
 21
22.089110506672171
 31
0.0
 12
101.14072764655459
 22
21.93495578856496
 32
0.0
 13
101.14072764655459
 23
21.93495578856496
 33
0.0
210
0.0
220
0.0
230
1.0
  0
SOLID
  5
D1D
  8
DRG
  6
CONTINUOUS
 62
     7
 10
102.1211660476033
 20
23.542010892025001
 30
0.0
 11
102.1211660476033
 21
21.102600968374279
 31
0.0
 12
111.2523129779601
 22
23.54201089202471
 32
0.0
 13
111.2523129779601
 23
23.54201089202471
 33
0.0
210
0.0
220
0.0
230
1.0
  0
SOLID
  5
D1E
  8
DRG
  6
CONTINUOUS
 62
     7
 10
156.18625891463009
 20
23.758749615986972
 30
0.0
 11
142.5881523760934
 21
22.413751327795921
 31
0.0
 12
169.78436298406501
 22
22.413751327795911
 32
0.0
 13
169.78436298406501
 23
22.413751327795911
 33
0.0
210
0.0
220
0.0
230
1.0
  0
SOLID
  5
D1F
  8
DRG
  6
CONTINUOUS
 62
     7
 10
95.863486513980718
 20
23.758749615986972
 30
0.0
 11
102.1211660476033
 21
23.542010892025001
 31
0.0
 12
111.2523129779601
 22
23.54201089202471
 32
0.0
 13
111.2523129779601
 23
23.54201089202471
 33
0.0
210
0.0
220
0.0
230
1.0
  0
SOLID
  5
D20
  8
DRG
  6
CONTINUOUS
 62
     7
 10
95.863486513980718
 20
23.758749615986972
 30
0.0
 11
82.919900870315985
 21
22.089110506672171
 31
0.0
 12
102.1211660476033
 22
23.542010892025001
 32
0.0
 13
102.1211660476033
 23
23.542010892025001
 33
0.0
210
0.0
220
0.0
230
1.0
  0
SOLID
  5
D21
  8
DRG
  6
CONTINUOUS
 62
     7
 10
59.374510642364612
 20
23.758749615986979
 30
0.0
 11
45.776404103828007
 21
22.413751327795801
 31
0.0
 12
72.972614711799594
 22
22.413751327795911
 32
0.0
 13
72.972614711799594
 23
22.413751327795911
 33
0.0
210
0.0
220
0.0
230
1.0
  0
SOLID
  5
D22
  8
DRG
  6
CONTINUOUS
 62
     7
 10
155.18690699305799
 20
23.890316792430699
 30
0.0
 11
142.5881523760934
 21
22.413751327795921
 31
0.0
 12
156.18625891463009
 22
23.758749615986972
 32
0.0
 13
156.18625891463009
 23
23.758749615986972
 33
0.0
210
0.0
220
0.0
230
1.0
  0
SOLID
  5
D23
  8
DRG
  6
CONTINUOUS
 62
     7
 10
157.18561083620219
 20
23.890316792430699
 30
0.0
 11
156.18625891463009
 21
23.758749615986972
 31
0.0
 12
169.78436298406501
 22
22.413751327795911
 32
0.0
 13
169.78436298406501
 23
22.413751327795911
 33
0.0
210
0.0
220
0.0
230
1.0
  0
SOLID
  5
D24
  8
DRG
  6
CONTINUOUS
 62
     7
 10
58.375158720792513
 20
23.89031679243071
 30
0.0
 11
45.776404103828007
 21
22.413751327795801
 31
0.0
 12
59.374510642364612
 22
23.758749615986979
 32
0.0
 13
59.374510642364612
 23
23.758749615986979
 33
0.0
210
0.0
220
0.0
230
1.0
  0
SOLID
  5
D25
  8
DRG
  6
CONTINUOUS
 62
     7
 10
60.373862563936711
 20
23.89031679243071
 30
0.0
 11
59.374510642364612
 21
23.758749615986979
 31
0.0
 12
72.972614711799594
 22
22.413751327795911
 32
0.0
 13
72.972614711799594
 23
22.413751327795911
 33
0.0
210
0.0
220
0.0
230
1.0
  0
SOLID
  5
D26
  8
DRG
  6
CONTINUOUS
 62
     7
 10
94.864134592408647
 20
23.890316792430731
 30
0.0
 11
82.919900870315985
 21
22.089110506672171
 31
0.0
 12
95.863486513980718
 22
23.758749615986972
 32
0.0
 13
95.863486513980718
 23
23.758749615986972
 33
0.0
210
0.0
220
0.0
230
1.0
  0
SOLID
  5
D27
  8
DRG
  6
CONTINUOUS
 62
     7
 10
82.105613684769864
 20
23.921356027624689
 30
0.0
 11
82.919900870315985
 21
22.089110506672171
 31
0.0
 12
94.864134592408647
 22
23.890316792430731
 32
0.0
 13
94.864134592408647
 23
23.890316792430731
 33
0.0
210
0.0
220
0.0
230
1.0
  0
SOLID
  5
D28
  8
DRG
  6
CONTINUOUS
 62
     7
 10
97.173405164404457
 20
23.979508094530029
 30
0.0
 11
95.863486513980718
 21
23.758749615986972
 31
0.0
 12
111.2523129779601
 22
23.54201089202471
 32
0.0
 13
111.2523129779601
 23
23.54201089202471
 33
0.0
210
0.0
220
0.0
230
1.0
  0
SOLID
  5
D29
  8
DRG
  6
CONTINUOUS
 62
     7
 10
45.055804198546561
 20
24.153433392170971
 30
0.0
 11
45.776404103828007
 21
22.413751327795801
 31
0.0
 12
58.375158720792513
 22
23.89031679243071
 32
0.0
 13
58.375158720792513
 23
23.89031679243071
 33
0.0
  0
SOLID
  5
D2A
  8
DRG
  6
CONTINUOUS
 62
     7
 10
73.693214617081026
 20
24.15343339217111
 30
0.0
 11
60.373862563936711
 21
23.89031679243071
 31
0.0
 12
72.972614711799594
 22
22.413751327795911
 32
0.0
 13
72.972614711799594
 23
22.413751327795911
 33
0.0
210
0.0
220
0.0
230
1.0
  0
SOLID
  5
D2B
  8
DRG
  6
CONTINUOUS
 62
     7
 10
170.5049628893465
 20
24.15343339217111
 30
0.0
 11
157.18561083620219
 21
23.890316792430699
 31
0.0
 12
169.78436298406501
 22
22.413751327795911
 32
0.0
 13
169.78436298406501
 23
22.413751327795911
 33
0.0
210
0.0
220
0.0
230
1.0
  0
SOLID
  5
D2C
  8
DRG
  6
CONTINUOUS
 62
     7
 10
141.867552470812
 20
24.15343339217111
 30
0.0
 11
142.5881523760934
 21
22.413751327795921
 31
0.0
 12
155.18690699305799
 22
23.890316792430699
 32
0.0
 13
155.18690699305799
 23
23.890316792430699
 33
0.0
210
0.0
220
0.0
230
1.0
  0
SOLID
  5
D2D
  8
DRG
  6
CONTINUOUS
 62
     7
 10
26.699742183985649
 20
24.216483255703061
 30
0.0
 11
9.9929844969679333
 21
23.104561394688101
 31
0.0
 12
25.844798136495001
 22
22.74907957480897
 32
0.0
 13
25.844798136495001
 23
22.74907957480897
 33
0.0
210
0.0
220
0.0
230
1.0
  0
SOLID
  5
D2E
  8
DRG
  6
CONTINUOUS
 62
     7
 10
154.25565925343389
 20
24.276052236112282
 30
0.0
 11
141.867552470812
 21
24.15343339217111
 31
0.0
 12
155.18690699305799
 22
23.890316792430699
 32
0.0
 13
155.18690699305799
 23
23.890316792430699
 33
0.0
210
0.0
220
0.0
230
1.0
  0
SOLID
  5
D2F
  8
DRG
  6
CONTINUOUS
 62
     7
 10
158.11685857582631
 20
24.276052236112289
 30
0.0
 11
157.18561083620219
 21
23.890316792430699
 31
0.0
 12
170.5049628893465
 22
24.15343339217111
 32
0.0
 13
170.5049628893465
 23
24.15343339217111
 33
0.0
210
0.0
220
0.0
230
1.0
  0
SOLID
  5
D30
  8
DRG
  6
CONTINUOUS
 62
     7
 10
57.443910981168422
 20
24.276052236112289
 30
0.0
 11
45.055804198546561
 21
24.153433392170971
 31
0.0
 12
58.375158720792513
 22
23.89031679243071
 32
0.0
 13
58.375158720792513
 23
23.89031679243071
 33
0.0
210
0.0
220
0.0
230
1.0
  0
SOLID
  5
D31
  8
DRG
  6
CONTINUOUS
 62
     7
 10
61.305110303560809
 20
24.276052236112299
 30
0.0
 11
60.373862563936711
 21
23.89031679243071
 31
0.0
 12
73.693214617081026
 22
24.15343339217111
 32
0.0
 13
73.693214617081026
 23
24.15343339217111
 33
0.0
210
0.0
220
0.0
230
1.0
  0
SOLID
  5
D32
  8
DRG
  6
CONTINUOUS
 62
     7
 10
93.932886852784591
 20
24.276052236112349
 30
0.0
 11
82.105613684769864
 21
23.921356027624689
 31
0.0
 12
94.864134592408647
 22
23.890316792430731
 32
0.0
 13
94.864134592408647
 23
23.890316792430731
 33
0.0
210
0.0
220
0.0
230
1.0
  0
SOLID
  5
D33
  8
DRG
  6
CONTINUOUS
 62
     7
 10
98.402359265448993
 20
24.483782815394029
 30
0.0
 11
97.173405164404457
 21
23.979508094530029
 31
0.0
 12
111.2523129779601
 22
23.54201089202471
 32
0.0
 13
111.2523129779601
 23
23.54201089202471
 33
0.0
210
0.0
220
0.0
230
1.0
  0
SOLID
  5
D34
  8
DRG
  6
CONTINUOUS
 62
     7
 10
8.8324468561460723
 20
24.6839201031652
 30
0.0
 11
9.9929844969679333
 21
23.104561394688101
 31
0.0
 12
26.699742183985649
 22
24.216483255703061
 32
0.0
 13
26.699742183985649
 23
24.216483255703061
 33
0.0
  0
SOLID
  5
D35
  8
DRG
  6
CONTINUOUS
 62
     7
 10
153.45597869025349
 20
24.889668714002791
 30
0.0
 11
141.867552470812
 21
24.15343339217111
 31
0.0
 12
154.25565925343389
 22
24.276052236112282
 32
0.0
 13
154.25565925343389
 23
24.276052236112282
 33
0.0
210
0.0
220
0.0
230
1.0
  0
SOLID
  5
D36
  8
DRG
  6
CONTINUOUS
 62
     7
 10
158.9165391390066
 20
24.889668714002799
 30
0.0
 11
158.11685857582631
 21
24.276052236112289
 31
0.0
 12
170.5049628893465
 22
24.15343339217111
 32
0.0
 13
170.5049628893465
 23
24.15343339217111
 33
0.0
  0
SOLID
  5
D37
  8
DRG
  6
CONTINUOUS
 62
     7
 10
56.644230417988048
 20
24.889668714002799
 30
0.0
 11
45.055804198546561
 21
24.153433392170971
 31
0.0
 12
57.443910981168422
 22
24.276052236112289
 32
0.0
 13
57.443910981168422
 23
24.276052236112289
 33
0.0
  0
SOLID
  5
D38
  8
DRG
  6
CONTINUOUS
 62
     7
 10
62.104790866741169
 20
24.889668714002809
 30
0.0
 11
61.305110303560809
 21
24.276052236112299
 31
0.0
 12
73.693214617081026
 22
24.15343339217111
 32
0.0
 13
73.693214617081026
 23
24.15343339217111
 33
0.0
210
0.0
220
0.0
230
1.0
  0
SOLID
  5
D39
  8
DRG
  6
CONTINUOUS
 62
     7
 10
93.13320628960426
 20
24.889668714002859
 30
0.0
 11
82.105613684769864
 21
23.921356027624689
 31
0.0
 12
93.932886852784591
 22
24.276052236112349
 32
0.0
 13
93.932886852784591
 23
24.276052236112349
 33
0.0
210
0.0
220
0.0
230
1.0
  0
SOLID
  5
D3A
  8
DRG
  6
CONTINUOUS
 62
     7
 10
99.489802543822094
 20
25.246729925551559
 30
0.0
 11
98.402359265448993
 21
24.483782815394029
 31
0.0
 12
111.2523129779601
 22
23.54201089202471
 32
0.0
 13
111.2523129779601
 23
23.54201089202471
 33
0.0
210
0.0
220
0.0
230
1.0
  0
SOLID
  5
D3B
  8
DRG
  6
CONTINUOUS
 62
     7
 10
22.683854862926161
 20
25.455509253088579
 30
0.0
 11
8.8324468561460723
 21
24.6839201031652
 31
0.0
 12
26.699742183985649
 22
24.216483255703061
 32
0.0
 13
26.699742183985649
 23
24.216483255703061
 33
0.0
210
0.0
220
0.0
230
1.0
  0
SOLID
  5
D3C
  8
DRG
  6
CONTINUOUS
 62
     7
 10
21.516111098510319
 20
25.556644831790699
 30
0.0
 11
8.8324468561460723
 21
24.6839201031652
 31
0.0
 12
22.683854862926161
 22
25.455509253088579
 32
0.0
 13
22.683854862926161
 23
25.455509253088579
 33
0.0
  0
SOLID
  5
D3D
  8
DRG
  6
CONTINUOUS
 62
     7
 10
152.84236221236301
 20
25.689349277183162
 30
0.0
 11
141.867552470812
 21
24.15343339217111
 31
0.0
 12
153.45597869025349
 22
24.889668714002791
 32
0.0
 13
153.45597869025349
 23
24.889668714002791
 33
0.0
210
0.0
220
0.0
230
1.0
  0
SOLID
  5
D3E
  8
DRG
  6
CONTINUOUS
 62
     7
 10
159.5301556168971
 20
25.689349277183162
 30
0.0
 11
158.9165391390066
 21
24.889668714002799
 31
0.0
 12
170.5049628893465
 22
24.15343339217111
 32
0.0
 13
170.5049628893465
 23
24.15343339217111
 33
0.0
210
0.0
220
0.0
230
1.0
  0
SOLID
  5
D3F
  8
DRG
  6
CONTINUOUS
 62
     7
 10
56.030613940097538
 20
25.689349277183169
 30
0.0
 11
45.055804198546561
 21
24.153433392170971
 31
0.0
 12
56.644230417988048
 22
24.889668714002799
 32
0.0
 13
56.644230417988048
 23
24.889668714002799
 33
0.0
210
0.0
220
0.0
230
1.0
  0
SOLID
  5
D40
  8
DRG
  6
CONTINUOUS
 62
     7
 10
62.718407344631679
 20
25.689349277183169
 30
0.0
 11
62.104790866741169
 21
24.889668714002809
 31
0.0
 12
73.693214617081026
 22
24.15343339217111
 32
0.0
 13
73.693214617081026
 23
24.15343339217111
 33
0.0
210
0.0
220
0.0
230
1.0
  0
SOLID
  5
D41
  8
DRG
  6
CONTINUOUS
 62
     7
 10
92.519589811713786
 20
25.689349277183219
 30
0.0
 11
82.105613684769864
 21
23.921356027624689
 31
0.0
 12
93.13320628960426
 22
24.889668714002859
 32
0.0
 13
93.13320628960426
 23
24.889668714002859
 33
0.0
210
0.0
220
0.0
230
1.0
  0
SOLID
  5
D42
  8
DRG
  6
CONTINUOUS
 62
     7
 10
27.267121908897021
 20
25.817196576320061
 30
0.0
 11
22.683854862926161
 21
25.455509253088579
 31
0.0
 12
26.699742183985649
 22
24.216483255703061
 32
0.0
 13
26.699742183985649
 23
24.216483255703061
 33
0.0
210
0.0
220
0.0
230
1.0
  0
SOLID
  5
D43
  8
DRG
  6
CONTINUOUS
 62
     7
 10
27.267121908897021
 20
25.817196576320061
 30
0.0
 11
27.267121908897021
 21
13.51984597021351
 31
0.0
 12
37.639779947293839
 22
13.760967175618781
 32
0.0
 13
37.639779947293839
 23
13.760967175618781
 33
0.0
  0
SOLID
  5
D44
  8
DRG
  6
CONTINUOUS
 62
     7
 10
81.607766753409166
 20
25.863606192389771
 30
0.0
 11
82.105613684769864
 21
23.921356027624689
 31
0.0
 12
92.519589811713786
 22
25.689349277183219
 32
0.0
 13
92.519589811713786
 23
25.689349277183219
 33
0.0
210
0.0
220
0.0
230
1.0
  0
SOLID
  5
D45
  8
DRG
  6
CONTINUOUS
 62
     7
 10
20.399095162792051
 20
25.911791708396589
 30
0.0
 11
8.8324468561460723
 21
24.6839201031652
 31
0.0
 12
21.516111098510319
 22
25.556644831790699
 32
0.0
 13
21.516111098510319
 23
25.556644831790699
 33
0.0
  0
SOLID
  5
D46
  8
DRG
  6
CONTINUOUS
 62
     7
 10
44.616222306946739
 20
25.984423744187549
 30
0.0
 11
45.055804198546561
 21
24.153433392170971
 31
0.0
 12
56.030613940097538
 22
25.689349277183169
 32
0.0
 13
56.030613940097538
 23
25.689349277183169
 33
0.0
210
0.0
220
0.0
230
1.0
  0
SOLID
  5
D47
  8
DRG
  6
CONTINUOUS
 62
     7
 10
170.9445447809463
 20
25.984423744187708
 30
0.0
 11
159.5301556168971
 21
25.689349277183162
 31
0.0
 12
170.5049628893465
 22
24.15343339217111
 32
0.0
 13
170.5049628893465
 23
24.15343339217111
 33
0.0
210
0.0
220
0.0
230
1.0
  0
SOLID
  5
D48
  8
DRG
  6
CONTINUOUS
 62
     7
 10
74.13279650868084
 20
25.984423744187708
 30
0.0
 11
62.718407344631679
 21
25.689349277183169
 31
0.0
 12
73.693214617081026
 22
24.15343339217111
 32
0.0
 13
73.693214617081026
 23
24.15343339217111
 33
0.0
210
0.0
220
0.0
230
1.0
  0
SOLID
  5
D49
  8
DRG
  6
CONTINUOUS
 62
     7
 10
141.4279705792122
 20
25.984423744187708
 30
0.0
 11
141.867552470812
 21
24.15343339217111
 31
0.0
 12
152.84236221236301
 22
25.689349277183162
 32
0.0
 13
152.84236221236301
 23
25.689349277183162
 33
0.0
210
0.0
220
0.0
230
1.0
  0
SOLID
  5
D4A
  8
DRG
  6
CONTINUOUS
 62
     7
 10
24.051224454271221
 20
25.98993993797998
 30
0.0
 11
22.683854862926161
 21
25.455509253088579
 31
0.0
 12
27.267121908897021
 22
25.817196576320061
 32
0.0
 13
27.267121908897021
 23
25.817196576320061
 33
0.0
210
0.0
220
0.0
230
1.0
  0
SOLID
  5
D4B
  8
DRG
  6
CONTINUOUS
 62
     7
 10
100.382160469876
 20
26.230761687429851
 30
0.0
 11
99.489802543822094
 21
25.246729925551559
 31
0.0
 12
111.2523129779601
 22
23.54201089202471
 32
0.0
 13
111.2523129779601
 23
23.54201089202471
 33
0.0
210
0.0
220
0.0
230
1.0
  0
SOLID
  5
D4C
  8
DRG
  6
CONTINUOUS
 62
     7
 10
7.9419277727893016
 20
26.429828837316059
 30
0.0
 11
8.8324468561460723
 21
24.6839201031652
 31
0.0
 12
20.399095162792051
 22
25.911791708396589
 32
0.0
 13
20.399095162792051
 23
25.911791708396589
 33
0.0
210
0.0
220
0.0
230
1.0
  0
SOLID
  5
D4D
  8
DRG
  6
CONTINUOUS
 62
     7
 10
19.387358884110071
 20
26.503605536395071
 30
0.0
 11
7.9419277727893016
 21
26.429828837316059
 31
0.0
 12
20.399095162792051
 22
25.911791708396589
 32
0.0
 13
20.399095162792051
 23
25.911791708396589
 33
0.0
210
0.0
220
0.0
230
1.0
  0
SOLID
  5
D4E
  8
DRG
  6
CONTINUOUS
 62
     7
 10
152.45662676868139
 20
26.62059701680726
 30
0.0
 11
141.4279705792122
 21
25.984423744187708
 31
0.0
 12
152.84236221236301
 22
25.689349277183162
 32
0.0
 13
152.84236221236301
 23
25.689349277183162
 33
0.0
210
0.0
220
0.0
230
1.0
  0
SOLID
  5
D4F
  8
DRG
  6
CONTINUOUS
 62
     7
 10
159.91589106057879
 20
26.62059701680727
 30
0.0
 11
159.5301556168971
 21
25.689349277183162
 31
0.0
 12
170.9445447809463
 22
25.984423744187708
 32
0.0
 13
170.9445447809463
 23
25.984423744187708
 33
0.0
210
0.0
220
0.0
230
1.0
  0
SOLID
  5
D50
  8
DRG
  6
CONTINUOUS
 62
     7
 10
55.644878496415949
 20
26.62059701680727
 30
0.0
 11
44.616222306946739
 21
25.984423744187549
 31
0.0
 12
56.030613940097538
 22
25.689349277183169
 32
0.0
 13
56.030613940097538
 23
25.689349277183169
 33
0.0
210
0.0
220
0.0
230
1.0
  0
SOLID
  5
D51
  8
DRG
  6
CONTINUOUS
 62
     7
 10
63.104142788313268
 20
26.62059701680727
 30
0.0
 11
62.718407344631679
 21
25.689349277183169
 31
0.0
 12
74.13279650868084
 22
25.984423744187708
 32
0.0
 13
74.13279650868084
 23
25.984423744187708
 33
0.0
210
0.0
220
0.0
230
1.0
  0
SOLID
  5
D52
  8
DRG
  6
CONTINUOUS
 62
     7
 10
92.133854368032203
 20
26.620597016807292
 30
0.0
 11
81.607766753409166
 21
25.863606192389771
 31
0.0
 12
92.519589811713786
 22
25.689349277183219
 32
0.0
 13
92.519589811713786
 23
25.689349277183219
 33
0.0
210
0.0
220
0.0
230
1.0
  0
SOLID
  5
D53
  8
DRG
  6
CONTINUOUS
 62
     7
 10
25.258677615930779
 20
26.825028327725018
 30
0.0
 11
24.051224454271221
 21
25.98993993797998
 31
0.0
 12
27.267121908897021
 22
25.817196576320061
 32
0.0
 13
27.267121908897021
 23
25.817196576320061
 33
0.0
210
0.0
220
0.0
230
1.0
  0
SOLID
  5
D54
  8
DRG
  6
CONTINUOUS
 62
     7
 10
18.530312536779942
 20
27.303183839714741
 30
0.0
 11
7.9419277727893016
 21
26.429828837316059
 31
0.0
 12
19.387358884110071
 22
26.503605536395071
 32
0.0
 13
19.387358884110071
 23
26.503605536395071
 33
0.0
210
0.0
220
0.0
230
1.0
  0
SOLID
  5
D55
  8
DRG
  6
CONTINUOUS
 62
     7
 10
101.0354696874371
 20
27.38739829536954
 30
0.0
 11
100.382160469876
 21
26.230761687429851
 31
0.0
 12
111.2523129779601
 22
23.54201089202471
 32
0.0
 13
111.2523129779601
 23
23.54201089202471
 33
0.0
210
0.0
220
0.0
230
1.0
  0
SOLID
  5
D56
  8
DRG
  6
CONTINUOUS
 62
     7
 10
92.002287191588479
 20
27.619948938379359
 30
0.0
 11
81.607766753409166
 21
25.863606192389771
 31
0.0
 12
92.133854368032203
 22
26.620597016807292
 32
0.0
 13
92.133854368032203
 23
26.620597016807292
 33
0.0
210
0.0
220
0.0
230
1.0
  0
SOLID
  5
D57
  8
DRG
  6
CONTINUOUS
 62
     7
 10
152.32505959223769
 20
27.619948938379359
 30
0.0
 11
141.4279705792122
 21
25.984423744187708
 31
0.0
 12
152.45662676868139
 22
26.62059701680726
 32
0.0
 13
152.45662676868139
 23
26.62059701680726
 33
0.0
210
0.0
220
0.0
230
1.0
  0
SOLID
  5
D58
  8
DRG
  6
CONTINUOUS
 62
     7
 10
160.04745823702251
 20
27.619948938379359
 30
0.0
 11
159.91589106057879
 21
26.62059701680727
 31
0.0
 12
170.9445447809463
 22
25.984423744187708
 32
0.0
 13
170.9445447809463
 23
25.984423744187708
 33
0.0
210
0.0
220
0.0
230
1.0
  0
SOLID
  5
D59
  8
DRG
  6
CONTINUOUS
 62
     7
 10
55.513311319972217
 20
27.61994893837937
 30
0.0
 11
44.616222306946739
 21
25.984423744187549
 31
0.0
 12
55.644878496415949
 22
26.62059701680727
 32
0.0
 13
55.644878496415949
 23
26.62059701680727
 33
0.0
  0
SOLID
  5
D5A
  8
DRG
  6
CONTINUOUS
 62
     7
 10
63.235709964757007
 20
27.61994893837937
 30
0.0
 11
63.104142788313268
 21
26.62059701680727
 31
0.0
 12
74.13279650868084
 22
25.984423744187708
 32
0.0
 13
74.13279650868084
 23
25.984423744187708
 33
0.0
  0
SOLID
  5
D5B
  8
DRG
  6
CONTINUOUS
 62
     7
 10
44.468482394088362
 20
27.861637324670291
 30
0.0
 11
44.616222306946739
 21
25.984423744187549
 31
0.0
 12
55.513311319972217
 22
27.61994893837937
 32
0.0
 13
55.513311319972217
 23
27.61994893837937
 33
0.0
  0
SOLID
  5
D5C
  8
DRG
  6
CONTINUOUS
 62
     7
 10
171.0922846938046
 20
27.861637324670479
 30
0.0
 11
160.04745823702251
 21
27.619948938379359
 31
0.0
 12
170.9445447809463
 22
25.984423744187708
 32
0.0
 13
170.9445447809463
 23
25.984423744187708
 33
0.0
210
0.0
220
0.0
230
1.0
  0
SOLID
  5
D5D
  8
DRG
  6
CONTINUOUS
 62
     7
 10
74.280536421539182
 20
27.861637324670479
 30
0.0
 11
63.235709964757007
 21
27.61994893837937
 31
0.0
 12
74.13279650868084
 22
25.984423744187708
 32
0.0
 13
74.13279650868084
 23
25.984423744187708
 33
0.0
210
0.0
220
0.0
230
1.0
  0
SOLID
  5
D5E
  8
DRG
  6
CONTINUOUS
 62
     7
 10
141.28023066635379
 20
27.861637324670479
 30
0.0
 11
141.4279705792122
 21
25.984423744187708
 31
0.0
 12
152.32505959223769
 22
27.619948938379359
 32
0.0
 13
152.32505959223769
 23
27.619948938379359
 33
0.0
  0
SOLID
  5
D5F
  8
DRG
  6
CONTINUOUS
 62
     7
 10
81.440258950509346
 20
27.861637324670479
 30
0.0
 11
81.607766753409166
 21
25.863606192389771
 31
0.0
 12
92.002287191588479
 22
27.619948938379359
 32
0.0
 13
92.002287191588479
 23
27.619948938379359
 33
0.0
210
0.0
220
0.0
230
1.0
  0
SOLID
  5
D60
  8
DRG
  6
CONTINUOUS
 62
     7
 10
26.241246459003619
 20
27.915841888747771
 30
0.0
 11
25.258677615930779
 21
26.825028327725018
 31
0.0
 12
27.267121908897021
 22
25.817196576320061
 32
0.0
 13
27.267121908897021
 23
25.817196576320061
 33
0.0
210
0.0
220
0.0
230
1.0
  0
SOLID
  5
D61
  8
DRG
  6
CONTINUOUS
 62
     7
 10
26.241246459003619
 20
27.915841888747771
 30
0.0
 11
27.267121908897021
 21
25.817196576320061
 31
0.0
 12
37.639779947293839
 22
13.760967175618781
 32
0.0
 13
37.639779947293839
 23
13.760967175618781
 33
0.0
210
0.0
220
0.0
230
1.0
  0
SOLID
  5
D62
  8
DRG
  6
CONTINUOUS
 62
     7
 10
17.869811786171208
 20
28.271477526081021
 30
0.0
 11
7.9419277727893016
 21
26.429828837316059
 31
0.0
 12
18.530312536779942
 22
27.303183839714741
 32
0.0
 13
18.530312536779942
 23
27.303183839714741
 33
0.0
  0
SOLID
  5
D63
  8
DRG
  6
CONTINUOUS
 62
     7
 10
7.3447609166631631
 20
28.296540730392032
 30
0.0
 11
7.9419277727893016
 21
26.429828837316059
 31
0.0
 12
17.869811786171208
 22
28.271477526081021
 32
0.0
 13
17.869811786171208
 23
28.271477526081021
 33
0.0
210
0.0
220
0.0
230
1.0
  0
SOLID
  5
D64
  8
DRG
  6
CONTINUOUS
 62
     7
 10
101.4175439347101
 20
28.659656306209889
 30
0.0
 11
101.0354696874371
 21
27.38739829536954
 31
0.0
 12
111.2523129779601
 22
23.54201089202471
 32
0.0
 13
111.2523129779601
 23
23.54201089202471
 33
0.0
210
0.0
220
0.0
230
1.0
  0
SOLID
  5
D65
  8
DRG
  6
CONTINUOUS
 62
     7
 10
26.946063157671311
 20
29.203688610049579
 30
0.0
 11
26.241246459003619
 21
27.915841888747771
 31
0.0
 12
37.639779947293839
 22
13.760967175618781
 32
0.0
 13
37.639779947293839
 23
13.760967175618781
 33
0.0
210
0.0
220
0.0
230
1.0
  0
SOLID
  5
D66
  8
DRG
  6
CONTINUOUS
 62
     7
 10
160.04745823702251
 20
29.300230626583549
 30
0.0
 11
160.04745823702251
 21
27.619948938379359
 31
0.0
 12
171.0922846938046
 22
27.861637324670479
 32
0.0
 13
171.0922846938046
 23
27.861637324670479
 33
0.0
210
0.0
220
0.0
230
1.0
  0
SOLID
  5
D67
  8
DRG
  6
CONTINUOUS
 62
     7
 10
17.43811357904055
 20
29.36119793176848
 30
0.0
 11
7.3447609166631631
 21
28.296540730392032
 31
0.0
 12
17.869811786171208
 22
28.271477526081021
 32
0.0
 13
17.869811786171208
 23
28.271477526081021
 33
0.0
210
0.0
220
0.0
230
1.0
  0
SOLID
  5
D68
  8
DRG
  6
CONTINUOUS
 62
     7
 10
152.32505959223769
 20
29.959298931438969
 30
0.0
 11
141.28023066635379
 21
27.861637324670479
 31
0.0
 12
152.32505959223769
 22
27.619948938379359
 32
0.0
 13
152.32505959223769
 23
27.619948938379359
 33
0.0
210
0.0
220
0.0
230
1.0
  0
SOLID
  5
D69
  8
DRG
  6
CONTINUOUS
 62
     7
 10
141.28023066635379
 20
29.95929893143898
 30
0.0
 11
141.28023066635379
 21
27.861637324670479
 31
0.0
 12
152.32505959223769
 22
29.959298931438969
 32
0.0
 13
152.32505959223769
 23
29.959298931438969
 33
0.0
210
0.0
220
0.0
230
1.0
  0
SOLID
  5
D6A
  8
DRG
  6
CONTINUOUS
 62
     7
 10
171.0922846938046
 20
29.95929893143904
 30
0.0
 11
160.04745823702251
 21
29.300230626583549
 31
0.0
 12
171.0922846938046
 22
27.861637324670479
 32
0.0
 13
171.0922846938046
 23
27.861637324670479
 33
0.0
210
0.0
220
0.0
230
1.0
  0
SOLID
  5
D6B
  8
DRG
  6
CONTINUOUS
 62
     7
 10
101.5095597489034
 20
29.984856014372749
 30
0.0
 11
101.4175439347101
 21
28.659656306209889
 31
0.0
 12
111.2523129779601
 22
23.54201089202471
 32
0.0
 13
111.2523129779601
 23
23.54201089202471
 33
0.0
  0
SOLID
  5
D6C
  8
DRG
  6
CONTINUOUS
 62
     7
 10
7.0565934473582743
 20
30.23514359210488
 30
0.0
 11
7.3447609166631631
 21
28.296540730392032
 31
0.0
 12
17.43811357904055
 22
29.36119793176848
 32
0.0
 13
17.43811357904055
 23
29.36119793176848
 33
0.0
210
0.0
220
0.0
230
1.0
  0
SOLID
  5
D6D
  8
DRG
  6
CONTINUOUS
 62
     7
 10
17.256300807526252
 20
30.5191262631974
 30
0.0
 11
7.0565934473582743
 21
30.23514359210488
 31
0.0
 12
17.43811357904055
 22
29.36119793176848
 32
0.0
 13
17.43811357904055
 23
29.36119793176848
 33
0.0
210
0.0
220
0.0
230
1.0
  0
SOLID
  5
D6E
  8
DRG
  6
CONTINUOUS
 62
     7
 10
159.3203063536362
 20
30.602411060542401
 30
0.0
 11
160.04745823702251
 21
29.300230626583549
 31
0.0
 12
171.0922846938046
 22
29.95929893143904
 32
0.0
 13
171.0922846938046
 23
29.95929893143904
 33
0.0
210
0.0
220
0.0
230
1.0
  0
SOLID
  5
D6F
  8
DRG
  6
CONTINUOUS
 62
     7
 10
27.335204540726242
 20
30.619274969224719
 30
0.0
 11
26.946063157671311
 21
29.203688610049579
 31
0.0
 12
37.639779947293839
 22
13.760967175618781
 32
0.0
 13
37.639779947293839
 23
13.760967175618781
 33
0.0
210
0.0
220
0.0
230
1.0
  0
SOLID
  5
D70
  8
DRG
  6
CONTINUOUS
 62
     7
 10
63.235709964757
 20
30.81688778835381
 30
0.0
 11
63.235709964757007
 21
27.61994893837937
 31
0.0
 12
74.280536421539182
 22
27.861637324670479
 32
0.0
 13
74.280536421539182
 23
27.861637324670479
 33
0.0
210
0.0
220
0.0
230
1.0
  0
SOLID
  5
D71
  8
DRG
  6
CONTINUOUS
 62
     7
 10
74.280536421539196
 20
30.816887788353831
 30
0.0
 11
63.235709964757
 21
30.81688778835381
 31
0.0
 12
74.280536421539182
 22
27.861637324670479
 32
0.0
 13
74.280536421539182
 23
27.861637324670479
 33
0.0
210
0.0
220
0.0
230
1.0
  0
SOLID
  5
D72
  8
DRG
  6
CONTINUOUS
 62
     7
 10
158.32349423287391
 20
31.711820516063149
 30
0.0
 11
159.3203063536362
 21
30.602411060542401
 31
0.0
 12
171.0922846938046
 22
29.95929893143904
 32
0.0
 13
171.0922846938046
 23
29.95929893143904
 33
0.0
210
0.0
220
0.0
230
1.0
  0
SOLID
  5
D73
  8
DRG
  6
CONTINUOUS
 62
     7
 10
170.6773093972524
 20
31.7696415103639
 30
0.0
 11
158.32349423287391
 21
31.711820516063149
 31
0.0
 12
171.0922846938046
 22
29.95929893143904
 32
0.0
 13
171.0922846938046
 23
29.95929893143904
 33
0.0
210
0.0
220
0.0
230
1.0
  0
SOLID
  5
D74
  8
DRG
  6
CONTINUOUS
 62
     7
 10
27.387732575171409
 20
32.086434320449378
 30
0.0
 11
27.335204540726242
 21
30.619274969224719
 31
0.0
 12
37.639779947293839
 22
13.760967175618781
 32
0.0
 13
37.639779947293839
 23
13.760967175618781
 33
0.0
210
0.0
220
0.0
230
1.0
  0
SOLID
  5
D75
  8
DRG
  6
CONTINUOUS
 62
     7
 10
81.440258950509346
 20
32.349374231810209
 30
0.0
 11
81.440258950509346
 21
27.861637324670479
 31
0.0
 12
92.002287191588479
 22
27.619948938379359
 32
0.0
 13
92.002287191588479
 23
27.619948938379359
 33
0.0
210
0.0
220
0.0
230
1.0
  0
SOLID
  5
D76
  8
DRG
  6
CONTINUOUS
 62
     7
 10
157.10626025321309
 20
32.573658774007562
 30
0.0
 11
158.32349423287391
 21
31.711820516063149
 31
0.0
 12
170.6773093972524
 22
31.7696415103639
 32
0.0
 13
170.6773093972524
 23
31.7696415103639
 33
0.0
210
0.0
220
0.0
230
1.0
  0
SOLID
  5
D77
  8
DRG
  6
CONTINUOUS
 62
     7
 10
92.002287191588479
 20
33.041326503689838
 30
0.0
 11
81.440258950509346
 21
32.349374231810209
 31
0.0
 12
92.002287191588479
 22
27.619948938379359
 32
0.0
 13
92.002287191588479
 23
27.619948938379359
 33
0.0
210
0.0
220
0.0
230
1.0
  0
SOLID
  5
D78
  8
DRG
  6
CONTINUOUS
 62
     7
 10
155.72873071743231
 20
33.145354604103439
 30
0.0
 11
157.10626025321309
 21
32.573658774007562
 31
0.0
 12
170.6773093972524
 22
31.7696415103639
 32
0.0
 13
170.6773093972524
 23
31.7696415103639
 33
0.0
210
0.0
220
0.0
230
1.0
  0
SOLID
  5
D79
  8
DRG
  6
CONTINUOUS
 62
     7
 10
169.98794975822989
 20
33.494265538349083
 30
0.0
 11
155.72873071743231
 21
33.145354604103439
 31
0.0
 12
170.6773093972524
 22
31.7696415103639
 32
0.0
 13
170.6773093972524
 23
31.7696415103639
 33
0.0
210
0.0
220
0.0
230
1.0
  0
SOLID
  5
D7A
  8
DRG
  6
CONTINUOUS
 62
     7
 10
44.202306277704807
 20
33.59256797502097
 30
0.0
 11
44.468482394088362
 21
27.861637324670291
 31
0.0
 12
55.513311319972217
 22
27.61994893837937
 32
0.0
 13
55.513311319972217
 23
27.61994893837937
 33
0.0
210
0.0
220
0.0
230
1.0
  0
SOLID
  5
D7B
  8
DRG
  6
CONTINUOUS
 62
     7
 10
153.369705253798
 20
33.829362578962773
 30
0.0
 11
155.72873071743231
 21
33.145354604103439
 31
0.0
 12
169.98794975822989
 22
33.494265538349083
 32
0.0
 13
169.98794975822989
 23
33.494265538349083
 33
0.0
210
0.0
220
0.0
230
1.0
  0
SOLID
  5
D7C
  8
DRG
  6
CONTINUOUS
 62
     7
 10
81.820749237344913
 20
34.247867360112373
 30
0.0
 11
81.440258950509346
 21
32.349374231810209
 31
0.0
 12
92.002287191588479
 22
33.041326503689838
 32
0.0
 13
92.002287191588479
 23
33.041326503689838
 33
0.0
210
0.0
220
0.0
230
1.0
  0
SOLID
  5
D7D
  8
DRG
  6
CONTINUOUS
 62
     7
 10
92.479240148315725
 20
34.283253552925949
 30
0.0
 11
81.820749237344913
 21
34.247867360112373
 31
0.0
 12
92.002287191588479
 22
33.041326503689838
 32
0.0
 13
92.002287191588479
 23
33.041326503689838
 33
0.0
210
0.0
220
0.0
230
1.0
  0
SOLID
  5
D7E
  8
DRG
  6
CONTINUOUS
 62
     7
 10
151.10859018591131
 20
34.788647050598478
 30
0.0
 11
153.369705253798
 21
33.829362578962773
 31
0.0
 12
169.98794975822989
 22
33.494265538349083
 32
0.0
 13
169.98794975822989
 23
33.494265538349083
 33
0.0
210
0.0
220
0.0
230
1.0
  0
SOLID
  5
D7F
  8
DRG
  6
CONTINUOUS
 62
     7
 10
169.04071950537289
 20
35.091857350386633
 30
0.0
 11
151.10859018591131
 21
34.788647050598478
 31
0.0
 12
169.98794975822989
 22
33.494265538349083
 32
0.0
 13
169.98794975822989
 23
33.494265538349083
 33
0.0
210
0.0
220
0.0
230
1.0
  0
SOLID
  5
D80
  8
DRG
  6
CONTINUOUS
 62
     7
 10
93.226716747323209
 20
35.383774180852313
 30
0.0
 11
81.820749237344913
 21
34.247867360112373
 31
0.0
 12
92.479240148315725
 22
34.283253552925949
 32
0.0
 13
92.479240148315725
 23
34.283253552925949
 33
0.0
210
0.0
220
0.0
230
1.0
  0
SOLID
  5
D81
  8
DRG
  6
CONTINUOUS
 62
     7
 10
6.8194686220556227
 20
35.544827589343662
 30
0.0
 11
7.0565934473582743
 21
30.23514359210488
 31
0.0
 12
17.256300807526252
 22
30.5191262631974
 32
0.0
 13
17.256300807526252
 23
30.5191262631974
 33
0.0
  0
SOLID
  5
D82
  8
DRG
  6
CONTINUOUS
 62
     7
 10
55.513311319972232
 20
35.629722934820848
 30
0.0
 11
44.202306277704807
 21
33.59256797502097
 31
0.0
 12
55.513311319972217
 22
27.61994893837937
 32
0.0
 13
55.513311319972217
 23
27.61994893837937
 33
0.0
210
0.0
220
0.0
230
1.0
  0
SOLID
  5
D83
  8
DRG
  6
CONTINUOUS
 62
     7
 10
148.97737973443
 20
36.009634380280168
 30
0.0
 11
151.10859018591131
 21
34.788647050598478
 31
0.0
 12
169.04071950537289
 22
35.091857350386633
 32
0.0
 13
169.04071950537289
 23
35.091857350386633
 33
0.0
210
0.0
220
0.0
230
1.0
  0
SOLID
  5
D84
  8
DRG
  6
CONTINUOUS
 62
     7
 10
82.501617102078072
 20
36.060453349068602
 30
0.0
 11
81.820749237344913
 21
34.247867360112373
 31
0.0
 12
93.226716747323209
 22
35.383774180852313
 32
0.0
 13
93.226716747323209
 23
35.383774180852313
 33
0.0
210
0.0
220
0.0
230
1.0
  0
SOLID
  5
D85
  8
DRG
  6
CONTINUOUS
 62
     7
 10
94.205364320613299
 20
36.284948884141627
 30
0.0
 11
82.501617102078072
 21
36.060453349068602
 31
0.0
 12
93.226716747323209
 22
35.383774180852313
 32
0.0
 13
93.226716747323209
 23
35.383774180852313
 33
0.0
210
0.0
220
0.0
230
1.0
  0
SOLID
  5
D86
  8
DRG
  6
CONTINUOUS
 62
     7
 10
167.85830970219251
 20
36.524146360035118
 30
0.0
 11
148.97737973443
 21
36.009634380280168
 31
0.0
 12
169.04071950537289
 22
35.091857350386633
 32
0.0
 13
169.04071950537289
 23
35.091857350386633
 33
0.0
210
0.0
220
0.0
230
1.0
  0
SOLID
  5
D87
  8
DRG
  6
CONTINUOUS
 62
     7
 10
95.363659659179305
 20
36.939333195698268
 30
0.0
 11
82.501617102078072
 21
36.060453349068602
 31
0.0
 12
94.205364320613299
 22
36.284948884141627
 32
0.0
 13
94.205364320613299
 23
36.284948884141627
 33
0.0
210
0.0
220
0.0
230
1.0
  0
SOLID
  5
D88
  8
DRG
  6
CONTINUOUS
 62
     7
 10
96.640621573827801
 20
37.312475510495823
 30
0.0
 11
82.501617102078072
 21
36.060453349068602
 31
0.0
 12
95.363659659179305
 22
36.939333195698268
 32
0.0
 13
95.363659659179305
 23
36.939333195698268
 33
0.0
210
0.0
220
0.0
230
1.0
  0
SOLID
  5
D89
  8
DRG
  6
CONTINUOUS
 62
     7
 10
101.5095597489034
 20
37.384730871555568
 30
0.0
 11
101.5095597489034
 21
29.984856014372749
 31
0.0
 12
111.2523129779601
 22
23.54201089202471
 32
0.0
 13
111.2523129779601
 23
23.54201089202471
 33
0.0
210
0.0
220
0.0
230
1.0
  0
SOLID
  5
D8A
  8
DRG
  6
CONTINUOUS
 62
     7
 10
147.0062300017226
 20
37.475047898367571
 30
0.0
 11
148.97737973443
 21
36.009634380280168
 31
0.0
 12
167.85830970219251
 22
36.524146360035118
 32
0.0
 13
167.85830970219251
 23
36.524146360035118
 33
0.0
210
0.0
220
0.0
230
1.0
  0
SOLID
  5
D8B
  8
DRG
  6
CONTINUOUS
 62
     7
 10
83.465136107217845
 20
37.739941408961009
 30
0.0
 11
96.640621573827801
 21
37.312475510495823
 31
0.0
 12
97.969021393668683
 22
37.384730871555568
 32
0.0
 13
97.969021393668683
 23
37.384730871555568
 33
0.0
210
0.0
220
0.0
230
1.0
  0
SOLID
  5
D8C
  8
DRG
  6
CONTINUOUS
 62
     7
 10
83.465136107217845
 20
37.739941408961009
 30
0.0
 11
82.501617102078072
 21
36.060453349068602
 31
0.0
 12
96.640621573827801
 22
37.312475510495823
 32
0.0
 13
96.640621573827801
 23
37.312475510495823
 33
0.0
210
0.0
220
0.0
230
1.0
  0
SOLID
  5
D8D
  8
DRG
  6
CONTINUOUS
 62
     7
 10
166.4690451787491
 20
37.756821837895572
 30
0.0
 11
147.0062300017226
 21
37.475047898367571
 31
0.0
 12
167.85830970219251
 22
36.524146360035118
 32
0.0
 13
167.85830970219251
 23
36.524146360035118
 33
0.0
210
0.0
220
0.0
230
1.0
  0
SOLID
  5
D8E
  8
DRG
  6
CONTINUOUS
 62
     7
 10
164.90620600547979
 20
38.760354831031322
 30
0.0
 11
147.0062300017226
 21
37.475047898367571
 31
0.0
 12
166.4690451787491
 22
37.756821837895572
 32
0.0
 13
166.4690451787491
 23
37.756821837895572
 33
0.0
  0
SOLID
  5
D8F
  8
DRG
  6
CONTINUOUS
 62
     7
 10
145.22303227045461
 20
39.164152364925791
 30
0.0
 11
147.0062300017226
 21
37.475047898367571
 31
0.0
 12
164.90620600547979
 22
38.760354831031322
 32
0.0
 13
164.90620600547979
 23
38.760354831031322
 33
0.0
210
0.0
220
0.0
230
1.0
  0
SOLID
  5
D90
  8
DRG
  6
CONTINUOUS
 62
     7
 10
84.686220975134489
 20
39.242605962988861
 30
0.0
 11
83.465136107217845
 21
37.739941408961009
 31
0.0
 12
97.969021393668683
 22
37.384730871555568
 32
0.0
 13
97.969021393668683
 23
37.384730871555568
 33
0.0
210
0.0
220
0.0
230
1.0
  0
SOLID
  5
D91
  8
DRG
  6
CONTINUOUS
 62
     7
 10
84.686220975134489
 20
39.242605962988861
 30
0.0
 11
97.969021393668683
 21
37.384730871555568
 31
0.0
 12
101.5095597489034
 22
37.384730871555568
 32
0.0
 13
101.5095597489034
 23
37.384730871555568
 33
0.0
210
0.0
220
0.0
230
1.0
  0
SOLID
  5
D92
  8
DRG
  6
CONTINUOUS
 62
     7
 10
44.202306277704807
 20
39.329676640896288
 30
0.0
 11
55.513311319972232
 21
35.629722934820848
 31
0.0
 12
74.280536421539182
 22
35.629722934820848
 32
0.0
 13
74.280536421539182
 23
35.629722934820848
 33
0.0
210
0.0
220
0.0
230
1.0
  0
SOLID
  5
D93
  8
DRG
  6
CONTINUOUS
 62
     7
 10
44.202306277704807
 20
39.329676640896288
 30
0.0
 11
44.202306277704807
 21
33.59256797502097
 31
0.0
 12
55.513311319972232
 22
35.629722934820848
 32
0.0
 13
55.513311319972232
 23
35.629722934820848
 33
0.0
210
0.0
220
0.0
230
1.0
  0
SOLID
  5
D94
  8
DRG
  6
CONTINUOUS
 62
     7
 10
163.20723026339141
 20
39.510705534110834
 30
0.0
 11
145.22303227045461
 21
39.164152364925791
 31
0.0
 12
164.90620600547979
 22
38.760354831031322
 32
0.0
 13
164.90620600547979
 23
38.760354831031322
 33
0.0
210
0.0
220
0.0
230
1.0
  0
SOLID
  5
D95
  8
DRG
  6
CONTINUOUS
 62
     7
 10
161.4128172083947
 20
39.98989916707626
 30
0.0
 11
145.22303227045461
 21
39.164152364925791
 31
0.0
 12
163.20723026339141
 22
39.510705534110834
 32
0.0
 13
163.20723026339141
 23
39.510705534110834
 33
0.0
210
0.0
220
0.0
230
1.0
  0
SOLID
  5
D96
  8
DRG
  6
CONTINUOUS
 62
     7
 10
86.133080684833345
 20
40.529325045398402
 30
0.0
 11
84.686220975134489
 21
39.242605962988861
 31
0.0
 12
101.5095597489034
 22
37.384730871555568
 32
0.0
 13
101.5095597489034
 23
37.384730871555568
 33
0.0
210
0.0
220
0.0
230
1.0
  0
SOLID
  5
D97
  8
DRG
  6
CONTINUOUS
 62
     7
 10
159.18695030849
 20
40.665065806460063
 30
0.0
 11
145.22303227045461
 21
39.164152364925791
 31
0.0
 12
161.4128172083947
 22
39.98989916707626
 32
0.0
 13
161.4128172083947
 23
39.98989916707626
 33
0.0
210
0.0
220
0.0
230
1.0
  0
SOLID
  5
D98
  8
DRG
  6
CONTINUOUS
 62
     7
 10
127.2345352189994
 20
40.740104065808097
 30
0.0
 11
116.19314081319391
 21
17.28637227261407
 31
0.0
 12
127.2345352189994
 22
17.28637227261407
 32
0.0
 13
127.2345352189994
 23
17.28637227261407
 33
0.0
210
0.0
220
0.0
230
1.0
  0
SOLID
  5
D99
  8
DRG
  6
CONTINUOUS
 62
     7
 10
6.8107912610745549
 20
40.859796736640241
 30
0.0
 11
6.8194686220556227
 21
35.544827589343662
 31
0.0
 12
17.256300807526252
 22
30.5191262631974
 32
0.0
 13
17.256300807526252
 23
30.5191262631974
 33
0.0
210
0.0
220
0.0
230
1.0
  0
SOLID
  5
D9A
  8
DRG
  6
CONTINUOUS
 62
     7
 10
143.65301834881751
 20
41.053047368257502
 30
0.0
 11
145.22303227045461
 21
39.164152364925791
 31
0.0
 12
159.18695030849
 22
40.665065806460063
 32
0.0
 13
159.18695030849
 23
40.665065806460063
 33
0.0
  0
SOLID
  5
D9B
  8
DRG
  6
CONTINUOUS
 62
     7
 10
87.768046153177011
 20
41.566598844310938
 30
0.0
 11
86.133080684833345
 21
40.529325045398402
 31
0.0
 12
101.5095597489034
 22
37.384730871555568
 32
0.0
 13
101.5095597489034
 23
37.384730871555568
 33
0.0
210
0.0
220
0.0
230
1.0
  0
SOLID
  5
D9C
  8
DRG
  6
CONTINUOUS
 62
     7
 10
157.0907498111003
 20
41.67317141688541
 30
0.0
 11
143.65301834881751
 21
41.053047368257502
 31
0.0
 12
159.18695030849
 22
40.665065806460063
 32
0.0
 13
159.18695030849
 23
40.665065806460063
 33
0.0
210
0.0
220
0.0
230
1.0
  0
SOLID
  5
D9D
  8
DRG
  6
CONTINUOUS
 62
     7
 10
55.51331131997221
 20
41.923431282527638
 30
0.0
 11
44.202306277704807
 21
39.329676640896288
 31
0.0
 12
74.280536421539182
 22
35.629722934820848
 32
0.0
 13
74.280536421539182
 23
35.629722934820848
 33
0.0
210
0.0
220
0.0
230
1.0
  0
SOLID
  5
D9E
  8
DRG
  6
CONTINUOUS
 62
     7
 10
63.235709964756971
 20
41.923431282527652
 30
0.0
 11
55.51331131997221
 21
41.923431282527638
 31
0.0
 12
74.280536421539182
 22
35.629722934820848
 32
0.0
 13
74.280536421539182
 23
35.629722934820848
 33
0.0
210
0.0
220
0.0
230
1.0
  0
SOLID
  5
D9F
  8
DRG
  6
CONTINUOUS
 62
     7
 10
127.3882529757736
 20
42.300826641937121
 30
0.0
 11
116.19314081319391
 21
17.28637227261407
 31
0.0
 12
127.2345352189994
 22
40.740104065808097
 32
0.0
 13
127.2345352189994
 23
40.740104065808097
 33
0.0
210
0.0
220
0.0
230
1.0
  0
SOLID
  5
DA0
  8
DRG
  6
CONTINUOUS
 62
     7
 10
89.548550951823515
 20
42.327421871422729
 30
0.0
 11
87.768046153177011
 21
41.566598844310938
 31
0.0
 12
101.5095597489034
 22
37.384730871555568
 32
0.0
 13
101.5095597489034
 23
37.384730871555568
 33
0.0
210
0.0
220
0.0
230
1.0
  0
SOLID
  5
DA1
  8
DRG
  6
CONTINUOUS
 62
     7
 10
91.428239526853417
 20
42.791986051583798
 30
0.0
 11
89.548550951823515
 21
42.327421871422729
 31
0.0
 12
101.5095597489034
 22
37.384730871555568
 32
0.0
 13
101.5095597489034
 23
37.384730871555568
 33
0.0
210
0.0
220
0.0
230
1.0
  0
SOLID
  5
DA2
  8
DRG
  6
CONTINUOUS
 62
     7
 10
93.358174068518778
 20
42.948196427274922
 30
0.0
 11
91.428239526853417
 21
42.791986051583798
 31
0.0
 12
101.5095597489034
 22
37.384730871555568
 32
0.0
 13
101.5095597489034
 23
37.384730871555568
 33
0.0
210
0.0
220
0.0
230
1.0
  0
SOLID
  5
DA3
  8
DRG
  6
CONTINUOUS
 62
     7
 10
101.5095597489034
 20
37.384730871555568
 30
0.0
 11
100.207486521178
 21
42.948196427274922
 31
0.0
 12
93.358174068518778
 22
42.948196427274922
 32
0.0
 13
93.358174068518778
 23
42.948196427274922
 33
0.0
  0
SOLID
  5
DA4
  8
DRG
  6
CONTINUOUS
 62
     7
 10
100.207486521178
 20
42.948196427274922
 30
0.0
 11
101.5095597489034
 21
37.384730871555568
 31
0.0
 12
111.2523129779601
 22
23.54201089202471
 32
0.0
 13
111.2523129779601
 23
23.54201089202471
 33
0.0
  0
SOLID
  5
DA5
  8
DRG
  6
CONTINUOUS
 62
     7
 10
155.17367747190539
 20
42.990428830347881
 30
0.0
 11
143.65301834881751
 21
41.053047368257502
 31
0.0
 12
157.0907498111003
 22
41.67317141688541
 32
0.0
 13
157.0907498111003
 23
41.67317141688541
 33
0.0
210
0.0
220
0.0
230
1.0
  0
SOLID
  5
DA6
  8
DRG
  6
CONTINUOUS
 62
     7
 10
142.3184035466634
 20
43.11500550983493
 30
0.0
 11
143.65301834881751
 21
41.053047368257502
 31
0.0
 12
155.17367747190539
 22
42.990428830347881
 32
0.0
 13
155.17367747190539
 23
42.990428830347881
 33
0.0
  0
SOLID
  5
DA7
  8
DRG
  6
CONTINUOUS
 62
     7
 10
127.84349895890909
 20
43.801571524728807
 30
0.0
 11
116.19314081319391
 21
17.28637227261407
 31
0.0
 12
127.3882529757736
 22
42.300826641937121
 32
0.0
 13
127.3882529757736
 23
42.300826641937121
 33
0.0
210
0.0
220
0.0
230
1.0
  0
SOLID
  5
DA8
  8
DRG
  6
CONTINUOUS
 62
     7
 10
141.7953563081854
 20
44.48865706092365
 30
0.0
 11
142.3184035466634
 21
43.11500550983493
 31
0.0
 12
155.17367747190539
 22
42.990428830347881
 32
0.0
 13
155.17367747190539
 23
42.990428830347881
 33
0.0
210
0.0
220
0.0
230
1.0
  0
SOLID
  5
DA9
  8
DRG
  6
CONTINUOUS
 62
     7
 10
153.4809683549079
 20
44.585756161105429
 30
0.0
 11
141.7953563081854
 21
44.48865706092365
 31
0.0
 12
155.17367747190539
 22
42.990428830347881
 32
0.0
 13
155.17367747190539
 23
42.990428830347881
 33
0.0
  0
SOLID
  5
DAA
  8
DRG
  6
CONTINUOUS
 62
     7
 10
27.387732575171409
 20
44.745475926535612
 30
0.0
 11
27.387732575171409
 21
32.086434320449378
 31
0.0
 12
37.639779947293839
 22
13.760967175618781
 32
0.0
 13
37.639779947293839
 23
13.760967175618781
 33
0.0
210
0.0
220
0.0
230
1.0
  0
SOLID
  5
DAB
  8
DRG
  6
CONTINUOUS
 62
     7
 10
111.2523129779601
 20
45.06060729124669
 30
0.0
 11
100.207486521178
 21
42.948196427274922
 31
0.0
 12
111.2523129779601
 22
23.54201089202471
 32
0.0
 13
111.2523129779601
 23
23.54201089202471
 33
0.0
  0
SOLID
  5
DAC
  8
DRG
  6
CONTINUOUS
 62
     7
 10
74.280536421539182
 20
45.06060729124669
 30
0.0
 11
63.235709964756971
 21
41.923431282527652
 31
0.0
 12
74.280536421539182
 22
35.629722934820848
 32
0.0
 13
74.280536421539182
 23
35.629722934820848
 33
0.0
  0
SOLID
  5
DAD
  8
DRG
  6
CONTINUOUS
 62
     7
 10
44.468482394088362
 20
45.06060729124696
 30
0.0
 11
44.202306277704807
 21
39.329676640896288
 31
0.0
 12
55.51331131997221
 22
41.923431282527638
 32
0.0
 13
55.51331131997221
 23
41.923431282527638
 33
0.0
210
0.0
220
0.0
230
1.0
  0
SOLID
  5
DAE
  8
DRG
  6
CONTINUOUS
 62
     7
 10
152.91369055756721
 20
45.212615778285837
 30
0.0
 11
141.7953563081854
 21
44.48865706092365
 31
0.0
 12
153.4809683549079
 22
44.585756161105429
 32
0.0
 13
153.4809683549079
 23
44.585756161105429
 33
0.0
210
0.0
220
0.0
230
1.0
  0
SOLID
  5
DAF
  8
DRG
  6
CONTINUOUS
 62
     7
 10
141.54546826268481
 20
45.937122787892669
 30
0.0
 11
141.7953563081854
 21
44.48865706092365
 31
0.0
 12
152.91369055756721
 22
45.212615778285837
 32
0.0
 13
152.91369055756721
 23
45.212615778285837
 33
0.0
210
0.0
220
0.0
230
1.0
  0
SOLID
  5
DB0
  8
DRG
  6
CONTINUOUS
 62
     7
 10
152.54834175226111
 20
45.975031235545693
 30
0.0
 11
141.54546826268481
 21
45.937122787892669
 31
0.0
 12
152.91369055756721
 22
45.212615778285837
 32
0.0
 13
152.91369055756721
 23
45.212615778285837
 33
0.0
210
0.0
220
0.0
230
1.0
  0
SOLID
  5
DB1
  8
DRG
  6
CONTINUOUS
 62
     7
 10
7.0305774038875759
 20
46.17022669896302
 30
0.0
 11
6.8107912610745549
 21
40.859796736640241
 31
0.0
 12
17.256300807526252
 22
30.5191262631974
 32
0.0
 13
17.256300807526252
 23
30.5191262631974
 33
0.0
210
0.0
220
0.0
230
1.0
  0
SOLID
  5
DB2
  8
DRG
  6
CONTINUOUS
 62
     7
 10
27.335204540726249
 20
46.212635277760249
 30
0.0
 11
27.387732575171409
 21
44.745475926535612
 31
0.0
 12
37.639779947293839
 22
13.760967175618781
 32
0.0
 13
37.639779947293839
 23
13.760967175618781
 33
0.0
210
0.0
220
0.0
230
1.0
  0
SOLID
  5
DB3
  8
DRG
  6
CONTINUOUS
 62
     7
 10
17.256300807526252
 20
46.312783983787632
 30
0.0
 11
7.0305774038875759
 21
46.17022669896302
 31
0.0
 12
17.256300807526252
 22
30.5191262631974
 32
0.0
 13
17.256300807526252
 23
30.5191262631974
 33
0.0
210
0.0
220
0.0
230
1.0
  0
SOLID
  5
DB4
  8
DRG
  6
CONTINUOUS
 62
     7
 10
160.04745823702251
 20
46.421288526219293
 30
0.0
 11
160.04745823702251
 21
45.21828747592599
 31
0.0
 12
171.0912486890569
 22
45.21828747592599
 32
0.0
 13
171.0912486890569
 23
45.21828747592599
 33
0.0
210
0.0
220
0.0
230
1.0
  0
SOLID
  5
DB5
  8
DRG
  6
CONTINUOUS
 62
     7
 10
63.235709964757007
 20
46.690614073903127
 30
0.0
 11
63.235709964756971
 21
41.923431282527652
 31
0.0
 12
74.280536421539182
 22
45.06060729124669
 32
0.0
 13
74.280536421539182
 23
45.06060729124669
 33
0.0
210
0.0
220
0.0
230
1.0
  0
SOLID
  5
DB6
  8
DRG
  6
CONTINUOUS
 62
     7
 10
55.513311319972217
 20
46.690614073903141
 30
0.0
 11
44.468482394088362
 21
45.06060729124696
 31
0.0
 12
55.51331131997221
 22
41.923431282527638
 32
0.0
 13
55.51331131997221
 23
41.923431282527638
 33
0.0
210
0.0
220
0.0
230
1.0
  0
SOLID
  5
DB7
  8
DRG
  6
CONTINUOUS
 62
     7
 10
152.41515688108319
 20
46.809907794742699
 30
0.0
 11
141.54546826268481
 21
45.937122787892669
 31
0.0
 12
152.54834175226111
 22
45.975031235545693
 32
0.0
 13
152.54834175226111
 23
45.975031235545693
 33
0.0
  0
SOLID
  5
DB8
  8
DRG
  6
CONTINUOUS
 62
     7
 10
111.1045730651018
 20
46.937820871729471
 30
0.0
 11
100.207486521178
 21
42.948196427274922
 31
0.0
 12
111.2523129779601
 22
45.06060729124669
 32
0.0
 13
111.2523129779601
 23
45.06060729124669
 33
0.0
210
0.0
220
0.0
230
1.0
  0
SOLID
  5
DB9
  8
DRG
  6
CONTINUOUS
 62
     7
 10
74.13279650868084
 20
46.937820871729471
 30
0.0
 11
63.235709964757007
 21
46.690614073903127
 31
0.0
 12
74.280536421539182
 22
45.06060729124669
 32
0.0
 13
74.280536421539182
 23
45.06060729124669
 33
0.0
210
0.0
220
0.0
230
1.0
  0
SOLID
  5
DBA
  8
DRG
  6
CONTINUOUS
 62
     7
 10
44.616222306946753
 20
46.937820871729677
 30
0.0
 11
44.468482394088362
 21
45.06060729124696
 31
0.0
 12
55.513311319972217
 22
46.690614073903141
 32
0.0
 13
55.513311319972217
 23
46.690614073903141
 33
0.0
210
0.0
220
0.0
230
1.0
  0
SOLID
  5
DBB
  8
DRG
  6
CONTINUOUS
 62
     7
 10
170.92151587114179
 20
47.077855355594501
 30
0.0
 11
160.04745823702251
 21
46.421288526219293
 31
0.0
 12
171.0912486890569
 22
45.21828747592599
 32
0.0
 13
171.0912486890569
 23
45.21828747592599
 33
0.0
210
0.0
220
0.0
230
1.0
  0
SOLID
  5
DBC
  8
DRG
  6
CONTINUOUS
 62
     7
 10
92.485087876393209
 20
47.313129977668268
 30
0.0
 11
81.470405744524527
 21
45.910674481046733
 31
0.0
 12
92.485087876393209
 22
45.910674481046733
 32
0.0
 13
92.485087876393209
 23
45.910674481046733
 33
0.0
210
0.0
220
0.0
230
1.0
  0
SOLID
  5
DBD
  8
DRG
  6
CONTINUOUS
 62
     7
 10
100.2074865211779
 20
47.313129977668268
 30
0.0
 11
100.207486521178
 21
42.948196427274922
 31
0.0
 12
111.1045730651018
 22
46.937820871729471
 32
0.0
 13
111.1045730651018
 23
46.937820871729471
 33
0.0
210
0.0
220
0.0
230
1.0
  0
SOLID
  5
DBE
  8
DRG
  6
CONTINUOUS
 62
     7
 10
159.92142428177769
 20
47.399756659223272
 30
0.0
 11
160.04745823702251
 21
46.421288526219293
 31
0.0
 12
170.92151587114179
 22
47.077855355594501
 32
0.0
 13
170.92151587114179
 23
47.077855355594501
 33
0.0
210
0.0
220
0.0
230
1.0
  0
SOLID
  5
DBF
  8
DRG
  6
CONTINUOUS
 62
     7
 10
141.57801704221129
 20
47.406625280044132
 30
0.0
 11
141.54546826268481
 21
45.937122787892669
 31
0.0
 12
152.41515688108319
 22
46.809907794742699
 32
0.0
 13
152.41515688108319
 23
46.809907794742699
 33
0.0
210
0.0
220
0.0
230
1.0
  0
SOLID
  5
DC0
  8
DRG
  6
CONTINUOUS
 62
     7
 10
17.438113579040561
 20
47.470712315216574
 30
0.0
 11
7.0305774038875759
 21
46.17022669896302
 31
0.0
 12
17.256300807526252
 22
46.312783983787632
 32
0.0
 13
17.256300807526252
 23
46.312783983787632
 33
0.0
210
0.0
220
0.0
230
1.0
  0
SOLID
  5
DC1
  8
DRG
  6
CONTINUOUS
 62
     7
 10
26.946063157671329
 20
47.628221636935379
 30
0.0
 11
27.335204540726249
 21
46.212635277760249
 31
0.0
 12
37.639779947293839
 22
13.760967175618781
 32
0.0
 13
37.639779947293839
 23
13.760967175618781
 33
0.0
210
0.0
220
0.0
230
1.0
  0
SOLID
  5
DC2
  8
DRG
  6
CONTINUOUS
 62
     7
 10
152.52515784094209
 20
47.648154099737518
 30
0.0
 11
141.57801704221129
 21
47.406625280044132
 31
0.0
 12
152.41515688108319
 22
46.809907794742699
 32
0.0
 13
152.41515688108319
 23
46.809907794742699
 33
0.0
210
0.0
220
0.0
230
1.0
  0
SOLID
  5
DC3
  8
DRG
  6
CONTINUOUS
 62
     7
 10
81.731819932129795
 20
47.68976224158471
 30
0.0
 11
81.470405744524527
 21
45.910674481046733
 31
0.0
 12
92.485087876393209
 22
47.313129977668268
 32
0.0
 13
92.485087876393209
 23
47.313129977668268
 33
0.0
210
0.0
220
0.0
230
1.0
  0
SOLID
  5
DC4
  8
DRG
  6
CONTINUOUS
 62
     7
 10
63.104142788313268
 20
47.689965995475227
 30
0.0
 11
63.235709964757007
 21
46.690614073903127
 31
0.0
 12
74.13279650868084
 22
46.937820871729471
 32
0.0
 13
74.13279650868084
 23
46.937820871729471
 33
0.0
210
0.0
220
0.0
230
1.0
  0
SOLID
  5
DC5
  8
DRG
  6
CONTINUOUS
 62
     7
 10
55.644878496415949
 20
47.689965995475241
 30
0.0
 11
44.616222306946753
 21
46.937820871729677
 31
0.0
 12
55.513311319972217
 22
46.690614073903141
 32
0.0
 13
55.513311319972217
 23
46.690614073903141
 33
0.0
210
0.0
220
0.0
230
1.0
  0
SOLID
  5
DC6
  8
DRG
  6
CONTINUOUS
 62
     7
 10
7.1897238671107937
 20
47.994218182042239
 30
0.0
 11
7.0305774038875759
 21
46.17022669896302
 31
0.0
 12
17.438113579040561
 22
47.470712315216574
 32
0.0
 13
17.438113579040561
 23
47.470712315216574
 33
0.0
210
0.0
220
0.0
230
1.0
  0
SOLID
  5
DC7
  8
DRG
  6
CONTINUOUS
 62
     7
 10
92.616655052836919
 20
48.31248189924036
 30
0.0
 11
81.731819932129795
 21
47.68976224158471
 31
0.0
 12
92.485087876393209
 22
47.313129977668268
 32
0.0
 13
92.485087876393209
 23
47.313129977668268
 33
0.0
210
0.0
220
0.0
230
1.0
  0
SOLID
  5
DC8
  8
DRG
  6
CONTINUOUS
 62
     7
 10
100.0759193447342
 20
48.31248189924036
 30
0.0
 11
100.2074865211779
 21
47.313129977668268
 31
0.0
 12
111.1045730651018
 22
46.937820871729471
 32
0.0
 13
111.1045730651018
 23
46.937820871729471
 33
0.0
210
0.0
220
0.0
230
1.0
  0
SOLID
  5
DC9
  8
DRG
  6
CONTINUOUS
 62
     7
 10
159.55155020049509
 20
48.314348157748292
 30
0.0
 11
159.92142428177769
 21
47.399756659223272
 31
0.0
 12
170.92151587114179
 22
47.077855355594501
 32
0.0
 13
170.92151587114179
 23
47.077855355594501
 33
0.0
  0
SOLID
  5
DCA
  8
DRG
  6
CONTINUOUS
 62
     7
 10
152.9555608782567
 20
48.535868958602258
 30
0.0
 11
141.57801704221129
 21
47.406625280044132
 31
0.0
 12
152.52515784094209
 22
47.648154099737518
 32
0.0
 13
152.52515784094209
 23
47.648154099737518
 33
0.0
210
0.0
220
0.0
230
1.0
  0
SOLID
  5
DCB
  8
DRG
  6
CONTINUOUS
 62
     7
 10
17.869811786171251
 20
48.560432720904039
 30
0.0
 11
7.1897238671107937
 21
47.994218182042239
 31
0.0
 12
17.438113579040561
 22
47.470712315216574
 32
0.0
 13
17.438113579040561
 23
47.470712315216574
 33
0.0
210
0.0
220
0.0
230
1.0
  0
SOLID
  5
DCC
  8
DRG
  6
CONTINUOUS
 62
     7
 10
62.718407344631679
 20
48.621213735099332
 30
0.0
 11
63.104142788313268
 21
47.689965995475227
 31
0.0
 12
74.13279650868084
 22
46.937820871729471
 32
0.0
 13
74.13279650868084
 23
46.937820871729471
 33
0.0
  0
SOLID
  5
DCD
  8
DRG
  6
CONTINUOUS
 62
     7
 10
56.030613940097538
 20
48.621213735099339
 30
0.0
 11
44.616222306946753
 21
46.937820871729677
 31
0.0
 12
55.644878496415949
 22
47.689965995475241
 32
0.0
 13
55.644878496415949
 23
47.689965995475241
 33
0.0
210
0.0
220
0.0
230
1.0
  0
SOLID
  5
DCE
  8
DRG
  6
CONTINUOUS
 62
     7
 10
110.664991173502
 20
48.76881122374607
 30
0.0
 11
100.0759193447342
 21
48.31248189924036
 31
0.0
 12
111.1045730651018
 22
46.937820871729471
 32
0.0
 13
111.1045730651018
 23
46.937820871729471
 33
0.0
210
0.0
220
0.0
230
1.0
  0
SOLID
  5
DCF
  8
DRG
  6
CONTINUOUS
 62
     7
 10
73.693214617081026
 20
48.76881122374607
 30
0.0
 11
62.718407344631679
 21
48.621213735099332
 31
0.0
 12
74.13279650868084
 22
46.937820871729471
 32
0.0
 13
74.13279650868084
 23
46.937820871729471
 33
0.0
210
0.0
220
0.0
230
1.0
  0
SOLID
  5
DD0
  8
DRG
  6
CONTINUOUS
 62
     7
 10
45.055804198546582
 20
48.768811223746262
 30
0.0
 11
44.616222306946753
 21
46.937820871729677
 31
0.0
 12
56.030613940097538
 22
48.621213735099339
 32
0.0
 13
56.030613940097538
 23
48.621213735099339
 33
0.0
210
0.0
220
0.0
230
1.0
  0
SOLID
  5
DD1
  8
DRG
  6
CONTINUOUS
 62
     7
 10
141.8917942032017
 20
48.84260609145101
 30
0.0
 11
141.57801704221129
 21
47.406625280044132
 31
0.0
 12
152.9555608782567
 22
48.535868958602258
 32
0.0
 13
152.9555608782567
 23
48.535868958602258
 33
0.0
210
0.0
220
0.0
230
1.0
  0
SOLID
  5
DD2
  8
DRG
  6
CONTINUOUS
 62
     7
 10
170.46535120543041
 20
48.888577787754841
 30
0.0
 11
159.55155020049509
 21
48.314348157748292
 31
0.0
 12
170.92151587114179
 22
47.077855355594501
 32
0.0
 13
170.92151587114179
 23
47.077855355594501
 33
0.0
210
0.0
220
0.0
230
1.0
  0
SOLID
  5
DD3
  8
DRG
  6
CONTINUOUS
 62
     7
 10
158.96198221796851
 20
49.105356399904181
 30
0.0
 11
159.55155020049509
 21
48.314348157748292
 31
0.0
 12
170.46535120543041
 22
48.888577787754841
 32
0.0
 13
170.46535120543041
 23
48.888577787754841
 33
0.0
210
0.0
220
0.0
230
1.0
  0
SOLID
  5
DD4
  8
DRG
  6
CONTINUOUS
 62
     7
 10
93.00239049651853
 20
49.243729638864473
 30
0.0
 11
81.731819932129795
 21
47.68976224158471
 31
0.0
 12
92.616655052836919
 22
48.31248189924036
 32
0.0
 13
92.616655052836919
 23
48.31248189924036
 33
0.0
210
0.0
220
0.0
230
1.0
  0
SOLID
  5
DD5
  8
DRG
  6
CONTINUOUS
 62
     7
 10
99.690183901052691
 20
49.243729638864473
 30
0.0
 11
100.0759193447342
 21
48.31248189924036
 31
0.0
 12
110.664991173502
 22
48.76881122374607
 32
0.0
 13
110.664991173502
 23
48.76881122374607
 33
0.0
210
0.0
220
0.0
230
1.0
  0
SOLID
  5
DD6
  8
DRG
  6
CONTINUOUS
 62
     7
 10
153.59687126208641
 20
49.28553917727929
 30
0.0
 11
141.8917942032017
 21
48.84260609145101
 31
0.0
 12
152.9555608782567
 22
48.535868958602258
 32
0.0
 13
152.9555608782567
 23
48.535868958602258
 33
0.0
210
0.0
220
0.0
230
1.0
  0
SOLID
  5
DD7
  8
DRG
  6
CONTINUOUS
 62
     7
 10
82.256144730442657
 20
49.40981286381988
 30
0.0
 11
81.731819932129795
 21
47.68976224158471
 31
0.0
 12
93.00239049651853
 22
49.243729638864473
 32
0.0
 13
93.00239049651853
 23
49.243729638864473
 33
0.0
210
0.0
220
0.0
230
1.0
  0
SOLID
  5
DD8
  8
DRG
  6
CONTINUOUS
 62
     7
 10
62.104790866741169
 20
49.420894298279691
 30
0.0
 11
62.718407344631679
 21
48.621213735099332
 31
0.0
 12
73.693214617081026
 22
48.76881122374607
 32
0.0
 13
73.693214617081026
 23
48.76881122374607
 33
0.0
210
0.0
220
0.0
230
1.0
  0
SOLID
  5
DD9
  8
DRG
  6
CONTINUOUS
 62
     7
 10
56.644230417988048
 20
49.420894298279698
 30
0.0
 11
45.055804198546582
 21
48.768811223746262
 31
0.0
 12
56.030613940097538
 22
48.621213735099339
 32
0.0
 13
56.030613940097538
 23
48.621213735099339
 33
0.0
210
0.0
220
0.0
230
1.0
  0
SOLID
  5
DDA
  8
DRG
  6
CONTINUOUS
 62
     7
 10
18.530312536779991
 20
49.528726407270312
 30
0.0
 11
7.1897238671107937
 21
47.994218182042239
 31
0.0
 12
17.869811786171251
 22
48.560432720904039
 32
0.0
 13
17.869811786171251
 23
48.560432720904039
 33
0.0
210
0.0
220
0.0
230
1.0
  0
SOLID
  5
DDB
  8
DRG
  6
CONTINUOUS
 62
     7
 10
158.19120867863171
 20
49.721142561032508
 30
0.0
 11
158.96198221796851
 21
49.105356399904181
 31
0.0
 12
170.46535120543041
 22
48.888577787754841
 32
0.0
 13
170.46535120543041
 23
48.888577787754841
 33
0.0
210
0.0
220
0.0
230
1.0
  0
SOLID
  5
DDC
  8
DRG
  6
CONTINUOUS
 62
     7
 10
7.6220824279870287
 20
49.773358030940919
 30
0.0
 11
7.1897238671107937
 21
47.994218182042239
 31
0.0
 12
18.530312536779991
 22
49.528726407270312
 32
0.0
 13
18.530312536779991
 23
49.528726407270312
 33
0.0
  0
SOLID
  5
DDD
  8
DRG
  6
CONTINUOUS
 62
     7
 10
154.40722278586409
 20
49.848224571696171
 30
0.0
 11
141.8917942032017
 21
48.84260609145101
 31
0.0
 12
153.59687126208641
 22
49.28553917727929
 32
0.0
 13
153.59687126208641
 23
49.28553917727929
 33
0.0
210
0.0
220
0.0
230
1.0
  0
SOLID
  5
DDE
  8
DRG
  6
CONTINUOUS
 62
     7
 10
57.443910981168422
 20
50.034510776170208
 30
0.0
 11
45.055804198546582
 21
48.768811223746262
 31
0.0
 12
56.644230417988048
 22
49.420894298279698
 32
0.0
 13
56.644230417988048
 23
49.420894298279698
 33
0.0
210
0.0
220
0.0
230
1.0
  0
SOLID
  5
DDF
  8
DRG
  6
CONTINUOUS
 62
     7
 10
61.305110303560809
 20
50.034510776170208
 30
0.0
 11
62.104790866741169
 21
49.420894298279691
 31
0.0
 12
73.693214617081026
 22
48.76881122374607
 32
0.0
 13
73.693214617081026
 23
48.76881122374607
 33
0.0
210
0.0
220
0.0
230
1.0
  0
SOLID
  5
DE0
  8
DRG
  6
CONTINUOUS
 62
     7
 10
93.616006974409046
 20
50.043410202044832
 30
0.0
 11
82.256144730442657
 21
49.40981286381988
 31
0.0
 12
93.00239049651853
 22
49.243729638864473
 32
0.0
 13
93.00239049651853
 23
49.243729638864473
 33
0.0
210
0.0
220
0.0
230
1.0
  0
SOLID
  5
DE1
  8
DRG
  6
CONTINUOUS
 62
     7
 10
99.076567423162174
 20
50.043410202044832
 30
0.0
 11
99.690183901052691
 21
49.243729638864473
 31
0.0
 12
110.664991173502
 22
48.76881122374607
 32
0.0
 13
110.664991173502
 23
48.76881122374607
 33
0.0
210
0.0
220
0.0
230
1.0
  0
SOLID
  5
DE2
  8
DRG
  6
CONTINUOUS
 62
     7
 10
157.28954743952829
 20
50.121506714120002
 30
0.0
 11
158.19120867863171
 21
49.721142561032508
 31
0.0
 12
170.46535120543041
 22
48.888577787754841
 32
0.0
 13
170.46535120543041
 23
48.888577787754841
 33
0.0
210
0.0
220
0.0
230
1.0
  0
SOLID
  5
DE3
  8
DRG
  6
CONTINUOUS
 62
     7
 10
155.33371385132841
 20
50.187191754169177
 30
0.0
 11
141.8917942032017
 21
48.84260609145101
 31
0.0
 12
154.40722278586409
 22
49.848224571696171
 32
0.0
 13
154.40722278586409
 23
49.848224571696171
 33
0.0
210
0.0
220
0.0
230
1.0
  0
SOLID
  5
DE4
  8
DRG
  6
CONTINUOUS
 62
     7
 10
156.3158610056816
 20
50.280312172847857
 30
0.0
 11
157.28954743952829
 21
50.121506714120002
 31
0.0
 12
170.46535120543041
 22
48.888577787754841
 32
0.0
 13
170.46535120543041
 23
48.888577787754841
 33
0.0
210
0.0
220
0.0
230
1.0
  0
SOLID
  5
DE5
  8
DRG
  6
CONTINUOUS
 62
     7
 10
19.387358884110139
 20
50.328304710589968
 30
0.0
 11
7.6220824279870287
 21
49.773358030940919
 31
0.0
 12
18.530312536779991
 22
49.528726407270312
 32
0.0
 13
18.530312536779991
 23
49.528726407270312
 33
0.0
210
0.0
220
0.0
230
1.0
  0
SOLID
  5
DE6
  8
DRG
  6
CONTINUOUS
 62
     7
 10
58.375158720792513
 20
50.420246219851798
 30
0.0
 11
45.055804198546582
 21
48.768811223746262
 31
0.0
 12
57.443910981168422
 22
50.034510776170208
 32
0.0
 13
57.443910981168422
 23
50.034510776170208
 33
0.0
210
0.0
220
0.0
230
1.0
  0
SOLID
  5
DE7
  8
DRG
  6
CONTINUOUS
 62
     7
 10
60.373862563936711
 20
50.420246219851798
 30
0.0
 11
61.305110303560809
 21
50.034510776170208
 31
0.0
 12
73.693214617081026
 22
48.76881122374607
 32
0.0
 13
73.693214617081026
 23
48.76881122374607
 33
0.0
210
0.0
220
0.0
230
1.0
  0
SOLID
  5
DE8
  8
DRG
  6
CONTINUOUS
 62
     7
 10
72.972614711799594
 20
50.508493288121258
 30
0.0
 11
60.373862563936711
 21
50.420246219851798
 31
0.0
 12
73.693214617081026
 22
48.76881122374607
 32
0.0
 13
73.693214617081026
 23
48.76881122374607
 33
0.0
210
0.0
220
0.0
230
1.0
  0
SOLID
  5
DE9
  8
DRG
  6
CONTINUOUS
 62
     7
 10
109.9443912682205
 20
50.508493288121258
 30
0.0
 11
99.076567423162174
 21
50.043410202044832
 31
0.0
 12
110.664991173502
 22
48.76881122374607
 32
0.0
 13
110.664991173502
 23
48.76881122374607
 33
0.0
210
0.0
220
0.0
230
1.0
  0
SOLID
  5
DEA
  8
DRG
  6
CONTINUOUS
 62
     7
 10
45.776404103828028
 20
50.508493288121407
 30
0.0
 11
45.055804198546582
 21
48.768811223746262
 31
0.0
 12
58.375158720792513
 22
50.420246219851798
 32
0.0
 13
58.375158720792513
 23
50.420246219851798
 33
0.0
  0
SOLID
  5
DEB
  8
DRG
  6
CONTINUOUS
 62
     7
 10
59.374510642364612
 20
50.551813396295529
 30
0.0
 11
45.776404103828028
 21
50.508493288121407
 31
0.0
 12
58.375158720792513
 22
50.420246219851798
 32
0.0
 13
58.375158720792513
 23
50.420246219851798
 33
0.0
  0
SOLID
  5
DEC
  8
DRG
  6
CONTINUOUS
 62
     7
 10
59.374510642364612
 20
50.551813396295529
 30
0.0
 11
60.373862563936711
 21
50.420246219851798
 31
0.0
 12
72.972614711799594
 22
50.508493288121258
 32
0.0
 13
72.972614711799594
 23
50.508493288121258
 33
0.0
210
0.0
220
0.0
230
1.0
  0
SOLID
  5
DED
  8
DRG
  6
CONTINUOUS
 62
     7
 10
142.61917934783079
 20
50.568963196943031
 30
0.0
 11
155.33371385132841
 21
50.187191754169177
 31
0.0
 12
156.3158610056816
 22
50.280312172847857
 32
0.0
 13
156.3158610056816
 23
50.280312172847857
 33
0.0
210
0.0
220
0.0
230
1.0
  0
SOLID
  5
DEE
  8
DRG
  6
CONTINUOUS
 62
     7
 10
142.61917934783079
 20
50.568963196943031
 30
0.0
 11
141.8917942032017
 21
48.84260609145101
 31
0.0
 12
155.33371385132841
 22
50.187191754169177
 32
0.0
 13
155.33371385132841
 23
50.187191754169177
 33
0.0
210
0.0
220
0.0
230
1.0
  0
SOLID
  5
DEF
  8
DRG
  6
CONTINUOUS
 62
     7
 10
169.73380021856269
 20
50.606610116375307
 30
0.0
 11
142.61917934783079
 21
50.568963196943031
 31
0.0
 12
156.3158610056816
 22
50.280312172847857
 32
0.0
 13
156.3158610056816
 23
50.280312172847857
 33
0.0
210
0.0
220
0.0
230
1.0
  0
SOLID
  5
DF0
  8
DRG
  6
CONTINUOUS
 62
     7
 10
169.73380021856269
 20
50.606610116375307
 30
0.0
 11
156.3158610056816
 21
50.280312172847857
 31
0.0
 12
170.46535120543041
 22
48.888577787754841
 32
0.0
 13
170.46535120543041
 23
48.888577787754841
 33
0.0
210
0.0
220
0.0
230
1.0
  0
SOLID
  5
DF1
  8
DRG
  6
CONTINUOUS
 62
     7
 10
94.415687537589406
 20
50.657026679935342
 30
0.0
 11
82.256144730442657
 21
49.40981286381988
 31
0.0
 12
93.616006974409046
 22
50.043410202044832
 32
0.0
 13
93.616006974409046
 23
50.043410202044832
 33
0.0
  0
SOLID
  5
DF2
  8
DRG
  6
CONTINUOUS
 62
     7
 10
98.276886859981815
 20
50.657026679935342
 30
0.0
 11
99.076567423162174
 21
50.043410202044832
 31
0.0
 12
109.9443912682205
 22
50.508493288121258
 32
0.0
 13
109.9443912682205
 23
50.508493288121258
 33
0.0
210
0.0
220
0.0
230
1.0
  0
SOLID
  5
DF3
  8
DRG
  6
CONTINUOUS
 62
     7
 10
20.39909516279215
 20
50.92011853858844
 30
0.0
 11
7.6220824279870287
 21
49.773358030940919
 31
0.0
 12
19.387358884110139
 22
50.328304710589968
 32
0.0
 13
19.387358884110139
 23
50.328304710589968
 33
0.0
210
0.0
220
0.0
230
1.0
  0
SOLID
  5
DF4
  8
DRG
  6
CONTINUOUS
 62
     7
 10
83.031606533031265
 20
51.032202961762849
 30
0.0
 11
82.256144730442657
 21
49.40981286381988
 31
0.0
 12
94.415687537589406
 22
50.657026679935342
 32
0.0
 13
94.415687537589406
 23
50.657026679935342
 33
0.0
210
0.0
220
0.0
230
1.0
  0
SOLID
  5
DF5
  8
DRG
  6
CONTINUOUS
 62
     7
 10
95.346935277213504
 20
51.042762123616932
 30
0.0
 11
83.031606533031265
 21
51.032202961762849
 31
0.0
 12
94.415687537589406
 22
50.657026679935342
 32
0.0
 13
94.415687537589406
 23
50.657026679935342
 33
0.0
210
0.0
220
0.0
230
1.0
  0
SOLID
  5
DF6
  8
DRG
  6
CONTINUOUS
 62
     7
 10
97.345639120357703
 20
51.042762123616932
 30
0.0
 11
98.276886859981815
 21
50.657026679935342
 31
0.0
 12
109.9443912682205
 22
50.508493288121258
 32
0.0
 13
109.9443912682205
 23
50.508493288121258
 33
0.0
210
0.0
220
0.0
230
1.0
  0
SOLID
  5
DF7
  8
DRG
  6
CONTINUOUS
 62
     7
 10
96.346287198785603
 20
51.174329300060663
 30
0.0
 11
83.031606533031265
 21
51.032202961762849
 31
0.0
 12
95.346935277213504
 22
51.042762123616932
 32
0.0
 13
95.346935277213504
 23
51.042762123616932
 33
0.0
210
0.0
220
0.0
230
1.0
  0
SOLID
  5
DF8
  8
DRG
  6
CONTINUOUS
 62
     7
 10
96.346287198785603
 20
51.174329300060663
 30
0.0
 11
97.345639120357703
 21
51.042762123616932
 31
0.0
 12
109.9443912682205
 22
50.508493288121258
 32
0.0
 13
109.9443912682205
 23
50.508493288121258
 33
0.0
210
0.0
220
0.0
230
1.0
  0
SOLID
  5
DF9
  8
DRG
  6
CONTINUOUS
 62
     7
 10
27.267121908897021
 20
51.255838552818979
 30
0.0
 11
24.05122445427131
 21
50.841970309004992
 31
0.0
 12
25.258677615930839
 22
50.006881919259932
 32
0.0
 13
25.258677615930839
 23
50.006881919259932
 33
0.0
210
0.0
220
0.0
230
1.0
  0
SOLID
  5
DFA
  8
DRG
  6
CONTINUOUS
 62
     7
 10
27.267121908897021
 20
51.255838552818979
 30
0.0
 11
25.258677615930839
 21
50.006881919259932
 31
0.0
 12
26.241246459003669
 22
48.91606835823719
 32
0.0
 13
26.241246459003669
 23
48.91606835823719
 33
0.0
210
0.0
220
0.0
230
1.0
  0
SOLID
  5
DFB
  8
DRG
  6
CONTINUOUS
 62
     7
 10
27.267121908897021
 20
51.255838552818979
 30
0.0
 11
26.241246459003669
 21
48.91606835823719
 31
0.0
 12
26.946063157671329
 22
47.628221636935379
 32
0.0
 13
26.946063157671329
 23
47.628221636935379
 33
0.0
210
0.0
220
0.0
230
1.0
  0
SOLID
  5
DFC
  8
DRG
  6
CONTINUOUS
 62
     7
 10
27.267121908897021
 20
51.255838552818979
 30
0.0
 11
26.946063157671329
 21
47.628221636935379
 31
0.0
 12
37.639779947293839
 22
13.760967175618781
 32
0.0
 13
37.639779947293839
 23
13.760967175618781
 33
0.0
210
0.0
220
0.0
230
1.0
  0
SOLID
  5
DFD
  8
DRG
  6
CONTINUOUS
 62
     7
 10
21.516111098510429
 20
51.275265415194319
 30
0.0
 11
7.6220824279870287
 21
49.773358030940919
 31
0.0
 12
20.39909516279215
 22
50.92011853858844
 32
0.0
 13
20.39909516279215
 23
50.92011853858844
 33
0.0
210
0.0
220
0.0
230
1.0
  0
SOLID
  5
DFE
  8
DRG
  6
CONTINUOUS
 62
     7
 10
22.683854862926282
 20
51.376400993896397
 30
0.0
 11
24.05122445427131
 21
50.841970309004992
 31
0.0
 12
27.267121908897021
 22
51.255838552818979
 32
0.0
 13
27.267121908897021
 23
51.255838552818979
 33
0.0
210
0.0
220
0.0
230
1.0
  0
SOLID
  5
DFF
  8
DRG
  6
CONTINUOUS
 62
     7
 10
8.3177663299538551
 20
51.46696259979587
 30
0.0
 11
21.516111098510429
 21
51.275265415194319
 31
0.0
 12
22.683854862926282
 22
51.376400993896397
 32
0.0
 13
22.683854862926282
 23
51.376400993896397
 33
0.0
210
0.0
220
0.0
230
1.0
  0
SOLID
  5
E00
  8
DRG
  6
CONTINUOUS
 62
     7
 10
8.3177663299538551
 20
51.46696259979587
 30
0.0
 11
7.6220824279870287
 21
49.773358030940919
 31
0.0
 12
21.516111098510429
 22
51.275265415194319
 32
0.0
 13
21.516111098510429
 23
51.275265415194319
 33
0.0
210
0.0
220
0.0
230
1.0
  0
SOLID
  5
E01
  8
DRG
  6
CONTINUOUS
 62
     7
 10
108.9605169104595
 20
52.11403031875637
 30
0.0
 11
96.346287198785603
 21
51.174329300060663
 31
0.0
 12
109.9443912682205
 22
50.508493288121258
 32
0.0
 13
109.9443912682205
 23
50.508493288121258
 33
0.0
210
0.0
220
0.0
230
1.0
  0
SOLID
  5
E02
  8
DRG
  6
CONTINUOUS
 62
     7
 10
71.988740354038555
 20
52.11403031875637
 30
0.0
 11
59.374510642364612
 21
50.551813396295529
 31
0.0
 12
72.972614711799594
 22
50.508493288121258
 32
0.0
 13
72.972614711799594
 23
50.508493288121258
 33
0.0
210
0.0
220
0.0
230
1.0
  0
SOLID
  5
E03
  8
DRG
  6
CONTINUOUS
 62
     7
 10
46.760278461589081
 20
52.114030318756498
 30
0.0
 11
59.374510642364612
 21
50.551813396295529
 31
0.0
 12
71.988740354038555
 22
52.11403031875637
 32
0.0
 13
71.988740354038555
 23
52.11403031875637
 33
0.0
210
0.0
220
0.0
230
1.0
  0
SOLID
  5
E04
  8
DRG
  6
CONTINUOUS
 62
     7
 10
46.760278461589081
 20
52.114030318756498
 30
0.0
 11
45.776404103828028
 21
50.508493288121407
 31
0.0
 12
59.374510642364612
 22
50.551813396295529
 32
0.0
 13
59.374510642364612
 23
50.551813396295529
 33
0.0
210
0.0
220
0.0
230
1.0
  0
SOLID
  5
E05
  8
DRG
  6
CONTINUOUS
 62
     7
 10
143.6063830495508
 20
52.161077155056709
 30
0.0
 11
142.61917934783079
 21
50.568963196943031
 31
0.0
 12
169.73380021856269
 22
50.606610116375307
 32
0.0
 13
169.73380021856269
 23
50.606610116375307
 33
0.0
210
0.0
220
0.0
230
1.0
  0
SOLID
  5
E06
  8
DRG
  6
CONTINUOUS
 62
     7
 10
168.74457661464871
 20
52.190352074533777
 30
0.0
 11
143.6063830495508
 21
52.161077155056709
 31
0.0
 12
169.73380021856269
 22
50.606610116375307
 32
0.0
 13
169.73380021856269
 23
50.606610116375307
 33
0.0
210
0.0
220
0.0
230
1.0
  0
SOLID
  5
E07
  8
DRG
  6
CONTINUOUS
 62
     7
 10
84.040792503241747
 20
52.520502096583449
 30
0.0
 11
96.346287198785603
 21
51.174329300060663
 31
0.0
 12
108.9605169104595
 22
52.11403031875637
 32
0.0
 13
108.9605169104595
 23
52.11403031875637
 33
0.0
210
0.0
220
0.0
230
1.0
  0
SOLID
  5
E08
  8
DRG
  6
CONTINUOUS
 62
     7
 10
84.040792503241747
 20
52.520502096583449
 30
0.0
 11
83.031606533031265
 21
51.032202961762849
 31
0.0
 12
96.346287198785603
 22
51.174329300060663
 32
0.0
 13
96.346287198785603
 23
51.174329300060663
 33
0.0
  0
SOLID
  5
E09
  8
DRG
  6
CONTINUOUS
 62
     7
 10
26.699742183985649
 20
52.856551873435983
 30
0.0
 11
8.3177663299538551
 21
51.46696259979587
 31
0.0
 12
22.683854862926282
 22
51.376400993896397
 32
0.0
 13
22.683854862926282
 23
51.376400993896397
 33
0.0
210
0.0
220
0.0
230
1.0
  0
SOLID
  5
E0A
  8
DRG
  6
CONTINUOUS
 62
     7
 10
26.699742183985649
 20
52.856551873435983
 30
0.0
 11
22.683854862926282
 21
51.376400993896397
 31
0.0
 12
27.267121908897021
 22
51.255838552818979
 32
0.0
 13
27.267121908897021
 23
51.255838552818979
 33
0.0
210
0.0
220
0.0
230
1.0
  0
SOLID
  5
E0B
  8
DRG
  6
CONTINUOUS
 62
     7
 10
9.2608673477428542
 20
53.036304180633991
 30
0.0
 11
8.3177663299538551
 21
51.46696259979587
 31
0.0
 12
26.699742183985649
 22
52.856551873435983
 32
0.0
 13
26.699742183985649
 23
52.856551873435983
 33
0.0
210
0.0
220
0.0
230
1.0
  0
SOLID
  5
E0C
  8
DRG
  6
CONTINUOUS
 62
     7
 10
127.2345352189994
 20
53.086533694841222
 30
0.0
 11
135.23453521899941
 21
48.740104065808111
 31
0.0
 12
136.6041529029215
 22
48.740104065808111
 32
0.0
 13
136.6041529029215
 23
48.740104065808111
 33
0.0
210
0.0
220
0.0
230
1.0
  0
SOLID
  5
E0D
  8
DRG
  6
CONTINUOUS
 62
     7
 10
127.2345352189994
 20
53.086533694841222
 30
0.0
 11
133.67381264287039
 21
48.586386309033962
 31
0.0
 12
135.23453521899941
 22
48.740104065808111
 32
0.0
 13
135.23453521899941
 23
48.740104065808111
 33
0.0
  0
SOLID
  5
E0E
  8
DRG
  6
CONTINUOUS
 62
     7
 10
127.2345352189994
 20
53.086533694841222
 30
0.0
 11
132.17306776007871
 21
48.1311403258984
 31
0.0
 12
133.67381264287039
 22
48.586386309033962
 32
0.0
 13
133.67381264287039
 23
48.586386309033962
 33
0.0
210
0.0
220
0.0
230
1.0
  0
SOLID
  5
E0F
  8
DRG
  6
CONTINUOUS
 62
     7
 10
127.2345352189994
 20
53.086533694841222
 30
0.0
 11
130.7899733548426
 21
47.391860964228471
 31
0.0
 12
132.17306776007871
 22
48.1311403258984
 32
0.0
 13
132.17306776007871
 23
48.1311403258984
 33
0.0
210
0.0
220
0.0
230
1.0
  0
SOLID
  5
E10
  8
DRG
  6
CONTINUOUS
 62
     7
 10
127.2345352189994
 20
53.086533694841222
 30
0.0
 11
129.57768096950701
 21
46.396958315300481
 31
0.0
 12
130.7899733548426
 22
47.391860964228471
 32
0.0
 13
130.7899733548426
 23
47.391860964228471
 33
0.0
210
0.0
220
0.0
230
1.0
  0
SOLID
  5
E11
  8
DRG
  6
CONTINUOUS
 62
     7
 10
127.2345352189994
 20
53.086533694841222
 30
0.0
 11
128.582778320579
 21
45.184665929964922
 31
0.0
 12
129.57768096950701
 22
46.396958315300481
 32
0.0
 13
129.57768096950701
 23
46.396958315300481
 33
0.0
210
0.0
220
0.0
230
1.0
  0
SOLID
  5
E12
  8
DRG
  6
CONTINUOUS
 62
     7
 10
127.2345352189994
 20
53.086533694841222
 30
0.0
 11
127.84349895890909
 21
43.801571524728807
 31
0.0
 12
128.582778320579
 22
45.184665929964922
 32
0.0
 13
128.582778320579
 23
45.184665929964922
 33
0.0
210
0.0
220
0.0
230
1.0
  0
SOLID
  5
E13
  8
DRG
  6
CONTINUOUS
 62
     7
 10
127.2345352189994
 20
53.086533694841222
 30
0.0
 11
116.19314081319391
 21
17.28637227261407
 31
0.0
 12
127.84349895890909
 22
43.801571524728807
 32
0.0
 13
127.84349895890909
 23
43.801571524728807
 33
0.0
210
0.0
220
0.0
230
1.0
  0
SOLID
  5
E14
  8
DRG
  6
CONTINUOUS
 62
     7
 10
107.7375943521987
 20
53.545888665485272
 30
0.0
 11
84.040792503241747
 21
52.520502096583449
 31
0.0
 12
108.9605169104595
 22
52.11403031875637
 32
0.0
 13
108.9605169104595
 23
52.11403031875637
 33
0.0
210
0.0
220
0.0
230
1.0
  0
SOLID
  5
E15
  8
DRG
  6
CONTINUOUS
 62
     7
 10
70.76581779577775
 20
53.545888665485272
 30
0.0
 11
46.760278461589081
 21
52.114030318756498
 31
0.0
 12
71.988740354038555
 22
52.11403031875637
 32
0.0
 13
71.988740354038555
 23
52.11403031875637
 33
0.0
210
0.0
220
0.0
230
1.0
  0
SOLID
  5
E16
  8
DRG
  6
CONTINUOUS
 62
     7
 10
47.983201019849879
 20
53.54588866548535
 30
0.0
 11
46.760278461589081
 21
52.114030318756498
 31
0.0
 12
70.76581779577775
 22
53.545888665485272
 32
0.0
 13
70.76581779577775
 23
53.545888665485272
 33
0.0
210
0.0
220
0.0
230
1.0
  0
SOLID
  5
E17
  8
DRG
  6
CONTINUOUS
 62
     7
 10
144.82934634516241
 20
53.580146843936248
 30
0.0
 11
143.6063830495508
 21
52.161077155056709
 31
0.0
 12
168.74457661464871
 22
52.190352074533777
 32
0.0
 13
168.74457661464871
 23
52.190352074533777
 33
0.0
210
0.0
220
0.0
230
1.0
  0
SOLID
  5
E18
  8
DRG
  6
CONTINUOUS
 62
     7
 10
167.52163335736839
 20
53.601455089215932
 30
0.0
 11
144.82934634516241
 21
53.580146843936248
 31
0.0
 12
168.74457661464871
 22
52.190352074533777
 32
0.0
 13
168.74457661464871
 23
52.190352074533777
 33
0.0
210
0.0
220
0.0
230
1.0
  0
SOLID
  5
E19
  8
DRG
  6
CONTINUOUS
 62
     7
 10
85.261041575894609
 20
53.84129081468609
 30
0.0
 11
84.040792503241747
 21
52.520502096583449
 31
0.0
 12
107.7375943521987
 22
53.545888665485272
 32
0.0
 13
107.7375943521987
 23
53.545888665485272
 33
0.0
210
0.0
220
0.0
230
1.0
  0
SOLID
  5
E1A
  8
DRG
  6
CONTINUOUS
 62
     7
 10
25.844798136495001
 20
54.32395555433007
 30
0.0
 11
9.2608673477428542
 21
53.036304180633991
 31
0.0
 12
26.699742183985649
 22
52.856551873435983
 32
0.0
 13
26.699742183985649
 23
52.856551873435983
 33
0.0
210
0.0
220
0.0
230
1.0
  0
SOLID
  5
E1B
  8
DRG
  6
CONTINUOUS
 62
     7
 10
128.4120288872063
 20
54.426660978047501
 30
0.0
 11
127.2345352189994
 21
53.086533694841222
 31
0.0
 12
136.6041529029215
 22
48.740104065808111
 32
0.0
 13
136.6041529029215
 23
48.740104065808111
 33
0.0
  0
SOLID
  5
E1C
  8
DRG
  6
CONTINUOUS
 62
     7
 10
10.42981956125807
 20
54.445496591066302
 30
0.0
 11
9.2608673477428542
 21
53.036304180633991
 31
0.0
 12
25.844798136495001
 22
54.32395555433007
 32
0.0
 13
25.844798136495001
 23
54.32395555433007
 33
0.0
210
0.0
220
0.0
230
1.0
  0
SOLID
  5
E1D
  8
DRG
  6
CONTINUOUS
 62
     7
 10
69.333959449048862
 20
54.76881122374607
 30
0.0
 11
47.983201019849879
 21
53.54588866548535
 31
0.0
 12
70.76581779577775
 22
53.545888665485272
 32
0.0
 13
70.76581779577775
 23
53.545888665485272
 33
0.0
210
0.0
220
0.0
230
1.0
  0
SOLID
  5
E1E
  8
DRG
  6
CONTINUOUS
 62
     7
 10
106.3057360054698
 20
54.76881122374607
 30
0.0
 11
85.261041575894609
 21
53.84129081468609
 31
0.0
 12
107.7375943521987
 22
53.545888665485272
 32
0.0
 13
107.7375943521987
 23
53.545888665485272
 33
0.0
210
0.0
220
0.0
230
1.0
  0
SOLID
  5
E1F
  8
DRG
  6
CONTINUOUS
 62
     7
 10
49.415059366578767
 20
54.768811223746127
 30
0.0
 11
47.983201019849879
 21
53.54588866548535
 31
0.0
 12
69.333959449048862
 22
54.76881122374607
 32
0.0
 13
69.333959449048862
 23
54.76881122374607
 33
0.0
210
0.0
220
0.0
230
1.0
  0
SOLID
  5
E20
  8
DRG
  6
CONTINUOUS
 62
     7
 10
146.25826461696471
 20
54.791588372372388
 30
0.0
 11
144.82934634516241
 21
53.580146843936248
 31
0.0
 12
167.52163335736839
 22
53.601455089215932
 32
0.0
 13
167.52163335736839
 23
53.601455089215932
 33
0.0
210
0.0
220
0.0
230
1.0
  0
SOLID
  5
E21
  8
DRG
  6
CONTINUOUS
 62
     7
 10
166.0945826752498
 20
54.805750849914723
 30
0.0
 11
146.25826461696471
 21
54.791588372372388
 31
0.0
 12
167.52163335736839
 22
53.601455089215932
 32
0.0
 13
167.52163335736839
 23
53.601455089215932
 33
0.0
210
0.0
220
0.0
230
1.0
  0
SOLID
  5
E22
  8
DRG
  6
CONTINUOUS
 62
     7
 10
86.66495330688258
 20
54.964911074725819
 30
0.0
 11
85.261041575894609
 21
53.84129081468609
 31
0.0
 12
106.3057360054698
 22
54.76881122374607
 32
0.0
 13
106.3057360054698
 23
54.76881122374607
 33
0.0
210
0.0
220
0.0
230
1.0
  0
SOLID
  5
E23
  8
DRG
  6
CONTINUOUS
 62
     7
 10
129.80398889070241
 20
55.542402804156168
 30
0.0
 11
128.4120288872063
 21
54.426660978047501
 31
0.0
 12
136.6041529029215
 22
48.740104065808111
 32
0.0
 13
136.6041529029215
 23
48.740104065808111
 33
0.0
210
0.0
220
0.0
230
1.0
  0
SOLID
  5
E24
  8
DRG
  6
CONTINUOUS
 62
     7
 10
24.732069813226278
 20
55.606935899322451
 30
0.0
 11
10.42981956125807
 21
54.445496591066302
 31
0.0
 12
25.844798136495001
 22
54.32395555433007
 32
0.0
 13
25.844798136495001
 23
54.32395555433007
 33
0.0
210
0.0
220
0.0
230
1.0
  0
SOLID
  5
E25
  8
DRG
  6
CONTINUOUS
 62
     7
 10
11.797892504136779
 20
55.662315784728747
 30
0.0
 11
10.42981956125807
 21
54.445496591066302
 31
0.0
 12
24.732069813226278
 22
55.606935899322451
 32
0.0
 13
24.732069813226278
 23
55.606935899322451
 33
0.0
210
0.0
220
0.0
230
1.0
  0
SOLID
  5
E26
  8
DRG
  6
CONTINUOUS
 62
     7
 10
67.728422418413743
 20
55.752685581507109
 30
0.0
 11
49.415059366578767
 21
54.768811223746127
 31
0.0
 12
69.333959449048862
 22
54.76881122374607
 32
0.0
 13
69.333959449048862
 23
54.76881122374607
 33
0.0
210
0.0
220
0.0
230
1.0
  0
SOLID
  5
E27
  8
DRG
  6
CONTINUOUS
 62
     7
 10
104.70019897483471
 20
55.752685581507109
 30
0.0
 11
86.66495330688258
 21
54.964911074725819
 31
0.0
 12
106.3057360054698
 22
54.76881122374607
 32
0.0
 13
106.3057360054698
 23
54.76881122374607
 33
0.0
210
0.0
220
0.0
230
1.0
  0
SOLID
  5
E28
  8
DRG
  6
CONTINUOUS
 62
     7
 10
51.020596397213872
 20
55.752685581507151
 30
0.0
 11
49.415059366578767
 21
54.768811223746127
 31
0.0
 12
67.728422418413743
 22
55.752685581507109
 32
0.0
 13
67.728422418413743
 23
55.752685581507109
 33
0.0
  0
SOLID
  5
E29
  8
DRG
  6
CONTINUOUS
 62
     7
 10
147.85831395571171
 20
55.765877917571849
 30
0.0
 11
146.25826461696471
 21
54.791588372372388
 31
0.0
 12
166.0945826752498
 22
54.805750849914723
 32
0.0
 13
166.0945826752498
 23
54.805750849914723
 33
0.0
210
0.0
220
0.0
230
1.0
  0
SOLID
  5
E2A
  8
DRG
  6
CONTINUOUS
 62
     7
 10
164.49797903406079
 20
55.774078656762292
 30
0.0
 11
147.85831395571171
 21
55.765877917571849
 31
0.0
 12
166.0945826752498
 22
54.805750849914723
 32
0.0
 13
166.0945826752498
 23
54.805750849914723
 33
0.0
210
0.0
220
0.0
230
1.0
  0
SOLID
  5
E2B
  8
DRG
  6
CONTINUOUS
 62
     7
 10
88.221003144555837
 20
55.866132212879158
 30
0.0
 11
86.66495330688258
 21
54.964911074725819
 31
0.0
 12
104.70019897483471
 22
55.752685581507109
 32
0.0
 13
104.70019897483471
 23
55.752685581507109
 33
0.0
210
0.0
220
0.0
230
1.0
  0
SOLID
  5
E2C
  8
DRG
  6
CONTINUOUS
 62
     7
 10
131.36827517159969
 20
56.399981316747272
 30
0.0
 11
129.80398889070241
 21
55.542402804156168
 31
0.0
 12
136.6041529029215
 22
48.740104065808111
 32
0.0
 13
136.6041529029215
 23
48.740104065808111
 33
0.0
210
0.0
220
0.0
230
1.0
  0
SOLID
  5
E2D
  8
DRG
  6
CONTINUOUS
 62
     7
 10
102.9605169104595
 20
56.473285486788541
 30
0.0
 11
88.221003144555837
 21
55.866132212879158
 31
0.0
 12
104.70019897483471
 22
55.752685581507109
 32
0.0
 13
104.70019897483471
 23
55.752685581507109
 33
0.0
210
0.0
220
0.0
230
1.0
  0
SOLID
  5
E2E
  8
DRG
  6
CONTINUOUS
 62
     7
 10
65.988740354038555
 20
56.473285486788541
 30
0.0
 11
51.020596397213872
 21
55.752685581507151
 31
0.0
 12
67.728422418413743
 22
55.752685581507109
 32
0.0
 13
67.728422418413743
 23
55.752685581507109
 33
0.0
210
0.0
220
0.0
230
1.0
  0
SOLID
  5
E2F
  8
DRG
  6
CONTINUOUS
 62
     7
 10
52.760278461589039
 20
56.473285486788562
 30
0.0
 11
51.020596397213872
 21
55.752685581507151
 31
0.0
 12
65.988740354038555
 22
56.473285486788541
 32
0.0
 13
65.988740354038555
 23
56.473285486788541
 33
0.0
210
0.0
220
0.0
230
1.0
  0
SOLID
  5
E30
  8
DRG
  6
CONTINUOUS
 62
     7
 10
149.59049984781899
 20
56.479271244912823
 30
0.0
 11
147.85831395571171
 21
55.765877917571849
 31
0.0
 12
164.49797903406079
 22
55.774078656762292
 32
0.0
 13
164.49797903406079
 23
55.774078656762292
 33
0.0
210
0.0
220
0.0
230
1.0
  0
SOLID
  5
E31
  8
DRG
  6
CONTINUOUS
 62
     7
 10
162.77048243835179
 20
56.482991514866931
 30
0.0
 11
149.59049984781899
 21
56.479271244912823
 31
0.0
 12
164.49797903406079
 22
55.774078656762292
 32
0.0
 13
164.49797903406079
 23
55.774078656762292
 33
0.0
210
0.0
220
0.0
230
1.0
  0
SOLID
  5
E32
  8
DRG
  6
CONTINUOUS
 62
     7
 10
89.894250307101217
 20
56.524717492255519
 30
0.0
 11
88.221003144555837
 21
55.866132212879158
 31
0.0
 12
102.9605169104595
 22
56.473285486788541
 32
0.0
 13
102.9605169104595
 23
56.473285486788541
 33
0.0
210
0.0
220
0.0
230
1.0
  0
SOLID
  5
E33
  8
DRG
  6
CONTINUOUS
 62
     7
 10
13.33380241014922
 20
56.658936719545487
 30
0.0
 11
11.797892504136779
 21
55.662315784728747
 31
0.0
 12
24.732069813226278
 22
55.606935899322451
 32
0.0
 13
24.732069813226278
 23
55.606935899322451
 33
0.0
210
0.0
220
0.0
230
1.0
  0
SOLID
  5
E34
  8
DRG
  6
CONTINUOUS
 62
     7
 10
23.40031659456379
 20
56.660803183008269
 30
0.0
 11
13.33380241014922
 21
56.658936719545487
 31
0.0
 12
24.732069813226278
 22
55.606935899322451
 32
0.0
 13
24.732069813226278
 23
55.606935899322451
 33
0.0
210
0.0
220
0.0
230
1.0
  0
SOLID
  5
E35
  8
DRG
  6
CONTINUOUS
 62
     7
 10
101.1295265584429
 20
56.912867378388363
 30
0.0
 11
89.894250307101217
 21
56.524717492255519
 31
0.0
 12
102.9605169104595
 22
56.473285486788541
 32
0.0
 13
102.9605169104595
 23
56.473285486788541
 33
0.0
  0
SOLID
  5
E36
  8
DRG
  6
CONTINUOUS
 62
     7
 10
64.157750002021956
 20
56.912867378388363
 30
0.0
 11
52.760278461589039
 21
56.473285486788562
 31
0.0
 12
65.988740354038555
 22
56.473285486788541
 32
0.0
 13
65.988740354038555
 23
56.473285486788541
 33
0.0
210
0.0
220
0.0
230
1.0
  0
SOLID
  5
E37
  8
DRG
  6
CONTINUOUS
 62
     7
 10
54.591268813605623
 20
56.912867378388363
 30
0.0
 11
52.760278461589039
 21
56.473285486788562
 31
0.0
 12
64.157750002021956
 22
56.912867378388363
 32
0.0
 13
64.157750002021956
 23
56.912867378388363
 33
0.0
210
0.0
220
0.0
230
1.0
  0
SOLID
  5
E38
  8
DRG
  6
CONTINUOUS
 62
     7
 10
151.4126075036138
 20
56.914382374400461
 30
0.0
 11
149.59049984781899
 21
56.479271244912823
 31
0.0
 12
162.77048243835179
 22
56.482991514866931
 32
0.0
 13
162.77048243835179
 23
56.482991514866931
 33
0.0
210
0.0
220
0.0
230
1.0
  0
SOLID
  5
E39
  8
DRG
  6
CONTINUOUS
 62
     7
 10
160.9539223218834
 20
56.91532387755619
 30
0.0
 11
151.4126075036138
 21
56.914382374400461
 31
0.0
 12
162.77048243835179
 22
56.482991514866931
 32
0.0
 13
162.77048243835179
 23
56.482991514866931
 33
0.0
  0
SOLID
  5
E3A
  8
DRG
  6
CONTINUOUS
 62
     7
 10
91.647122370673046
 20
56.925878514697629
 30
0.0
 11
89.894250307101217
 21
56.524717492255519
 31
0.0
 12
101.1295265584429
 22
56.912867378388363
 32
0.0
 13
101.1295265584429
 23
56.912867378388363
 33
0.0
210
0.0
220
0.0
230
1.0
  0
SOLID
  5
E3B
  8
DRG
  6
CONTINUOUS
 62
     7
 10
133.05753068352811
 20
56.973434269726511
 30
0.0
 11
131.36827517159969
 21
56.399981316747272
 31
0.0
 12
136.6041529029215
 22
48.740104065808111
 32
0.0
 13
136.6041529029215
 23
48.740104065808111
 33
0.0
210
0.0
220
0.0
230
1.0
  0
SOLID
  5
E3C
  8
DRG
  6
CONTINUOUS
 62
     7
 10
27.267121908897021
 20
51.255838552818979
 30
0.0
 11
37.639779947293832
 21
57.06060729124669
 31
0.0
 12
27.267121908897028
 22
57.06060729124669
 32
0.0
 13
27.267121908897028
 23
57.06060729124669
 33
0.0
210
0.0
220
0.0
230
1.0
  0
SOLID
  5
E3D
  8
DRG
  6
CONTINUOUS
 62
     7
 10
37.639779947293832
 20
57.06060729124669
 30
0.0
 11
27.267121908897021
 21
51.255838552818979
 31
0.0
 12
37.639779947293839
 22
13.760967175618781
 32
0.0
 13
37.639779947293839
 23
13.760967175618781
 33
0.0
  0
SOLID
  5
E3E
  8
DRG
  6
CONTINUOUS
 62
     7
 10
54.591268813605623
 20
56.912867378388363
 30
0.0
 11
62.280536421539182
 21
57.06060729124669
 31
0.0
 12
56.468482394088369
 22
57.06060729124669
 32
0.0
 13
56.468482394088369
 23
57.06060729124669
 33
0.0
210
0.0
220
0.0
230
1.0
  0
SOLID
  5
E3F
  8
DRG
  6
CONTINUOUS
 62
     7
 10
62.280536421539182
 20
57.06060729124669
 30
0.0
 11
54.591268813605623
 21
56.912867378388363
 31
0.0
 12
64.157750002021956
 22
56.912867378388363
 32
0.0
 13
64.157750002021956
 23
56.912867378388363
 33
0.0
210
0.0
220
0.0
230
1.0
  0
SOLID
  5
E40
  8
DRG
  6
CONTINUOUS
 62
     7
 10
91.647122370673046
 20
56.925878514697629
 30
0.0
 11
99.252312977960173
 21
57.06060729124669
 31
0.0
 12
93.440258950509346
 22
57.06060729124669
 32
0.0
 13
93.440258950509346
 23
57.06060729124669
 33
0.0
210
0.0
220
0.0
230
1.0
  0
SOLID
  5
E41
  8
DRG
  6
CONTINUOUS
 62
     7
 10
99.252312977960173
 20
57.06060729124669
 30
0.0
 11
91.647122370673046
 21
56.925878514697629
 31
0.0
 12
101.1295265584429
 22
56.912867378388363
 32
0.0
 13
101.1295265584429
 23
56.912867378388363
 33
0.0
210
0.0
220
0.0
230
1.0
  0
SOLID
  5
E42
  8
DRG
  6
CONTINUOUS
 62
     7
 10
160.9539223218834
 20
56.91532387755619
 30
0.0
 11
159.0922846938046
 21
57.06060729124669
 31
0.0
 12
153.28023066635379
 22
57.06060729124669
 32
0.0
 13
153.28023066635379
 23
57.06060729124669
 33
0.0
210
0.0
220
0.0
230
1.0
  0
SOLID
  5
E43
  8
DRG
  6
CONTINUOUS
 62
     7
 10
153.28023066635379
 20
57.06060729124669
 30
0.0
 11
151.4126075036138
 21
56.914382374400461
 31
0.0
 12
160.9539223218834
 22
56.91532387755619
 32
0.0
 13
160.9539223218834
 23
56.91532387755619
 33
0.0
210
0.0
220
0.0
230
1.0
  0
SOLID
  5
E44
  8
DRG
  6
CONTINUOUS
 62
     7
 10
127.2345352189994
 20
53.086533694841222
 30
0.0
 11
127.2345352189994
 21
57.207648031108022
 31
0.0
 12
116.19314081319391
 22
57.207648031108022
 32
0.0
 13
116.19314081319391
 23
57.207648031108022
 33
0.0
210
0.0
220
0.0
230
1.0
  0
SOLID
  5
E45
  8
DRG
  6
CONTINUOUS
 62
     7
 10
116.19314081319391
 20
57.207648031108022
 30
0.0
 11
116.19314081319391
 21
17.28637227261407
 31
0.0
 12
127.2345352189994
 22
53.086533694841222
 32
0.0
 13
127.2345352189994
 23
53.086533694841222
 33
0.0
210
0.0
220
0.0
230
1.0
  0
SOLID
  5
E46
  8
DRG
  6
CONTINUOUS
 62
     7
 10
136.6041529029215
 20
57.207648031108022
 30
0.0
 11
133.05753068352811
 21
56.973434269726511
 31
0.0
 12
136.6041529029215
 22
48.740104065808111
 32
0.0
 13
136.6041529029215
 23
48.740104065808111
 33
0.0
210
0.0
220
0.0
230
1.0
  0
SOLID
  5
E47
  8
DRG
  6
CONTINUOUS
 62
     7
 10
134.8206150741201
 20
57.245401005766141
 30
0.0
 11
133.05753068352811
 21
56.973434269726511
 31
0.0
 12
136.6041529029215
 22
57.207648031108022
 32
0.0
 13
136.6041529029215
 23
57.207648031108022
 33
0.0
210
0.0
220
0.0
230
1.0
  0
SOLID
  5
E48
  8
DRG
  6
CONTINUOUS
 62
     7
 10
15.00242758004698
 20
57.41256963382525
 30
0.0
 11
13.33380241014922
 21
56.658936719545487
 31
0.0
 12
23.40031659456379
 22
56.660803183008269
 32
0.0
 13
23.40031659456379
 23
56.660803183008269
 33
0.0
  0
SOLID
  5
E49
  8
DRG
  6
CONTINUOUS
 62
     7
 10
21.895927098915749
 20
57.448848316503202
 30
0.0
 11
15.00242758004698
 21
57.41256963382525
 31
0.0
 12
23.40031659456379
 22
56.660803183008269
 32
0.0
 13
23.40031659456379
 23
56.660803183008269
 33
0.0
210
0.0
220
0.0
230
1.0
  0
SOLID
  5
E4A
  8
DRG
  6
CONTINUOUS
 62
     7
 10
16.765611510544261
 20
57.905981180445629
 30
0.0
 11
15.00242758004698
 21
57.41256963382525
 31
0.0
 12
21.895927098915749
 22
57.448848316503202
 32
0.0
 13
21.895927098915749
 23
57.448848316503202
 33
0.0
210
0.0
220
0.0
230
1.0
  0
SOLID
  5
E4B
  8
DRG
  6
CONTINUOUS
 62
     7
 10
20.271303339863209
 20
57.943621525724573
 30
0.0
 11
16.765611510544261
 21
57.905981180445629
 31
0.0
 12
21.895927098915749
 22
57.448848316503202
 32
0.0
 13
21.895927098915749
 23
57.448848316503202
 33
0.0
210
0.0
220
0.0
230
1.0
  0
SOLID
  5
E4C
  8
DRG
  6
CONTINUOUS
 62
     7
 10
18.58303542025671
 20
58.127888502333931
 30
0.0
 11
16.765611510544261
 21
57.905981180445629
 31
0.0
 12
20.271303339863209
 22
57.943621525724573
 32
0.0
 13
20.271303339863209
 23
57.943621525724573
 33
0.0
210
0.0
220
0.0
230
1.0
  0
SOLID
  5
E4D
  8
DRG
  6
CONTINUOUS
 62
     7
 10
82.01868759770089
 20
61.040289496156653
 30
0.0
 11
75.331191210151701
 21
60.89733173546756
 31
0.0
 12
80.675802928262684
 22
60.89733173546756
 32
0.0
 13
80.675802928262684
 23
60.89733173546756
 33
0.0
210
0.0
220
0.0
230
1.0
  0
SOLID
  5
E4E
  8
DRG
  6
CONTINUOUS
 62
     7
 10
105.53904684726351
 20
61.045071094397443
 30
0.0
 11
97.849782736700035
 21
60.89733173546756
 31
0.0
 12
103.66183676415081
 22
60.89733173546756
 32
0.0
 13
103.66183676415081
 23
60.89733173546756
 33
0.0
210
0.0
220
0.0
230
1.0
  0
SOLID
  5
E4F
  8
DRG
  6
CONTINUOUS
 62
     7
 10
49.52740701022941
 20
61.045071094397443
 30
0.0
 11
41.838142899665847
 21
60.89733173546756
 31
0.0
 12
47.650196927116667
 22
60.89733173546756
 32
0.0
 13
47.650196927116667
 23
60.89733173546756
 33
0.0
210
0.0
220
0.0
230
1.0
  0
SOLID
  5
E50
  8
DRG
  6
CONTINUOUS
 62
     7
 10
95.972569156217247
 20
61.045071648325901
 30
0.0
 11
97.849782736700035
 21
60.89733173546756
 31
0.0
 12
105.53904684726351
 22
61.045071094397443
 32
0.0
 13
105.53904684726351
 23
61.045071094397443
 33
0.0
210
0.0
220
0.0
230
1.0
  0
SOLID
  5
E51
  8
DRG
  6
CONTINUOUS
 62
     7
 10
39.960929319183123
 20
61.045071648325901
 30
0.0
 11
41.838142899665847
 21
60.89733173546756
 31
0.0
 12
49.52740701022941
 22
61.045071094397443
 32
0.0
 13
49.52740701022941
 23
61.045071094397443
 33
0.0
  0
SOLID
  5
E52
  8
DRG
  6
CONTINUOUS
 62
     7
 10
73.770468634022663
 20
61.051049492241717
 30
0.0
 11
75.331191210151701
 21
60.89733173546756
 31
0.0
 12
82.01868759770089
 22
61.040289496156653
 32
0.0
 13
82.01868759770089
 23
61.040289496156653
 33
0.0
210
0.0
220
0.0
230
1.0
  0
SOLID
  5
E53
  8
DRG
  6
CONTINUOUS
 62
     7
 10
83.309615438619744
 20
61.436876770654941
 30
0.0
 11
73.770468634022663
 21
61.051049492241717
 31
0.0
 12
82.01868759770089
 22
61.040289496156653
 32
0.0
 13
82.01868759770089
 23
61.040289496156653
 33
0.0
  0
SOLID
  5
E54
  8
DRG
  6
CONTINUOUS
 62
     7
 10
51.358394124299522
 20
61.484651351490918
 30
0.0
 11
39.960929319183123
 21
61.045071648325901
 31
0.0
 12
49.52740701022941
 22
61.045071094397443
 32
0.0
 13
49.52740701022941
 23
61.045071094397443
 33
0.0
210
0.0
220
0.0
230
1.0
  0
SOLID
  5
E55
  8
DRG
  6
CONTINUOUS
 62
     7
 10
107.3700339613337
 20
61.484651351490918
 30
0.0
 11
95.972569156217247
 21
61.045071648325901
 31
0.0
 12
105.53904684726351
 22
61.045071094397443
 32
0.0
 13
105.53904684726351
 23
61.045071094397443
 33
0.0
210
0.0
220
0.0
230
1.0
  0
SOLID
  5
E56
  8
DRG
  6
CONTINUOUS
 62
     7
 10
38.129938967166559
 20
61.484653539925702
 30
0.0
 11
39.960929319183123
 21
61.045071648325901
 31
0.0
 12
51.358394124299522
 22
61.484651351490918
 32
0.0
 13
51.358394124299522
 23
61.484651351490918
 33
0.0
210
0.0
220
0.0
230
1.0
  0
SOLID
  5
E57
  8
DRG
  6
CONTINUOUS
 62
     7
 10
94.141578804200677
 20
61.484653539925709
 30
0.0
 11
95.972569156217247
 21
61.045071648325901
 31
0.0
 12
107.3700339613337
 22
61.484651351490918
 32
0.0
 13
107.3700339613337
 23
61.484651351490918
 33
0.0
210
0.0
220
0.0
230
1.0
  0
SOLID
  5
E58
  8
DRG
  6
CONTINUOUS
 62
     7
 10
72.269723751230984
 20
61.506295475377271
 30
0.0
 11
73.770468634022663
 21
61.051049492241717
 31
0.0
 12
83.309615438619744
 22
61.436876770654941
 32
0.0
 13
83.309615438619744
 23
61.436876770654941
 33
0.0
210
0.0
220
0.0
230
1.0
  0
SOLID
  5
E59
  8
DRG
  6
CONTINUOUS
 62
     7
 10
84.501142256151084
 20
62.072518178885289
 30
0.0
 11
72.269723751230984
 21
61.506295475377271
 31
0.0
 12
83.309615438619744
 22
61.436876770654941
 32
0.0
 13
83.309615438619744
 23
61.436876770654941
 33
0.0
  0
SOLID
  5
E5A
  8
DRG
  6
CONTINUOUS
 62
     7
 10
53.098073458920069
 20
62.205248622517793
 30
0.0
 11
38.129938967166559
 21
61.484653539925702
 31
0.0
 12
51.358394124299522
 22
61.484651351490918
 32
0.0
 13
51.358394124299522
 23
61.484651351490918
 33
0.0
210
0.0
220
0.0
230
1.0
  0
SOLID
  5
E5B
  8
DRG
  6
CONTINUOUS
 62
     7
 10
109.10971329595419
 20
62.205248622517793
 30
0.0
 11
94.141578804200677
 21
61.484653539925709
 31
0.0
 12
107.3700339613337
 22
61.484651351490918
 32
0.0
 13
107.3700339613337
 23
61.484651351490918
 33
0.0
210
0.0
220
0.0
230
1.0
  0
SOLID
  5
E5C
  8
DRG
  6
CONTINUOUS
 62
     7
 10
36.390256902791393
 20
62.205253445207092
 30
0.0
 11
38.129938967166559
 21
61.484653539925702
 31
0.0
 12
53.098073458920069
 22
62.205248622517793
 32
0.0
 13
53.098073458920069
 23
62.205248622517793
 33
0.0
210
0.0
220
0.0
230
1.0
  0
SOLID
  5
E5D
  8
DRG
  6
CONTINUOUS
 62
     7
 10
92.401896739825474
 20
62.205253445207127
 30
0.0
 11
94.141578804200677
 21
61.484653539925709
 31
0.0
 12
109.10971329595419
 22
62.205248622517793
 32
0.0
 13
109.10971329595419
 23
62.205248622517793
 33
0.0
  0
SOLID
  5
E5E
  8
DRG
  6
CONTINUOUS
 62
     7
 10
70.886629345994876
 20
62.245574837047201
 30
0.0
 11
72.269723751230984
 21
61.506295475377271
 31
0.0
 12
84.501142256151084
 22
62.072518178885289
 32
0.0
 13
84.501142256151084
 23
62.072518178885289
 33
0.0
210
0.0
220
0.0
230
1.0
  0
SOLID
  5
E5F
  8
DRG
  6
CONTINUOUS
 62
     7
 10
110.7152483328518
 20
63.189119477666686
 30
0.0
 11
92.401896739825474
 21
62.205253445207127
 31
0.0
 12
109.10971329595419
 22
62.205248622517793
 32
0.0
 13
109.10971329595419
 23
62.205248622517793
 33
0.0
210
0.0
220
0.0
230
1.0
  0
SOLID
  5
E60
  8
DRG
  6
CONTINUOUS
 62
     7
 10
54.703608495817662
 20
63.189119477666686
 30
0.0
 11
36.390256902791393
 21
62.205253445207092
 31
0.0
 12
53.098073458920069
 22
62.205248622517793
 32
0.0
 13
53.098073458920069
 23
62.205248622517793
 33
0.0
210
0.0
220
0.0
230
1.0
  0
SOLID
  5
E61
  8
DRG
  6
CONTINUOUS
 62
     7
 10
34.784719872156288
 20
63.189127802968102
 30
0.0
 11
36.390256902791393
 21
62.205253445207092
 31
0.0
 12
54.703608495817662
 22
63.189119477666686
 32
0.0
 13
54.703608495817662
 23
63.189119477666686
 33
0.0
210
0.0
220
0.0
230
1.0
  0
SOLID
  5
E62
  8
DRG
  6
CONTINUOUS
 62
     7
 10
90.796359709190384
 20
63.189127802968173
 30
0.0
 11
92.401896739825474
 21
62.205253445207127
 31
0.0
 12
110.7152483328518
 22
63.189119477666686
 32
0.0
 13
110.7152483328518
 23
63.189119477666686
 33
0.0
210
0.0
220
0.0
230
1.0
  0
SOLID
  5
E63
  8
DRG
  6
CONTINUOUS
 62
     7
 10
69.674336960659303
 20
63.240477485975177
 30
0.0
 11
70.886629345994876
 21
62.245574837047201
 31
0.0
 12
84.501142256151084
 22
62.072518178885289
 32
0.0
 13
84.501142256151084
 23
62.072518178885289
 33
0.0
210
0.0
220
0.0
230
1.0
  0
SOLID
  5
E64
  8
DRG
  6
CONTINUOUS
 62
     7
 10
112.14710561917801
 20
64.412037842036057
 30
0.0
 11
90.796359709190384
 21
63.189127802968173
 31
0.0
 12
110.7152483328518
 22
63.189119477666686
 32
0.0
 13
110.7152483328518
 23
63.189119477666686
 33
0.0
210
0.0
220
0.0
230
1.0
  0
SOLID
  5
E65
  8
DRG
  6
CONTINUOUS
 62
     7
 10
56.135465782143832
 20
64.412037842036057
 30
0.0
 11
34.784719872156288
 21
63.189127802968102
 31
0.0
 12
54.703608495817662
 22
63.189119477666686
 32
0.0
 13
54.703608495817662
 23
63.189119477666686
 33
0.0
210
0.0
220
0.0
230
1.0
  0
SOLID
  5
E66
  8
DRG
  6
CONTINUOUS
 62
     7
 10
33.352861525427407
 20
64.412050361228864
 30
0.0
 11
34.784719872156288
 21
63.189127802968102
 31
0.0
 12
56.135465782143832
 22
64.412037842036057
 32
0.0
 13
56.135465782143832
 23
64.412037842036057
 33
0.0
  0
SOLID
  5
E67
  8
DRG
  6
CONTINUOUS
 62
     7
 10
89.364501362461496
 20
64.412050361228964
 30
0.0
 11
90.796359709190384
 21
63.189127802968173
 31
0.0
 12
112.14710561917801
 22
64.412037842036057
 32
0.0
 13
112.14710561917801
 23
64.412037842036057
 33
0.0
210
0.0
220
0.0
230
1.0
  0
SOLID
  5
E68
  8
DRG
  6
CONTINUOUS
 62
     7
 10
68.679434311731342
 20
64.45276987131075
 30
0.0
 11
69.674336960659303
 21
63.240477485975177
 31
0.0
 12
84.501142256151084
 22
62.072518178885289
 32
0.0
 13
84.501142256151084
 23
62.072518178885289
 33
0.0
210
0.0
220
0.0
230
1.0
  0
SOLID
  5
E69
  8
DRG
  6
CONTINUOUS
 62
     7
 10
67.940154950061412
 20
65.835864276546843
 30
0.0
 11
68.679434311731342
 21
64.45276987131075
 31
0.0
 12
84.501142256151084
 22
62.072518178885289
 32
0.0
 13
84.501142256151084
 23
62.072518178885289
 33
0.0
210
0.0
220
0.0
230
1.0
  0
SOLID
  5
E6A
  8
DRG
  6
CONTINUOUS
 62
     7
 10
57.358388371638434
 20
65.843891519763289
 30
0.0
 11
33.352861525427407
 21
64.412050361228864
 31
0.0
 12
56.135465782143832
 22
64.412037842036057
 32
0.0
 13
56.135465782143832
 23
64.412037842036057
 33
0.0
  0
SOLID
  5
E6B
  8
DRG
  6
CONTINUOUS
 62
     7
 10
113.37002820867259
 20
65.843891519763289
 30
0.0
 11
89.364501362461496
 21
64.412050361228964
 31
0.0
 12
112.14710561917801
 22
64.412037842036057
 32
0.0
 13
112.14710561917801
 23
64.412037842036057
 33
0.0
210
0.0
220
0.0
230
1.0
  0
SOLID
  5
E6C
  8
DRG
  6
CONTINUOUS
 62
     7
 10
32.129938967166609
 20
65.843908707957709
 30
0.0
 11
33.352861525427407
 21
64.412050361228864
 31
0.0
 12
57.358388371638434
 22
65.843891519763289
 32
0.0
 13
57.358388371638434
 23
65.843891519763289
 33
0.0
210
0.0
220
0.0
230
1.0
  0
SOLID
  5
E6D
  8
DRG
  6
CONTINUOUS
 62
     7
 10
88.141578804200691
 20
65.843908707957823
 30
0.0
 11
89.364501362461496
 21
64.412050361228964
 31
0.0
 12
113.37002820867259
 22
65.843891519763289
 32
0.0
 13
113.37002820867259
 23
65.843891519763289
 33
0.0
210
0.0
220
0.0
230
1.0
  0
SOLID
  5
E6E
  8
DRG
  6
CONTINUOUS
 62
     7
 10
67.484908966925857
 20
67.336609159338536
 30
0.0
 11
67.940154950061412
 21
65.835864276546843
 31
0.0
 12
84.501142256151084
 22
62.072518178885289
 32
0.0
 13
84.501142256151084
 23
62.072518178885289
 33
0.0
210
0.0
220
0.0
230
1.0
  0
SOLID
  5
E6F
  8
DRG
  6
CONTINUOUS
 62
     7
 10
58.342263964402669
 20
67.449423653443588
 30
0.0
 11
32.129938967166609
 21
65.843908707957709
 31
0.0
 12
57.358388371638434
 22
65.843891519763289
 32
0.0
 13
57.358388371638434
 23
65.843891519763289
 33
0.0
210
0.0
220
0.0
230
1.0
  0
SOLID
  5
E70
  8
DRG
  6
CONTINUOUS
 62
     7
 10
114.3539038014368
 20
67.449423653443588
 30
0.0
 11
88.141578804200691
 21
65.843908707957823
 31
0.0
 12
113.37002820867259
 22
65.843891519763289
 32
0.0
 13
113.37002820867259
 23
65.843891519763289
 33
0.0
210
0.0
220
0.0
230
1.0
  0
SOLID
  5
E71
  8
DRG
  6
CONTINUOUS
 62
     7
 10
31.146064609405549
 20
67.449445738592772
 30
0.0
 11
32.129938967166609
 21
65.843908707957709
 31
0.0
 12
58.342263964402669
 22
67.449423653443588
 32
0.0
 13
58.342263964402669
 23
67.449423653443588
 33
0.0
  0
SOLID
  5
E72
  8
DRG
  6
CONTINUOUS
 62
     7
 10
87.157704446439652
 20
67.449445738592942
 30
0.0
 11
88.141578804200691
 21
65.843908707957823
 31
0.0
 12
114.3539038014368
 22
67.449423653443588
 32
0.0
 13
114.3539038014368
 23
67.449423653443588
 33
0.0
210
0.0
220
0.0
230
1.0
  0
SOLID
  5
E73
  8
DRG
  6
CONTINUOUS
 62
     7
 10
44.744171147941039
 20
68.794444026784149
 30
0.0
 11
31.146064609405549
 21
67.449445738592772
 31
0.0
 12
58.342263964402669
 22
67.449423653443588
 32
0.0
 13
58.342263964402669
 23
67.449423653443588
 33
0.0
210
0.0
220
0.0
230
1.0
  0
SOLID
  5
E74
  8
DRG
  6
CONTINUOUS
 62
     7
 10
100.7558109849752
 20
68.794444026784163
 30
0.0
 11
87.157704446439652
 21
67.449445738592942
 31
0.0
 12
114.3539038014368
 22
67.449423653443588
 32
0.0
 13
114.3539038014368
 23
67.449423653443588
 33
0.0
210
0.0
220
0.0
230
1.0
  0
SOLID
  5
E75
  8
DRG
  6
CONTINUOUS
 62
     7
 10
67.331191210151701
 20
68.89733173546756
 30
0.0
 11
67.484908966925857
 21
67.336609159338536
 31
0.0
 12
84.501142256151084
 22
62.072518178885289
 32
0.0
 13
84.501142256151084
 23
62.072518178885289
 33
0.0
210
0.0
220
0.0
230
1.0
  0
SOLID
  5
E76
  8
DRG
  6
CONTINUOUS
 62
     7
 10
45.743523069513166
 20
68.926011203227603
 30
0.0
 11
44.744171147941039
 21
68.794444026784149
 31
0.0
 12
58.342263964402669
 22
67.449423653443588
 32
0.0
 13
58.342263964402669
 23
67.449423653443588
 33
0.0
  0
SOLID
  5
E77
  8
DRG
  6
CONTINUOUS
 62
     7
 10
101.7551629065473
 20
68.926011203227617
 30
0.0
 11
100.7558109849752
 21
68.794444026784163
 31
0.0
 12
114.3539038014368
 22
67.449423653443588
 32
0.0
 13
114.3539038014368
 23
67.449423653443588
 33
0.0
210
0.0
220
0.0
230
1.0
  0
SOLID
  5
E78
  8
DRG
  6
CONTINUOUS
 62
     7
 10
43.744819226368982
 20
68.926011203228157
 30
0.0
 11
31.146064609405549
 21
67.449445738592772
 31
0.0
 12
44.744171147941039
 22
68.794444026784149
 32
0.0
 13
44.744171147941039
 23
68.794444026784149
 33
0.0
210
0.0
220
0.0
230
1.0
  0
SOLID
  5
E79
  8
DRG
  6
CONTINUOUS
 62
     7
 10
99.756459063403184
 20
68.926011203228157
 30
0.0
 11
87.157704446439652
 21
67.449445738592942
 31
0.0
 12
100.7558109849752
 22
68.794444026784163
 32
0.0
 13
100.7558109849752
 23
68.794444026784163
 33
0.0
210
0.0
220
0.0
230
1.0
  0
SOLID
  5
E7A
  8
DRG
  6
CONTINUOUS
 62
     7
 10
115.07450620591371
 20
69.189100861715076
 30
0.0
 11
101.7551629065473
 21
68.926011203227617
 31
0.0
 12
114.3539038014368
 22
67.449423653443588
 32
0.0
 13
114.3539038014368
 23
67.449423653443588
 33
0.0
210
0.0
220
0.0
230
1.0
  0
SOLID
  5
E7B
  8
DRG
  6
CONTINUOUS
 62
     7
 10
59.062866368879583
 20
69.189100861715076
 30
0.0
 11
45.743523069513166
 21
68.926011203227603
 31
0.0
 12
58.342263964402669
 22
67.449423653443588
 32
0.0
 13
58.342263964402669
 23
67.449423653443588
 33
0.0
210
0.0
220
0.0
230
1.0
  0
SOLID
  5
E7C
  8
DRG
  6
CONTINUOUS
 62
     7
 10
30.425464704124099
 20
69.189127802967917
 30
0.0
 11
31.146064609405549
 21
67.449445738592772
 31
0.0
 12
43.744819226368982
 22
68.926011203228157
 32
0.0
 13
43.744819226368982
 23
68.926011203228157
 33
0.0
210
0.0
220
0.0
230
1.0
  0
SOLID
  5
E7D
  8
DRG
  6
CONTINUOUS
 62
     7
 10
86.437104541158206
 20
69.18912780296813
 30
0.0
 11
87.157704446439652
 21
67.449445738592942
 31
0.0
 12
99.756459063403184
 22
68.926011203228157
 32
0.0
 13
99.756459063403184
 23
68.926011203228157
 33
0.0
210
0.0
220
0.0
230
1.0
  0
SOLID
  5
E7E
  8
DRG
  6
CONTINUOUS
 62
     7
 10
46.674770809137378
 20
69.311746646908944
 30
0.0
 11
45.743523069513166
 21
68.926011203227603
 31
0.0
 12
59.062866368879583
 22
69.189100861715076
 32
0.0
 13
59.062866368879583
 23
69.189100861715076
 33
0.0
210
0.0
220
0.0
230
1.0
  0
SOLID
  5
E7F
  8
DRG
  6
CONTINUOUS
 62
     7
 10
102.6864106461715
 20
69.311746646908958
 30
0.0
 11
101.7551629065473
 21
68.926011203227617
 31
0.0
 12
115.07450620591371
 22
69.189100861715076
 32
0.0
 13
115.07450620591371
 23
69.189100861715076
 33
0.0
210
0.0
220
0.0
230
1.0
  0
SOLID
  5
E80
  8
DRG
  6
CONTINUOUS
 62
     7
 10
42.813571486744991
 20
69.311746646909995
 30
0.0
 11
30.425464704124099
 21
69.189127802967917
 31
0.0
 12
43.744819226368982
 22
68.926011203228157
 32
0.0
 13
43.744819226368982
 23
68.926011203228157
 33
0.0
210
0.0
220
0.0
230
1.0
  0
SOLID
  5
E81
  8
DRG
  6
CONTINUOUS
 62
     7
 10
98.825211323779172
 20
69.311746646910009
 30
0.0
 11
86.437104541158206
 21
69.18912780296813
 31
0.0
 12
99.756459063403184
 22
68.926011203228157
 32
0.0
 13
99.756459063403184
 23
68.926011203228157
 33
0.0
  0
SOLID
  5
E82
  8
DRG
  6
CONTINUOUS
 62
     7
 10
80.482556033578916
 20
69.876055965300111
 30
0.0
 11
67.331191210151701
 21
68.89733173546756
 31
0.0
 12
84.501142256151084
 22
62.072518178885289
 32
0.0
 13
84.501142256151084
 23
62.072518178885289
 33
0.0
210
0.0
220
0.0
230
1.0
  0
SOLID
  5
E83
  8
DRG
  6
CONTINUOUS
 62
     7
 10
84.501142256151084
 20
62.072518178885289
 30
0.0
 11
83.501142256151255
 21
69.876055965300111
 31
0.0
 12
80.482556033578916
 22
69.876055965300111
 32
0.0
 13
80.482556033578916
 23
69.876055965300111
 33
0.0
210
0.0
220
0.0
230
1.0
  0
SOLID
  5
E84
  8
DRG
  6
CONTINUOUS
 62
     7
 10
47.474451372317922
 20
69.925363124799233
 30
0.0
 11
46.674770809137378
 21
69.311746646908944
 31
0.0
 12
59.062866368879583
 22
69.189100861715076
 32
0.0
 13
59.062866368879583
 23
69.189100861715076
 33
0.0
210
0.0
220
0.0
230
1.0
  0
SOLID
  5
E85
  8
DRG
  6
CONTINUOUS
 62
     7
 10
103.4860912093521
 20
69.925363124799233
 30
0.0
 11
102.6864106461715
 21
69.311746646908958
 31
0.0
 12
115.07450620591371
 22
69.189100861715076
 32
0.0
 13
115.07450620591371
 23
69.189100861715076
 33
0.0
  0
SOLID
  5
E86
  8
DRG
  6
CONTINUOUS
 62
     7
 10
98.025530760598997
 20
69.925363124800725
 30
0.0
 11
86.437104541158206
 21
69.18912780296813
 31
0.0
 12
98.825211323779172
 22
69.311746646910009
 32
0.0
 13
98.825211323779172
 23
69.311746646910009
 33
0.0
210
0.0
220
0.0
230
1.0
  0
SOLID
  5
E87
  8
DRG
  6
CONTINUOUS
 62
     7
 10
42.01389092356478
 20
69.925363124800725
 30
0.0
 11
30.425464704124099
 21
69.189127802967917
 31
0.0
 12
42.813571486744991
 22
69.311746646909995
 32
0.0
 13
42.813571486744991
 23
69.311746646909995
 33
0.0
210
0.0
220
0.0
230
1.0
  0
SOLID
  5
E88
  8
DRG
  6
CONTINUOUS
 62
     7
 10
84.015250681967487
 20
70.00375669518948
 30
0.0
 11
83.501142256151255
 21
69.876055965300111
 31
0.0
 12
84.501142256151084
 22
62.072518178885289
 32
0.0
 13
84.501142256151084
 23
62.072518178885289
 33
0.0
  0
SOLID
  5
E89
  8
DRG
  6
CONTINUOUS
 62
     7
 10
79.555505050454073
 20
70.02288641641465
 30
0.0
 11
67.331191210151701
 21
68.89733173546756
 31
0.0
 12
80.482556033578916
 22
69.876055965300111
 32
0.0
 13
80.482556033578916
 23
69.876055965300111
 33
0.0
210
0.0
220
0.0
230
1.0
  0
SOLID
  5
E8A
  8
DRG
  6
CONTINUOUS
 62
     7
 10
84.501142256151084
 20
70.214764581409185
 30
0.0
 11
84.015250681967487
 21
70.00375669518948
 31
0.0
 12
84.501142256151084
 22
62.072518178885289
 32
0.0
 13
84.501142256151084
 23
62.072518178885289
 33
0.0
210
0.0
220
0.0
230
1.0
  0
SOLID
  5
E8B
  8
DRG
  6
CONTINUOUS
 62
     7
 10
78.719200276701514
 20
70.449004982175254
 30
0.0
 11
67.331191210151701
 21
68.89733173546756
 31
0.0
 12
79.555505050454073
 22
70.02288641641465
 32
0.0
 13
79.555505050454073
 23
70.02288641641465
 33
0.0
210
0.0
220
0.0
230
1.0
  0
SOLID
  5
E8C
  8
DRG
  6
CONTINUOUS
 62
     7
 10
48.088067850208638
 20
70.725043687979436
 30
0.0
 11
47.474451372317922
 21
69.925363124799233
 31
0.0
 12
59.062866368879583
 22
69.189100861715076
 32
0.0
 13
59.062866368879583
 23
69.189100861715076
 33
0.0
210
0.0
220
0.0
230
1.0
  0
SOLID
  5
E8D
  8
DRG
  6
CONTINUOUS
 62
     7
 10
104.0997076872428
 20
70.725043687979451
 30
0.0
 11
103.4860912093521
 21
69.925363124799233
 31
0.0
 12
115.07450620591371
 22
69.189100861715076
 32
0.0
 13
115.07450620591371
 23
69.189100861715076
 33
0.0
210
0.0
220
0.0
230
1.0
  0
SOLID
  5
E8E
  8
DRG
  6
CONTINUOUS
 62
     7
 10
97.411914282708679
 20
70.725043687981255
 30
0.0
 11
86.437104541158206
 21
69.18912780296813
 31
0.0
 12
98.025530760598997
 22
69.925363124800725
 32
0.0
 13
98.025530760598997
 23
69.925363124800725
 33
0.0
210
0.0
220
0.0
230
1.0
  0
SOLID
  5
E8F
  8
DRG
  6
CONTINUOUS
 62
     7
 10
41.400274445674498
 20
70.725043687981255
 30
0.0
 11
30.425464704124099
 21
69.189127802967917
 31
0.0
 12
42.01389092356478
 22
69.925363124800725
 32
0.0
 13
42.01389092356478
 23
69.925363124800725
 33
0.0
210
0.0
220
0.0
230
1.0
  0
SOLID
  5
E90
  8
DRG
  6
CONTINUOUS
 62
     7
 10
115.5140918658898
 20
71.020086678661926
 30
0.0
 11
104.0997076872428
 21
70.725043687979451
 31
0.0
 12
115.07450620591371
 22
69.189100861715076
 32
0.0
 13
115.07450620591371
 23
69.189100861715076
 33
0.0
210
0.0
220
0.0
230
1.0
  0
SOLID
  5
E91
  8
DRG
  6
CONTINUOUS
 62
     7
 10
59.502452028855693
 20
71.020086678661926
 30
0.0
 11
48.088067850208638
 21
70.725043687979436
 31
0.0
 12
59.062866368879583
 22
69.189100861715076
 32
0.0
 13
59.062866368879583
 23
69.189100861715076
 33
0.0
210
0.0
220
0.0
230
1.0
  0
SOLID
  5
E92
  8
DRG
  6
CONTINUOUS
 62
     7
 10
29.985882812524249
 20
71.020118154984459
 30
0.0
 11
30.425464704124099
 21
69.189127802967917
 31
0.0
 12
41.400274445674498
 22
70.725043687981255
 32
0.0
 13
41.400274445674498
 23
70.725043687981255
 33
0.0
210
0.0
220
0.0
230
1.0
  0
SOLID
  5
E93
  8
DRG
  6
CONTINUOUS
 62
     7
 10
85.997522649558391
 20
71.020118154984715
 30
0.0
 11
86.437104541158206
 21
69.18912780296813
 31
0.0
 12
97.411914282708679
 22
70.725043687981255
 32
0.0
 13
97.411914282708679
 23
70.725043687981255
 33
0.0
210
0.0
220
0.0
230
1.0
  0
SOLID
  5
E94
  8
DRG
  6
CONTINUOUS
 62
     7
 10
78.055505050454087
 20
71.112700208422694
 30
0.0
 11
67.331191210151701
 21
68.89733173546756
 31
0.0
 12
78.719200276701514
 22
70.449004982175254
 32
0.0
 13
78.719200276701514
 23
70.449004982175254
 33
0.0
210
0.0
220
0.0
230
1.0
  0
SOLID
  5
E95
  8
DRG
  6
CONTINUOUS
 62
     7
 10
48.473803293890491
 20
71.656291427603421
 30
0.0
 11
48.088067850208638
 21
70.725043687979436
 31
0.0
 12
59.502452028855693
 22
71.020086678661926
 32
0.0
 13
59.502452028855693
 23
71.020086678661926
 33
0.0
210
0.0
220
0.0
230
1.0
  0
SOLID
  5
E96
  8
DRG
  6
CONTINUOUS
 62
     7
 10
104.48544313092459
 20
71.656291427603435
 30
0.0
 11
104.0997076872428
 21
70.725043687979451
 31
0.0
 12
115.5140918658898
 22
71.020086678661926
 32
0.0
 13
115.5140918658898
 23
71.020086678661926
 33
0.0
210
0.0
220
0.0
230
1.0
  0
SOLID
  5
E97
  8
DRG
  6
CONTINUOUS
 62
     7
 10
97.026178839027338
 20
71.656291427605453
 30
0.0
 11
85.997522649558391
 21
71.020118154984715
 31
0.0
 12
97.411914282708679
 22
70.725043687981255
 32
0.0
 13
97.411914282708679
 23
70.725043687981255
 33
0.0
210
0.0
220
0.0
230
1.0
  0
SOLID
  5
E98
  8
DRG
  6
CONTINUOUS
 62
     7
 10
41.014539001993157
 20
71.656291427605453
 30
0.0
 11
29.985882812524249
 21
71.020118154984459
 31
0.0
 12
41.400274445674498
 22
70.725043687981255
 32
0.0
 13
41.400274445674498
 23
70.725043687981255
 33
0.0
  0
SOLID
  5
E99
  8
DRG
  6
CONTINUOUS
 62
     7
 10
77.62938648469347
 20
71.949004982175268
 30
0.0
 11
67.331191210151701
 21
68.89733173546756
 31
0.0
 12
78.055505050454087
 22
71.112700208422694
 32
0.0
 13
78.055505050454087
 23
71.112700208422694
 33
0.0
210
0.0
220
0.0
230
1.0
  0
SOLID
  5
E9A
  8
DRG
  6
CONTINUOUS
 62
     7
 10
48.605370470334492
 20
72.655643349175492
 30
0.0
 11
48.473803293890491
 21
71.656291427603421
 31
0.0
 12
59.502452028855693
 22
71.020086678661926
 32
0.0
 13
59.502452028855693
 23
71.020086678661926
 33
0.0
210
0.0
220
0.0
230
1.0
  0
SOLID
  5
E9B
  8
DRG
  6
CONTINUOUS
 62
     7
 10
104.6170103073686
 20
72.655643349175506
 30
0.0
 11
104.48544313092459
 21
71.656291427603435
 31
0.0
 12
115.5140918658898
 22
71.020086678661926
 32
0.0
 13
115.5140918658898
 23
71.020086678661926
 33
0.0
210
0.0
220
0.0
230
1.0
  0
SOLID
  5
E9C
  8
DRG
  6
CONTINUOUS
 62
     7
 10
40.882971825549703
 20
72.655643349177566
 30
0.0
 11
29.985882812524249
 21
71.020118154984459
 31
0.0
 12
41.014539001993157
 22
71.656291427605453
 32
0.0
 13
41.014539001993157
 23
71.656291427605453
 33
0.0
210
0.0
220
0.0
230
1.0
  0
SOLID
  5
E9D
  8
DRG
  6
CONTINUOUS
 62
     7
 10
96.894611662583884
 20
72.655643349177595
 30
0.0
 11
85.997522649558391
 21
71.020118154984715
 31
0.0
 12
97.026178839027338
 22
71.656291427605453
 32
0.0
 13
97.026178839027338
 23
71.656291427605453
 33
0.0
210
0.0
220
0.0
230
1.0
  0
SOLID
  5
E9E
  8
DRG
  6
CONTINUOUS
 62
     7
 10
77.482556033578931
 20
72.876055965300111
 30
0.0
 11
67.331191210151701
 21
68.89733173546756
 31
0.0
 12
77.62938648469347
 22
71.949004982175268
 32
0.0
 13
77.62938648469347
 23
71.949004982175268
 33
0.0
210
0.0
220
0.0
230
1.0
  0
SOLID
  5
E9F
  8
DRG
  6
CONTINUOUS
 62
     7
 10
115.6618367640986
 20
72.897296325816527
 30
0.0
 11
104.6170103073686
 21
72.655643349175506
 31
0.0
 12
115.5140918658898
 22
71.020086678661926
 32
0.0
 13
115.5140918658898
 23
71.020086678661926
 33
0.0
210
0.0
220
0.0
230
1.0
  0
SOLID
  5
EA0
  8
DRG
  6
CONTINUOUS
 62
     7
 10
59.650196927064421
 20
72.897296325816555
 30
0.0
 11
48.605370470334492
 21
72.655643349175492
 31
0.0
 12
59.502452028855693
 22
71.020086678661926
 32
0.0
 13
59.502452028855693
 23
71.020086678661926
 33
0.0
210
0.0
220
0.0
230
1.0
  0
SOLID
  5
EA1
  8
DRG
  6
CONTINUOUS
 62
     7
 10
29.838142899665851
 20
72.897331735467191
 30
0.0
 11
29.985882812524249
 21
71.020118154984459
 31
0.0
 12
40.882971825549703
 22
72.655643349177566
 32
0.0
 13
40.882971825549703
 23
72.655643349177566
 33
0.0
  0
SOLID
  5
EA2
  8
DRG
  6
CONTINUOUS
 62
     7
 10
85.849782736700035
 20
72.897331735467475
 30
0.0
 11
85.997522649558391
 21
71.020118154984715
 31
0.0
 12
96.894611662583884
 22
72.655643349177595
 32
0.0
 13
96.894611662583884
 23
72.655643349177595
 33
0.0
210
0.0
220
0.0
230
1.0
  0
SOLID
  5
EA3
  8
DRG
  6
CONTINUOUS
 62
     7
 10
165.4162645291251
 20
78.311404477182364
 30
0.0
 11
161.3332883364622
 21
62.115696081838678
 31
0.0
 12
171.78072804963571
 22
62.115696081838678
 32
0.0
 13
171.78072804963571
 23
62.115696081838678
 33
0.0
210
0.0
220
0.0
230
1.0
  0
SOLID
  5
EA4
  8
DRG
  6
CONTINUOUS
 62
     7
 10
115.9280150750885
 20
78.628250557125298
 30
0.0
 11
104.6170103073686
 21
72.655643349175506
 31
0.0
 12
115.6618367640986
 22
72.897296325816527
 32
0.0
 13
115.6618367640986
 23
72.897296325816527
 33
0.0
210
0.0
220
0.0
230
1.0
  0
SOLID
  5
EA5
  8
DRG
  6
CONTINUOUS
 62
     7
 10
59.916375238054371
 20
78.628250557125327
 30
0.0
 11
48.605370470334492
 21
72.655643349175492
 31
0.0
 12
59.650196927064421
 22
72.897296325816555
 32
0.0
 13
59.650196927064421
 23
72.897296325816555
 33
0.0
210
0.0
220
0.0
230
1.0
  0
SOLID
  5
EA6
  8
DRG
  6
CONTINUOUS
 62
     7
 10
29.57196678328226
 20
78.628262385817905
 30
0.0
 11
29.838142899665851
 21
72.897331735467191
 31
0.0
 12
40.882971825549703
 22
72.655643349177566
 32
0.0
 13
40.882971825549703
 23
72.655643349177566
 33
0.0
210
0.0
220
0.0
230
1.0
  0
SOLID
  5
EA7
  8
DRG
  6
CONTINUOUS
 62
     7
 10
85.583606620316473
 20
78.628262385818132
 30
0.0
 11
85.849782736700035
 21
72.897331735467475
 31
0.0
 12
96.894611662583884
 22
72.655643349177595
 32
0.0
 13
96.894611662583884
 23
72.655643349177595
 33
0.0
210
0.0
220
0.0
230
1.0
  0
SOLID
  5
EA8
  8
DRG
  6
CONTINUOUS
 62
     7
 10
48.825355035771203
 20
81.496816718755184
 30
0.0
 11
48.605370470334492
 21
72.655643349175492
 31
0.0
 12
59.916375238054371
 22
78.628250557125327
 32
0.0
 13
59.916375238054371
 23
78.628250557125327
 33
0.0
210
0.0
220
0.0
230
1.0
  0
SOLID
  5
EA9
  8
DRG
  6
CONTINUOUS
 62
     7
 10
104.83699487280531
 20
81.496816718755184
 30
0.0
 11
104.6170103073686
 21
72.655643349175506
 31
0.0
 12
115.9280150750885
 22
78.628250557125298
 32
0.0
 13
115.9280150750885
 23
78.628250557125298
 33
0.0
210
0.0
220
0.0
230
1.0
  0
SOLID
  5
EAA
  8
DRG
  6
CONTINUOUS
 62
     7
 10
40.662987260112992
 20
81.496816718755866
 30
0.0
 11
29.57196678328226
 21
78.628262385817905
 31
0.0
 12
40.882971825549703
 22
72.655643349177566
 32
0.0
 13
40.882971825549703
 23
72.655643349177566
 33
0.0
210
0.0
220
0.0
230
1.0
  0
SOLID
  5
EAB
  8
DRG
  6
CONTINUOUS
 62
     7
 10
96.674627097147194
 20
81.496816718756293
 30
0.0
 11
85.583606620316473
 21
78.628262385818132
 31
0.0
 12
96.894611662583884
 22
72.655643349177595
 32
0.0
 13
96.894611662583884
 23
72.655643349177595
 33
0.0
210
0.0
220
0.0
230
1.0
  0
SOLID
  5
EAC
  8
DRG
  6
CONTINUOUS
 62
     7
 10
153.2899770207527
 20
82.583583780839575
 30
0.0
 11
161.3332883364622
 21
62.115696081838678
 31
0.0
 12
165.4162645291251
 22
78.311404477182364
 32
0.0
 13
165.4162645291251
 23
78.311404477182364
 33
0.0
210
0.0
220
0.0
230
1.0
  0
SOLID
  5
EAD
  8
DRG
  6
CONTINUOUS
 62
     7
 10
29.57196678328226
 20
84.365371051693273
 30
0.0
 11
29.57196678328226
 21
78.628262385817905
 31
0.0
 12
40.662987260112992
 22
81.496816718755866
 32
0.0
 13
40.662987260112992
 23
81.496816718755866
 33
0.0
210
0.0
220
0.0
230
1.0
  0
SOLID
  5
EAE
  8
DRG
  6
CONTINUOUS
 62
     7
 10
85.583606620316473
 20
84.365371051693415
 30
0.0
 11
85.583606620316473
 21
78.628262385818132
 31
0.0
 12
96.674627097147194
 22
81.496816718756293
 32
0.0
 13
96.674627097147194
 23
81.496816718756293
 33
0.0
  0
SOLID
  5
EAF
  8
DRG
  6
CONTINUOUS
 62
     7
 10
115.9280150750885
 20
84.365382880385525
 30
0.0
 11
104.83699487280531
 21
81.496816718755184
 31
0.0
 12
115.9280150750885
 22
78.628250557125298
 32
0.0
 13
115.9280150750885
 23
78.628250557125298
 33
0.0
210
0.0
220
0.0
230
1.0
  0
SOLID
  5
EB0
  8
DRG
  6
CONTINUOUS
 62
     7
 10
59.916375238054371
 20
84.365382880385553
 30
0.0
 11
48.825355035771203
 21
81.496816718755184
 31
0.0
 12
59.916375238054371
 22
78.628250557125327
 32
0.0
 13
59.916375238054371
 23
78.628250557125327
 33
0.0
210
0.0
220
0.0
230
1.0
  0
SOLID
  5
EB1
  8
DRG
  6
CONTINUOUS
 62
     7
 10
18.821661727211438
 20
85.569427875032716
 30
0.0
 11
7.7802673214059723
 21
62.115696081838671
 31
0.0
 12
18.821661727211438
 22
62.115696081838678
 32
0.0
 13
18.821661727211438
 23
62.115696081838678
 33
0.0
  0
SOLID
  5
EB2
  8
DRG
  6
CONTINUOUS
 62
     7
 10
130.05101171535759
 20
85.569427875032716
 30
0.0
 11
119.0096173095521
 21
62.115696081838678
 31
0.0
 12
130.05101171535759
 22
62.115696081838671
 32
0.0
 13
130.05101171535759
 23
62.115696081838671
 33
0.0
210
0.0
220
0.0
230
1.0
  0
SOLID
  5
EB3
  8
DRG
  6
CONTINUOUS
 62
     7
 10
176.9709164189357
 20
86.855763084496857
 30
0.0
 11
153.2899770207527
 21
82.583583780839575
 31
0.0
 12
165.4162645291251
 22
78.311404477182364
 32
0.0
 13
165.4162645291251
 23
78.311404477182364
 33
0.0
210
0.0
220
0.0
230
1.0
  0
SOLID
  5
EB4
  8
DRG
  6
CONTINUOUS
 62
     7
 10
176.9709164189357
 20
86.855763084496857
 30
0.0
 11
165.4162645291251
 21
78.311404477182364
 31
0.0
 12
176.9709164189357
 22
78.31140447718235
 32
0.0
 13
176.9709164189357
 23
78.31140447718235
 33
0.0
210
0.0
220
0.0
230
1.0
  0
SOLID
  5
EB5
  8
DRG
  6
CONTINUOUS
 62
     7
 10
165.4162645291251
 20
86.855763084496886
 30
0.0
 11
153.2899770207527
 21
82.583583780839575
 31
0.0
 12
176.9709164189357
 22
86.855763084496857
 32
0.0
 13
176.9709164189357
 23
86.855763084496857
 33
0.0
210
0.0
220
0.0
230
1.0
  0
SOLID
  5
EB6
  8
DRG
  6
CONTINUOUS
 62
     7
 10
18.975379483985598
 20
87.13015045116174
 30
0.0
 11
7.7802673214059723
 21
62.115696081838671
 31
0.0
 12
18.821661727211438
 22
85.569427875032716
 32
0.0
 13
18.821661727211438
 23
85.569427875032716
 33
0.0
210
0.0
220
0.0
230
1.0
  0
SOLID
  5
EB7
  8
DRG
  6
CONTINUOUS
 62
     7
 10
130.2047294721317
 20
87.130150451161754
 30
0.0
 11
119.0096173095521
 21
62.115696081838678
 31
0.0
 12
130.05101171535759
 22
85.569427875032716
 32
0.0
 13
130.05101171535759
 23
85.569427875032716
 33
0.0
  0
SOLID
  5
EB8
  8
DRG
  6
CONTINUOUS
 62
     7
 10
19.43062546712115
 20
88.630895333953447
 30
0.0
 11
7.7802673214059723
 21
62.115696081838671
 31
0.0
 12
18.975379483985598
 22
87.13015045116174
 32
0.0
 13
18.975379483985598
 23
87.13015045116174
 33
0.0
210
0.0
220
0.0
230
1.0
  0
SOLID
  5
EB9
  8
DRG
  6
CONTINUOUS
 62
     7
 10
130.6599754552673
 20
88.630895333953447
 30
0.0
 11
119.0096173095521
 21
62.115696081838678
 31
0.0
 12
130.2047294721317
 22
87.130150451161754
 32
0.0
 13
130.2047294721317
 23
87.130150451161754
 33
0.0
210
0.0
220
0.0
230
1.0
  0
SOLID
  5
EBA
  8
DRG
  6
CONTINUOUS
 62
     7
 10
29.83814289966584
 20
90.096301702044016
 30
0.0
 11
29.57196678328226
 21
84.365371051693273
 31
0.0
 12
40.662987260112992
 22
81.496816718755866
 32
0.0
 13
40.662987260112992
 23
81.496816718755866
 33
0.0
  0
SOLID
  5
EBB
  8
DRG
  6
CONTINUOUS
 62
     7
 10
85.849782736700035
 20
90.096301702044045
 30
0.0
 11
85.583606620316473
 21
84.365371051693415
 31
0.0
 12
96.674627097147194
 22
81.496816718756293
 32
0.0
 13
96.674627097147194
 23
81.496816718756293
 33
0.0
  0
SOLID
  5
EBC
  8
DRG
  6
CONTINUOUS
 62
     7
 10
115.6618367640986
 20
90.096337111694325
 30
0.0
 11
104.83699487280531
 21
81.496816718755184
 31
0.0
 12
115.9280150750885
 22
84.365382880385525
 32
0.0
 13
115.9280150750885
 23
84.365382880385525
 33
0.0
210
0.0
220
0.0
230
1.0
  0
SOLID
  5
EBD
  8
DRG
  6
CONTINUOUS
 62
     7
 10
59.650196927064421
 20
90.096337111694368
 30
0.0
 11
48.825355035771203
 21
81.496816718755184
 31
0.0
 12
59.916375238054371
 22
84.365382880385553
 32
0.0
 13
59.916375238054371
 23
84.365382880385553
 33
0.0
210
0.0
220
0.0
230
1.0
  0
SOLID
  5
EBE
  8
DRG
  6
CONTINUOUS
 62
     7
 10
40.882971825549703
 20
90.337990088334166
 30
0.0
 11
29.83814289966584
 21
90.096301702044016
 31
0.0
 12
40.662987260112992
 22
81.496816718755866
 32
0.0
 13
40.662987260112992
 23
81.496816718755866
 33
0.0
  0
SOLID
  5
EBF
  8
DRG
  6
CONTINUOUS
 62
     7
 10
48.605370470334456
 20
90.337990088334735
 30
0.0
 11
48.825355035771203
 21
81.496816718755184
 31
0.0
 12
59.650196927064421
 22
90.096337111694368
 32
0.0
 13
59.650196927064421
 23
90.096337111694368
 33
0.0
210
0.0
220
0.0
230
1.0
  0
SOLID
  5
EC0
  8
DRG
  6
CONTINUOUS
 62
     7
 10
104.6170103073686
 20
90.337990088334735
 30
0.0
 11
104.83699487280531
 21
81.496816718755184
 31
0.0
 12
115.6618367640986
 22
90.096337111694325
 32
0.0
 13
115.6618367640986
 23
90.096337111694325
 33
0.0
210
0.0
220
0.0
230
1.0
  0
SOLID
  5
EC1
  8
DRG
  6
CONTINUOUS
 62
     7
 10
96.894611662583884
 20
90.337990088335033
 30
0.0
 11
85.849782736700035
 21
90.096301702044045
 31
0.0
 12
96.674627097147194
 22
81.496816718756293
 32
0.0
 13
96.674627097147194
 23
81.496816718756293
 33
0.0
210
0.0
220
0.0
230
1.0
  0
SOLID
  5
EC2
  8
DRG
  6
CONTINUOUS
 62
     7
 10
41.014539001993349
 20
91.337342009906294
 30
0.0
 11
29.83814289966584
 21
90.096301702044016
 31
0.0
 12
40.882971825549703
 22
90.337990088334166
 32
0.0
 13
40.882971825549703
 23
90.337990088334166
 33
0.0
  0
SOLID
  5
EC3
  8
DRG
  6
CONTINUOUS
 62
     7
 10
48.47380329389069
 20
91.337342009906834
 30
0.0
 11
48.605370470334456
 21
90.337990088334735
 31
0.0
 12
59.650196927064421
 22
90.096337111694368
 32
0.0
 13
59.650196927064421
 23
90.096337111694368
 33
0.0
210
0.0
220
0.0
230
1.0
  0
SOLID
  5
EC4
  8
DRG
  6
CONTINUOUS
 62
     7
 10
104.48544313092491
 20
91.337342009906848
 30
0.0
 11
104.6170103073686
 21
90.337990088334735
 31
0.0
 12
115.6618367640986
 22
90.096337111694325
 32
0.0
 13
115.6618367640986
 23
90.096337111694325
 33
0.0
210
0.0
220
0.0
230
1.0
  0
SOLID
  5
EC5
  8
DRG
  6
CONTINUOUS
 62
     7
 10
97.026178839027665
 20
91.337342009907147
 30
0.0
 11
85.849782736700035
 21
90.096301702044045
 31
0.0
 12
96.894611662583884
 22
90.337990088335033
 32
0.0
 13
96.894611662583884
 23
90.337990088335033
 33
0.0
210
0.0
220
0.0
230
1.0
  0
SOLID
  5
EC6
  8
DRG
  6
CONTINUOUS
 62
     7
 10
29.985882812524231
 20
91.973515282526762
 30
0.0
 11
29.83814289966584
 21
90.096301702044016
 31
0.0
 12
41.014539001993349
 22
91.337342009906294
 32
0.0
 13
41.014539001993349
 23
91.337342009906294
 33
0.0
  0
SOLID
  5
EC7
  8
DRG
  6
CONTINUOUS
 62
     7
 10
85.99752264955842
 20
91.973515282526762
 30
0.0
 11
85.849782736700035
 21
90.096301702044045
 31
0.0
 12
97.026178839027665
 22
91.337342009907147
 32
0.0
 13
97.026178839027665
 23
91.337342009907147
 33
0.0
  0
SOLID
  5
EC8
  8
DRG
  6
CONTINUOUS
 62
     7
 10
115.5140918658899
 20
91.973546758849025
 30
0.0
 11
104.48544313092491
 21
91.337342009906848
 31
0.0
 12
115.6618367640986
 22
90.096337111694325
 32
0.0
 13
115.6618367640986
 23
90.096337111694325
 33
0.0
210
0.0
220
0.0
230
1.0
  0
SOLID
  5
EC9
  8
DRG
  6
CONTINUOUS
 62
     7
 10
59.50245202885575
 20
91.973546758849054
 30
0.0
 11
48.47380329389069
 21
91.337342009906834
 31
0.0
 12
59.650196927064421
 22
90.096337111694368
 32
0.0
 13
59.650196927064421
 23
90.096337111694368
 33
0.0
210
0.0
220
0.0
230
1.0
  0
SOLID
  5
ECA
  8
DRG
  6
CONTINUOUS
 62
     7
 10
41.400274445674881
 20
92.26858974953042
 30
0.0
 11
29.985882812524231
 21
91.973515282526762
 31
0.0
 12
41.014539001993349
 22
91.337342009906294
 32
0.0
 13
41.014539001993349
 23
91.337342009906294
 33
0.0
210
0.0
220
0.0
230
1.0
  0
SOLID
  5
ECB
  8
DRG
  6
CONTINUOUS
 62
     7
 10
48.088067850209029
 20
92.268589749530904
 30
0.0
 11
48.47380329389069
 21
91.337342009906834
 31
0.0
 12
59.50245202885575
 22
91.973546758849054
 32
0.0
 13
59.50245202885575
 23
91.973546758849054
 33
0.0
210
0.0
220
0.0
230
1.0
  0
SOLID
  5
ECC
  8
DRG
  6
CONTINUOUS
 62
     7
 10
104.0997076872434
 20
92.268589749530975
 30
0.0
 11
104.48544313092491
 21
91.337342009906848
 31
0.0
 12
115.5140918658899
 22
91.973546758849025
 32
0.0
 13
115.5140918658899
 23
91.973546758849025
 33
0.0
210
0.0
220
0.0
230
1.0
  0
SOLID
  5
ECD
  8
DRG
  6
CONTINUOUS
 62
     7
 10
97.411914282709276
 20
92.268589749531216
 30
0.0
 11
85.99752264955842
 21
91.973515282526762
 31
0.0
 12
97.026178839027665
 22
91.337342009907147
 32
0.0
 13
97.026178839027665
 23
91.337342009907147
 33
0.0
210
0.0
220
0.0
230
1.0
  0
SOLID
  5
ECE
  8
DRG
  6
CONTINUOUS
 62
     7
 10
42.013890923565327
 20
93.068270312710808
 30
0.0
 11
29.985882812524231
 21
91.973515282526762
 31
0.0
 12
41.400274445674881
 22
92.26858974953042
 32
0.0
 13
41.400274445674881
 23
92.26858974953042
 33
0.0
210
0.0
220
0.0
230
1.0
  0
SOLID
  5
ECF
  8
DRG
  6
CONTINUOUS
 62
     7
 10
47.474451372318462
 20
93.068270312711235
 30
0.0
 11
48.088067850209029
 21
92.268589749530904
 31
0.0
 12
59.50245202885575
 22
91.973546758849054
 32
0.0
 13
59.50245202885575
 23
91.973546758849054
 33
0.0
210
0.0
220
0.0
230
1.0
  0
SOLID
  5
ED0
  8
DRG
  6
CONTINUOUS
 62
     7
 10
103.48609120935291
 20
93.068270312711377
 30
0.0
 11
104.0997076872434
 21
92.268589749530975
 31
0.0
 12
115.5140918658899
 22
91.973546758849025
 32
0.0
 13
115.5140918658899
 23
91.973546758849025
 33
0.0
210
0.0
220
0.0
230
1.0
  0
SOLID
  5
ED1
  8
DRG
  6
CONTINUOUS
 62
     7
 10
98.025530760599821
 20
93.068270312711576
 30
0.0
 11
85.99752264955842
 21
91.973515282526762
 31
0.0
 12
97.411914282709276
 22
92.268589749531216
 32
0.0
 13
97.411914282709276
 23
92.268589749531216
 33
0.0
210
0.0
220
0.0
230
1.0
  0
SOLID
  5
ED2
  8
DRG
  6
CONTINUOUS
 62
     7
 10
42.813571486745637
 20
93.681886790601396
 30
0.0
 11
29.985882812524231
 21
91.973515282526762
 31
0.0
 12
42.013890923565327
 22
93.068270312710808
 32
0.0
 13
42.013890923565327
 23
93.068270312710808
 33
0.0
  0
SOLID
  5
ED3
  8
DRG
  6
CONTINUOUS
 62
     7
 10
46.674770809138039
 20
93.681886790601681
 30
0.0
 11
47.474451372318462
 21
93.068270312711235
 31
0.0
 12
59.50245202885575
 22
91.973546758849054
 32
0.0
 13
59.50245202885575
 23
91.973546758849054
 33
0.0
210
0.0
220
0.0
230
1.0
  0
SOLID
  5
ED4
  8
DRG
  6
CONTINUOUS
 62
     7
 10
102.6864106461726
 20
93.681886790601908
 30
0.0
 11
103.48609120935291
 21
93.068270312711377
 31
0.0
 12
115.5140918658899
 22
91.973546758849025
 32
0.0
 13
115.5140918658899
 23
91.973546758849025
 33
0.0
210
0.0
220
0.0
230
1.0
  0
SOLID
  5
ED5
  8
DRG
  6
CONTINUOUS
 62
     7
 10
98.825211323780209
 20
93.68188679060205
 30
0.0
 11
85.99752264955842
 21
91.973515282526762
 31
0.0
 12
98.025530760599821
 22
93.068270312711576
 32
0.0
 13
98.025530760599821
 23
93.068270312711576
 33
0.0
210
0.0
220
0.0
230
1.0
  0
SOLID
  5
ED6
  8
DRG
  6
CONTINUOUS
 62
     7
 10
86.437104541158234
 20
93.804505634543304
 30
0.0
 11
85.99752264955842
 21
91.973515282526762
 31
0.0
 12
98.825211323780209
 22
93.68188679060205
 32
0.0
 13
98.825211323780209
 23
93.68188679060205
 33
0.0
210
0.0
220
0.0
230
1.0
  0
SOLID
  5
ED7
  8
DRG
  6
CONTINUOUS
 62
     7
 10
30.425464704124071
 20
93.804505634543304
 30
0.0
 11
29.985882812524231
 21
91.973515282526762
 31
0.0
 12
42.813571486745637
 22
93.681886790601396
 32
0.0
 13
42.813571486745637
 23
93.681886790601396
 33
0.0
210
0.0
220
0.0
230
1.0
  0
SOLID
  5
ED8
  8
DRG
  6
CONTINUOUS
 62
     7
 10
115.07450620591381
 20
93.804532575795946
 30
0.0
 11
102.6864106461726
 21
93.681886790601908
 31
0.0
 12
115.5140918658899
 22
91.973546758849025
 32
0.0
 13
115.5140918658899
 23
91.973546758849025
 33
0.0
210
0.0
220
0.0
230
1.0
  0
SOLID
  5
ED9
  8
DRG
  6
CONTINUOUS
 62
     7
 10
59.062866368879661
 20
93.80453257579596
 30
0.0
 11
46.674770809138039
 21
93.681886790601681
 31
0.0
 12
59.50245202885575
 22
91.973546758849054
 32
0.0
 13
59.50245202885575
 23
91.973546758849054
 33
0.0
210
0.0
220
0.0
230
1.0
  0
SOLID
  5
EDA
  8
DRG
  6
CONTINUOUS
 62
     7
 10
43.744819226369721
 20
94.06762223428305
 30
0.0
 11
30.425464704124071
 21
93.804505634543304
 31
0.0
 12
42.813571486745637
 22
93.681886790601396
 32
0.0
 13
42.813571486745637
 23
93.681886790601396
 33
0.0
210
0.0
220
0.0
230
1.0
  0
SOLID
  5
EDB
  8
DRG
  6
CONTINUOUS
 62
     7
 10
45.74352306951392
 20
94.067622234283206
 30
0.0
 11
46.674770809138039
 21
93.681886790601681
 31
0.0
 12
59.062866368879661
 22
93.80453257579596
 32
0.0
 13
59.062866368879661
 23
93.80453257579596
 33
0.0
210
0.0
220
0.0
230
1.0
  0
SOLID
  5
EDC
  8
DRG
  6
CONTINUOUS
 62
     7
 10
101.75516290654851
 20
94.067622234283533
 30
0.0
 11
102.6864106461726
 21
93.681886790601908
 31
0.0
 12
115.07450620591381
 22
93.804532575795946
 32
0.0
 13
115.07450620591381
 23
93.804532575795946
 33
0.0
210
0.0
220
0.0
230
1.0
  0
SOLID
  5
EDD
  8
DRG
  6
CONTINUOUS
 62
     7
 10
99.756459063404321
 20
94.067622234283604
 30
0.0
 11
86.437104541158234
 21
93.804505634543304
 31
0.0
 12
98.825211323780209
 22
93.68188679060205
 32
0.0
 13
98.825211323780209
 23
93.68188679060205
 33
0.0
210
0.0
220
0.0
230
1.0
  0
SOLID
  5
EDE
  8
DRG
  6
CONTINUOUS
 62
     7
 10
44.744171147941813
 20
94.199189410726845
 30
0.0
 11
30.425464704124071
 21
93.804505634543304
 31
0.0
 12
43.744819226369721
 22
94.06762223428305
 32
0.0
 13
43.744819226369721
 23
94.06762223428305
 33
0.0
210
0.0
220
0.0
230
1.0
  0
SOLID
  5
EDF
  8
DRG
  6
CONTINUOUS
 62
     7
 10
44.744171147941813
 20
94.199189410726845
 30
0.0
 11
45.74352306951392
 21
94.067622234283206
 31
0.0
 12
59.062866368879661
 22
93.80453257579596
 32
0.0
 13
59.062866368879661
 23
93.80453257579596
 33
0.0
  0
SOLID
  5
EE0
  8
DRG
  6
CONTINUOUS
 62
     7
 10
100.75581098497641
 20
94.199189410727286
 30
0.0
 11
86.437104541158234
 21
93.804505634543304
 31
0.0
 12
99.756459063404321
 22
94.067622234283604
 32
0.0
 13
99.756459063404321
 23
94.067622234283604
 33
0.0
210
0.0
220
0.0
230
1.0
  0
SOLID
  5
EE1
  8
DRG
  6
CONTINUOUS
 62
     7
 10
100.75581098497641
 20
94.199189410727286
 30
0.0
 11
101.75516290654851
 21
94.067622234283533
 31
0.0
 12
115.07450620591381
 22
93.804532575795946
 32
0.0
 13
115.07450620591381
 23
93.804532575795946
 33
0.0
210
0.0
220
0.0
230
1.0
  0
SOLID
  5
EE2
  8
DRG
  6
CONTINUOUS
 62
     7
 10
77.482556033578931
 20
94.593352860836134
 30
0.0
 11
67.331191210151701
 21
68.89733173546756
 31
0.0
 12
77.482556033578931
 22
72.876055965300111
 32
0.0
 13
77.482556033578931
 23
72.876055965300111
 33
0.0
210
0.0
220
0.0
230
1.0
  0
SOLID
  5
EE3
  8
DRG
  6
CONTINUOUS
 62
     7
 10
67.331191210151687
 20
94.593352860836134
 30
0.0
 11
77.482556033578931
 21
94.593352860836134
 31
0.0
 12
84.553623006881026
 22
94.593352860836134
 32
0.0
 13
84.553623006881026
 23
94.593352860836134
 33
0.0
210
0.0
220
0.0
230
1.0
  0
SOLID
  5
EE4
  8
DRG
  6
CONTINUOUS
 62
     7
 10
67.331191210151687
 20
94.593352860836134
 30
0.0
 11
67.331191210151701
 21
68.89733173546756
 31
0.0
 12
77.482556033578931
 22
94.593352860836134
 32
0.0
 13
77.482556033578931
 23
94.593352860836134
 33
0.0
210
0.0
220
0.0
230
1.0
  0
SOLID
  5
EE5
  8
DRG
  6
CONTINUOUS
 62
     7
 10
31.14606460940551
 20
95.544187698918478
 30
0.0
 11
30.425464704124071
 21
93.804505634543304
 31
0.0
 12
44.744171147941813
 22
94.199189410726845
 32
0.0
 13
44.744171147941813
 23
94.199189410726845
 33
0.0
210
0.0
220
0.0
230
1.0
  0
SOLID
  5
EE6
  8
DRG
  6
CONTINUOUS
 62
     7
 10
87.157704446439695
 20
95.544187698918478
 30
0.0
 11
86.437104541158234
 21
93.804505634543304
 31
0.0
 12
100.75581098497641
 22
94.199189410727286
 32
0.0
 13
100.75581098497641
 23
94.199189410727286
 33
0.0
  0
SOLID
  5
EE7
  8
DRG
  6
CONTINUOUS
 62
     7
 10
114.3539038014369
 20
95.544209784067476
 30
0.0
 11
87.157704446439695
 21
95.544187698918478
 31
0.0
 12
100.75581098497641
 22
94.199189410727286
 32
0.0
 13
100.75581098497641
 23
94.199189410727286
 33
0.0
  0
SOLID
  5
EE8
  8
DRG
  6
CONTINUOUS
 62
     7
 10
114.3539038014369
 20
95.544209784067476
 30
0.0
 11
100.75581098497641
 21
94.199189410727286
 31
0.0
 12
115.07450620591381
 22
93.804532575795946
 32
0.0
 13
115.07450620591381
 23
93.804532575795946
 33
0.0
210
0.0
220
0.0
230
1.0
  0
SOLID
  5
EE9
  8
DRG
  6
CONTINUOUS
 62
     7
 10
58.342263964402783
 20
95.544209784067505
 30
0.0
 11
31.14606460940551
 21
95.544187698918478
 31
0.0
 12
44.744171147941813
 22
94.199189410726845
 32
0.0
 13
44.744171147941813
 23
94.199189410726845
 33
0.0
210
0.0
220
0.0
230
1.0
  0
SOLID
  5
EEA
  8
DRG
  6
CONTINUOUS
 62
     7
 10
58.342263964402783
 20
95.544209784067505
 30
0.0
 11
44.744171147941813
 21
94.199189410726845
 31
0.0
 12
59.062866368879661
 22
93.80453257579596
 32
0.0
 13
59.062866368879661
 23
93.80453257579596
 33
0.0
210
0.0
220
0.0
230
1.0
  0
SOLID
  5
EEB
  8
DRG
  6
CONTINUOUS
 62
     7
 10
32.129938967166559
 20
97.149724729553569
 30
0.0
 11
31.14606460940551
 21
95.544187698918478
 31
0.0
 12
58.342263964402783
 22
95.544209784067505
 32
0.0
 13
58.342263964402783
 23
95.544209784067505
 33
0.0
210
0.0
220
0.0
230
1.0
  0
SOLID
  5
EEC
  8
DRG
  6
CONTINUOUS
 62
     7
 10
88.141578804200734
 20
97.149724729553569
 30
0.0
 11
87.157704446439695
 21
95.544187698918478
 31
0.0
 12
114.3539038014369
 22
95.544209784067476
 32
0.0
 13
114.3539038014369
 23
95.544209784067476
 33
0.0
210
0.0
220
0.0
230
1.0
  0
SOLID
  5
EED
  8
DRG
  6
CONTINUOUS
 62
     7
 10
113.37002820867269
 20
97.149741917747846
 30
0.0
 11
88.141578804200734
 21
97.149724729553569
 31
0.0
 12
114.3539038014369
 22
95.544209784067476
 32
0.0
 13
114.3539038014369
 23
95.544209784067476
 33
0.0
  0
SOLID
  5
EEE
  8
DRG
  6
CONTINUOUS
 62
     7
 10
57.358388371638569
 20
97.14974191774786
 30
0.0
 11
32.129938967166559
 21
97.149724729553569
 31
0.0
 12
58.342263964402783
 22
95.544209784067505
 32
0.0
 13
58.342263964402783
 23
95.544209784067505
 33
0.0
210
0.0
220
0.0
230
1.0
  0
SOLID
  5
EEF
  8
DRG
  6
CONTINUOUS
 62
     7
 10
130.05101171535759
 20
97.915857504065855
 30
0.0
 11
138.05101171535759
 21
93.569427875032716
 31
0.0
 12
139.4206293992797
 22
93.56942787503273
 32
0.0
 13
139.4206293992797
 23
93.56942787503273
 33
0.0
210
0.0
220
0.0
230
1.0
  0
SOLID
  5
EF0
  8
DRG
  6
CONTINUOUS
 62
     7
 10
130.05101171535759
 20
97.915857504065855
 30
0.0
 11
136.49028913922859
 21
93.415710118258545
 31
0.0
 12
138.05101171535759
 22
93.569427875032716
 32
0.0
 13
138.05101171535759
 23
93.569427875032716
 33
0.0
  0
SOLID
  5
EF1
  8
DRG
  6
CONTINUOUS
 62
     7
 10
130.05101171535759
 20
97.915857504065855
 30
0.0
 11
134.9895442564368
 21
92.960464135123019
 31
0.0
 12
136.49028913922859
 22
93.415710118258545
 32
0.0
 13
136.49028913922859
 23
93.415710118258545
 33
0.0
210
0.0
220
0.0
230
1.0
  0
SOLID
  5
EF2
  8
DRG
  6
CONTINUOUS
 62
     7
 10
130.05101171535759
 20
97.915857504065855
 30
0.0
 11
133.60644985120081
 21
92.221184773453075
 31
0.0
 12
134.9895442564368
 22
92.960464135123019
 32
0.0
 13
134.9895442564368
 23
92.960464135123019
 33
0.0
210
0.0
220
0.0
230
1.0
  0
SOLID
  5
EF3
  8
DRG
  6
CONTINUOUS
 62
     7
 10
130.05101171535759
 20
97.915857504065855
 30
0.0
 11
132.39415746586519
 21
91.226282124525085
 31
0.0
 12
133.60644985120081
 22
92.221184773453075
 32
0.0
 13
133.60644985120081
 23
92.221184773453075
 33
0.0
210
0.0
220
0.0
230
1.0
  0
SOLID
  5
EF4
  8
DRG
  6
CONTINUOUS
 62
     7
 10
130.05101171535759
 20
97.915857504065855
 30
0.0
 11
131.3992548169372
 21
90.01398973918954
 31
0.0
 12
132.39415746586519
 22
91.226282124525085
 32
0.0
 13
132.39415746586519
 23
91.226282124525085
 33
0.0
210
0.0
220
0.0
230
1.0
  0
SOLID
  5
EF5
  8
DRG
  6
CONTINUOUS
 62
     7
 10
130.05101171535759
 20
97.915857504065855
 30
0.0
 11
130.6599754552673
 21
88.630895333953447
 31
0.0
 12
131.3992548169372
 22
90.01398973918954
 32
0.0
 13
131.3992548169372
 23
90.01398973918954
 33
0.0
210
0.0
220
0.0
230
1.0
  0
SOLID
  5
EF6
  8
DRG
  6
CONTINUOUS
 62
     7
 10
130.05101171535759
 20
97.915857504065855
 30
0.0
 11
119.0096173095521
 21
62.115696081838678
 31
0.0
 12
130.6599754552673
 22
88.630895333953447
 32
0.0
 13
130.6599754552673
 23
88.630895333953447
 33
0.0
210
0.0
220
0.0
230
1.0
  0
SOLID
  5
EF7
  8
DRG
  6
CONTINUOUS
 62
     7
 10
18.821661727211438
 20
97.915857504065912
 30
0.0
 11
26.821661727211438
 21
93.569427875032716
 31
0.0
 12
28.191279411133561
 22
93.56942787503273
 32
0.0
 13
28.191279411133561
 23
93.56942787503273
 33
0.0
  0
SOLID
  5
EF8
  8
DRG
  6
CONTINUOUS
 62
     7
 10
18.821661727211438
 20
97.915857504065912
 30
0.0
 11
25.260939151082422
 21
93.415710118258545
 31
0.0
 12
26.821661727211438
 22
93.569427875032716
 32
0.0
 13
26.821661727211438
 23
93.569427875032716
 33
0.0
210
0.0
220
0.0
230
1.0
  0
SOLID
  5
EF9
  8
DRG
  6
CONTINUOUS
 62
     7
 10
18.821661727211438
 20
97.915857504065912
 30
0.0
 11
23.760194268290729
 21
92.960464135123004
 31
0.0
 12
25.260939151082422
 22
93.415710118258545
 32
0.0
 13
25.260939151082422
 23
93.415710118258545
 33
0.0
210
0.0
220
0.0
230
1.0
  0
SOLID
  5
EFA
  8
DRG
  6
CONTINUOUS
 62
     7
 10
18.821661727211438
 20
97.915857504065912
 30
0.0
 11
22.377099863054632
 21
92.221184773453075
 31
0.0
 12
23.760194268290729
 22
92.960464135123004
 32
0.0
 13
23.760194268290729
 23
92.960464135123004
 33
0.0
  0
SOLID
  5
EFB
  8
DRG
  6
CONTINUOUS
 62
     7
 10
18.821661727211438
 20
97.915857504065912
 30
0.0
 11
21.164807477719069
 21
91.226282124525085
 31
0.0
 12
22.377099863054632
 22
92.221184773453075
 32
0.0
 13
22.377099863054632
 23
92.221184773453075
 33
0.0
210
0.0
220
0.0
230
1.0
  0
SOLID
  5
EFC
  8
DRG
  6
CONTINUOUS
 62
     7
 10
18.821661727211438
 20
97.915857504065912
 30
0.0
 11
20.169904828791079
 21
90.013989739189526
 31
0.0
 12
21.164807477719069
 22
91.226282124525085
 32
0.0
 13
21.164807477719069
 23
91.226282124525085
 33
0.0
210
0.0
220
0.0
230
1.0
  0
SOLID
  5
EFD
  8
DRG
  6
CONTINUOUS
 62
     7
 10
18.821661727211438
 20
97.915857504065912
 30
0.0
 11
19.43062546712115
 21
88.630895333953447
 31
0.0
 12
20.169904828791079
 22
90.013989739189526
 32
0.0
 13
20.169904828791079
 23
90.013989739189526
 33
0.0
210
0.0
220
0.0
230
1.0
  0
SOLID
  5
EFE
  8
DRG
  6
CONTINUOUS
 62
     7
 10
18.821661727211438
 20
97.915857504065912
 30
0.0
 11
7.7802673214059723
 21
62.115696081838671
 31
0.0
 12
19.43062546712115
 22
88.630895333953447
 32
0.0
 13
19.43062546712115
 23
88.630895333953447
 33
0.0
210
0.0
220
0.0
230
1.0
  0
SOLID
  5
EFF
  8
DRG
  6
CONTINUOUS
 62
     7
 10
89.364501362461553
 20
98.581583076282442
 30
0.0
 11
88.141578804200734
 21
97.149724729553569
 31
0.0
 12
113.37002820867269
 22
97.149741917747846
 32
0.0
 13
113.37002820867269
 23
97.149741917747846
 33
0.0
210
0.0
220
0.0
230
1.0
  0
SOLID
  5
F00
  8
DRG
  6
CONTINUOUS
 62
     7
 10
33.352861525427372
 20
98.581583076282442
 30
0.0
 11
32.129938967166559
 21
97.149724729553569
 31
0.0
 12
57.358388371638569
 22
97.14974191774786
 32
0.0
 13
57.358388371638569
 23
97.14974191774786
 33
0.0
210
0.0
220
0.0
230
1.0
  0
SOLID
  5
F01
  8
DRG
  6
CONTINUOUS
 62
     7
 10
112.14710561917811
 20
98.581595595475122
 30
0.0
 11
89.364501362461553
 21
98.581583076282442
 31
0.0
 12
113.37002820867269
 22
97.149741917747846
 32
0.0
 13
113.37002820867269
 23
97.149741917747846
 33
0.0
  0
SOLID
  5
F02
  8
DRG
  6
CONTINUOUS
 62
     7
 10
56.135465782143967
 20
98.581595595475136
 30
0.0
 11
33.352861525427372
 21
98.581583076282442
 31
0.0
 12
57.358388371638569
 22
97.14974191774786
 32
0.0
 13
57.358388371638569
 23
97.14974191774786
 33
0.0
  0
SOLID
  5
F03
  8
DRG
  6
CONTINUOUS
 62
     7
 10
131.22850538356451
 20
99.255984787272112
 30
0.0
 11
130.05101171535759
 21
97.915857504065855
 31
0.0
 12
139.4206293992797
 22
93.56942787503273
 32
0.0
 13
139.4206293992797
 23
93.56942787503273
 33
0.0
210
0.0
220
0.0
230
1.0
  0
SOLID
  5
F04
  8
DRG
  6
CONTINUOUS
 62
     7
 10
19.999155395418381
 20
99.255984787272155
 30
0.0
 11
18.821661727211438
 21
97.915857504065912
 31
0.0
 12
28.191279411133561
 22
93.56942787503273
 32
0.0
 13
28.191279411133561
 23
93.56942787503273
 33
0.0
210
0.0
220
0.0
230
1.0
  0
SOLID
  5
F05
  8
DRG
  6
CONTINUOUS
 62
     7
 10
34.784719872156259
 20
99.804505634543204
 30
0.0
 11
33.352861525427372
 21
98.581583076282442
 31
0.0
 12
56.135465782143967
 22
98.581595595475136
 32
0.0
 13
56.135465782143967
 23
98.581595595475136
 33
0.0
210
0.0
220
0.0
230
1.0
  0
SOLID
  5
F06
  8
DRG
  6
CONTINUOUS
 62
     7
 10
90.79635970919044
 20
99.804505634543204
 30
0.0
 11
89.364501362461553
 21
98.581583076282442
 31
0.0
 12
112.14710561917811
 22
98.581595595475122
 32
0.0
 13
112.14710561917811
 23
98.581595595475122
 33
0.0
210
0.0
220
0.0
230
1.0
  0
SOLID
  5
F07
  8
DRG
  6
CONTINUOUS
 62
     7
 10
110.715248332852
 20
99.804513959844542
 30
0.0
 11
90.79635970919044
 21
99.804505634543204
 31
0.0
 12
112.14710561917811
 22
98.581595595475122
 32
0.0
 13
112.14710561917811
 23
98.581595595475122
 33
0.0
210
0.0
220
0.0
230
1.0
  0
SOLID
  5
F08
  8
DRG
  6
CONTINUOUS
 62
     7
 10
54.70360849581779
 20
99.804513959844542
 30
0.0
 11
34.784719872156259
 21
99.804505634543204
 31
0.0
 12
56.135465782143967
 22
98.581595595475136
 32
0.0
 13
56.135465782143967
 23
98.581595595475136
 33
0.0
210
0.0
220
0.0
230
1.0
  0
SOLID
  5
F09
  8
DRG
  6
CONTINUOUS
 62
     7
 10
132.62046538706059
 20
100.3717266133807
 30
0.0
 11
131.22850538356451
 21
99.255984787272112
 31
0.0
 12
139.4206293992797
 22
93.56942787503273
 32
0.0
 13
139.4206293992797
 23
93.56942787503273
 33
0.0
210
0.0
220
0.0
230
1.0
  0
SOLID
  5
F0A
  8
DRG
  6
CONTINUOUS
 62
     7
 10
21.391115398914501
 20
100.3717266133808
 30
0.0
 11
19.999155395418381
 21
99.255984787272155
 31
0.0
 12
28.191279411133561
 22
93.56942787503273
 32
0.0
 13
28.191279411133561
 23
93.56942787503273
 33
0.0
210
0.0
220
0.0
230
1.0
  0
SOLID
  5
F0B
  8
DRG
  6
CONTINUOUS
 62
     7
 10
36.39025690279135
 20
100.7883799923042
 30
0.0
 11
34.784719872156259
 21
99.804505634543204
 31
0.0
 12
54.70360849581779
 22
99.804513959844542
 32
0.0
 13
54.70360849581779
 23
99.804513959844542
 33
0.0
210
0.0
220
0.0
230
1.0
  0
SOLID
  5
F0C
  8
DRG
  6
CONTINUOUS
 62
     7
 10
92.401896739825546
 20
100.7883799923042
 30
0.0
 11
90.79635970919044
 21
99.804505634543204
 31
0.0
 12
110.715248332852
 22
99.804513959844542
 32
0.0
 13
110.715248332852
 23
99.804513959844542
 33
0.0
210
0.0
220
0.0
230
1.0
  0
SOLID
  5
F0D
  8
DRG
  6
CONTINUOUS
 62
     7
 10
109.10971329595441
 20
100.78838481499351
 30
0.0
 11
92.401896739825546
 21
100.7883799923042
 31
0.0
 12
110.715248332852
 22
99.804513959844542
 32
0.0
 13
110.715248332852
 23
99.804513959844542
 33
0.0
210
0.0
220
0.0
230
1.0
  0
SOLID
  5
F0E
  8
DRG
  6
CONTINUOUS
 62
     7
 10
53.098073458920183
 20
100.78838481499351
 30
0.0
 11
36.39025690279135
 21
100.7883799923042
 31
0.0
 12
54.70360849581779
 22
99.804513959844542
 32
0.0
 13
54.70360849581779
 23
99.804513959844542
 33
0.0
210
0.0
220
0.0
230
1.0
  0
SOLID
  5
F0F
  8
DRG
  6
CONTINUOUS
 62
     7
 10
134.18475166795781
 20
101.22930512597181
 30
0.0
 11
132.62046538706059
 21
100.3717266133807
 31
0.0
 12
139.4206293992797
 22
93.56942787503273
 32
0.0
 13
139.4206293992797
 23
93.56942787503273
 33
0.0
  0
SOLID
  5
F10
  8
DRG
  6
CONTINUOUS
 62
     7
 10
22.955401679811722
 20
101.2293051259719
 30
0.0
 11
21.391115398914501
 21
100.3717266133808
 31
0.0
 12
28.191279411133561
 22
93.56942787503273
 32
0.0
 13
28.191279411133561
 23
93.56942787503273
 33
0.0
210
0.0
220
0.0
230
1.0
  0
SOLID
  5
F11
  8
DRG
  6
CONTINUOUS
 62
     7
 10
38.129938967166531
 20
101.5089798975856
 30
0.0
 11
36.39025690279135
 21
100.7883799923042
 31
0.0
 12
53.098073458920183
 22
100.78838481499351
 32
0.0
 13
53.098073458920183
 23
100.78838481499351
 33
0.0
210
0.0
220
0.0
230
1.0
  0
SOLID
  5
F12
  8
DRG
  6
CONTINUOUS
 62
     7
 10
94.141578804200719
 20
101.5089798975856
 30
0.0
 11
92.401896739825546
 21
100.7883799923042
 31
0.0
 12
109.10971329595441
 22
100.78838481499351
 32
0.0
 13
109.10971329595441
 23
100.78838481499351
 33
0.0
210
0.0
220
0.0
230
1.0
  0
SOLID
  5
F13
  8
DRG
  6
CONTINUOUS
 62
     7
 10
51.3583941242996
 20
101.5089820860203
 30
0.0
 11
38.129938967166531
 21
101.5089798975856
 31
0.0
 12
53.098073458920183
 22
100.78838481499351
 32
0.0
 13
53.098073458920183
 23
100.78838481499351
 33
0.0
  0
SOLID
  5
F14
  8
DRG
  6
CONTINUOUS
 62
     7
 10
107.3700339613337
 20
101.5089820860203
 30
0.0
 11
94.141578804200719
 21
101.5089798975856
 31
0.0
 12
109.10971329595441
 22
100.78838481499351
 32
0.0
 13
109.10971329595441
 23
100.78838481499351
 33
0.0
210
0.0
220
0.0
230
1.0
  0
SOLID
  5
F15
  8
DRG
  6
CONTINUOUS
 62
     7
 10
135.87400717988629
 20
101.802758078951
 30
0.0
 11
134.18475166795781
 21
101.22930512597181
 31
0.0
 12
139.4206293992797
 22
93.56942787503273
 32
0.0
 13
139.4206293992797
 23
93.56942787503273
 33
0.0
210
0.0
220
0.0
230
1.0
  0
SOLID
  5
F16
  8
DRG
  6
CONTINUOUS
 62
     7
 10
24.644657191740151
 20
101.8027580789511
 30
0.0
 11
22.955401679811722
 21
101.2293051259719
 31
0.0
 12
28.191279411133561
 22
93.56942787503273
 32
0.0
 13
28.191279411133561
 23
93.56942787503273
 33
0.0
  0
SOLID
  5
F17
  8
DRG
  6
CONTINUOUS
 62
     7
 10
95.97256915621729
 20
101.9485617891854
 30
0.0
 11
94.141578804200719
 21
101.5089798975856
 31
0.0
 12
107.3700339613337
 22
101.5089820860203
 32
0.0
 13
107.3700339613337
 23
101.5089820860203
 33
0.0
210
0.0
220
0.0
230
1.0
  0
SOLID
  5
F18
  8
DRG
  6
CONTINUOUS
 62
     7
 10
39.960929319183101
 20
101.9485617891854
 30
0.0
 11
38.129938967166531
 21
101.5089798975856
 31
0.0
 12
51.3583941242996
 22
101.5089820860203
 32
0.0
 13
51.3583941242996
 23
101.5089820860203
 33
0.0
210
0.0
220
0.0
230
1.0
  0
SOLID
  5
F19
  8
DRG
  6
CONTINUOUS
 62
     7
 10
49.527407010229453
 20
101.94856234311381
 30
0.0
 11
39.960929319183101
 21
101.9485617891854
 31
0.0
 12
51.3583941242996
 22
101.5089820860203
 32
0.0
 13
51.3583941242996
 23
101.5089820860203
 33
0.0
210
0.0
220
0.0
230
1.0
  0
SOLID
  5
F1A
  8
DRG
  6
CONTINUOUS
 62
     7
 10
105.53904684726361
 20
101.94856234311381
 30
0.0
 11
95.97256915621729
 21
101.9485617891854
 31
0.0
 12
107.3700339613337
 22
101.5089820860203
 32
0.0
 13
107.3700339613337
 23
101.5089820860203
 33
0.0
210
0.0
220
0.0
230
1.0
  0
SOLID
  5
F1B
  8
DRG
  6
CONTINUOUS
 62
     7
 10
77.482556033578931
 20
101.9948050433795
 30
0.0
 11
62.478989637268569
 21
94.593352860836134
 31
0.0
 12
67.331191210151687
 22
94.593352860836134
 32
0.0
 13
67.331191210151687
 23
94.593352860836134
 33
0.0
210
0.0
220
0.0
230
1.0
  0
SOLID
  5
F1C
  8
DRG
  6
CONTINUOUS
 62
     7
 10
77.482556033578931
 20
101.9948050433795
 30
0.0
 11
67.331191210151687
 21
94.593352860836134
 31
0.0
 12
84.553623006881026
 22
94.593352860836134
 32
0.0
 13
84.553623006881026
 23
94.593352860836134
 33
0.0
210
0.0
220
0.0
230
1.0
  0
SOLID
  5
F1D
  8
DRG
  6
CONTINUOUS
 62
     7
 10
62.478989637268562
 20
101.9948050433795
 30
0.0
 11
62.478989637268569
 21
94.593352860836134
 31
0.0
 12
77.482556033578931
 22
101.9948050433795
 32
0.0
 13
77.482556033578931
 23
101.9948050433795
 33
0.0
  0
SOLID
  5
F1E
  8
DRG
  6
CONTINUOUS
 62
     7
 10
84.553623006881026
 20
101.9948050433795
 30
0.0
 11
77.482556033578931
 21
101.9948050433795
 31
0.0
 12
84.553623006881026
 22
94.593352860836134
 32
0.0
 13
84.553623006881026
 23
94.593352860836134
 33
0.0
210
0.0
220
0.0
230
1.0
  0
SOLID
  5
F1F
  8
DRG
  6
CONTINUOUS
 62
     7
 10
67.331191210151701
 20
101.9948050433795
 30
0.0
 11
62.478989637268562
 21
101.9948050433795
 31
0.0
 12
77.482556033578931
 22
101.9948050433795
 32
0.0
 13
77.482556033578931
 23
101.9948050433795
 33
0.0
210
0.0
220
0.0
230
1.0
  0
SOLID
  5
F20
  8
DRG
  6
CONTINUOUS
 62
     7
 10
139.4206293992797
 20
102.0369718403325
 30
0.0
 11
135.87400717988629
 21
101.802758078951
 31
0.0
 12
139.4206293992797
 22
93.56942787503273
 32
0.0
 13
139.4206293992797
 23
93.56942787503273
 33
0.0
210
0.0
220
0.0
230
1.0
  0
SOLID
  5
F21
  8
DRG
  6
CONTINUOUS
 62
     7
 10
7.7802673214059723
 20
102.0369718403326
 30
0.0
 11
7.7802673214059723
 21
62.115696081838671
 31
0.0
 12
18.821661727211438
 22
97.915857504065912
 32
0.0
 13
18.821661727211438
 23
97.915857504065912
 33
0.0
210
0.0
220
0.0
230
1.0
  0
SOLID
  5
F22
  8
DRG
  6
CONTINUOUS
 62
     7
 10
18.821661727211438
 20
102.0369718403326
 30
0.0
 11
7.7802673214059723
 21
102.0369718403326
 31
0.0
 12
18.821661727211438
 22
97.915857504065912
 32
0.0
 13
18.821661727211438
 23
97.915857504065912
 33
0.0
  0
SOLID
  5
F23
  8
DRG
  6
CONTINUOUS
 62
     7
 10
142.11987082690661
 20
62.115696081838678
 30
0.0
 11
153.2899770207527
 21
102.0369718403326
 31
0.0
 12
142.11987082690661
 22
102.0369718403326
 32
0.0
 13
142.11987082690661
 23
102.0369718403326
 33
0.0
  0
SOLID
  5
F24
  8
DRG
  6
CONTINUOUS
 62
     7
 10
153.2899770207527
 20
102.0369718403326
 30
0.0
 11
142.11987082690661
 21
62.115696081838678
 31
0.0
 12
153.2899770207527
 22
62.115696081838678
 32
0.0
 13
153.2899770207527
 23
62.115696081838678
 33
0.0
210
0.0
220
0.0
230
1.0
  0
SOLID
  5
F25
  8
DRG
  6
CONTINUOUS
 62
     7
 10
130.05101171535759
 20
102.0369718403326
 30
0.0
 11
119.0096173095521
 21
62.115696081838678
 31
0.0
 12
130.05101171535759
 22
97.915857504065855
 32
0.0
 13
130.05101171535759
 23
97.915857504065855
 33
0.0
210
0.0
220
0.0
230
1.0
  0
SOLID
  5
F26
  8
DRG
  6
CONTINUOUS
 62
     7
 10
165.4162645291251
 20
86.855763084496886
 30
0.0
 11
171.38205787173379
 21
102.0369718403326
 31
0.0
 12
160.9346181585602
 22
102.0369718403326
 32
0.0
 13
160.9346181585602
 23
102.0369718403326
 33
0.0
210
0.0
220
0.0
230
1.0
  0
SOLID
  5
F27
  8
DRG
  6
CONTINUOUS
 62
     7
 10
160.9346181585602
 20
102.0369718403326
 30
0.0
 11
153.2899770207527
 21
82.583583780839575
 31
0.0
 12
165.4162645291251
 22
86.855763084496886
 32
0.0
 13
165.4162645291251
 23
86.855763084496886
 33
0.0
  0
SOLID
  5
F28
  8
DRG
  6
CONTINUOUS
 62
     7
 10
119.0096173095521
 20
102.0369718403326
 30
0.0
 11
119.0096173095521
 21
62.115696081838678
 31
0.0
 12
130.05101171535759
 22
102.0369718403326
 32
0.0
 13
130.05101171535759
 23
102.0369718403326
 33
0.0
210
0.0
220
0.0
230
1.0
  0
SOLID
  5
F29
  8
DRG
  6
CONTINUOUS
 62
     7
 10
28.191279411133561
 20
102.0369718403326
 30
0.0
 11
24.644657191740151
 21
101.8027580789511
 31
0.0
 12
28.191279411133561
 22
93.56942787503273
 32
0.0
 13
28.191279411133561
 23
93.56942787503273
 33
0.0
  0
SOLID
  5
F2A
  8
DRG
  6
CONTINUOUS
 62
     7
 10
137.6370915704783
 20
102.0747248149906
 30
0.0
 11
135.87400717988629
 21
101.802758078951
 31
0.0
 12
139.4206293992797
 22
102.0369718403325
 32
0.0
 13
139.4206293992797
 23
102.0369718403325
 33
0.0
210
0.0
220
0.0
230
1.0
  0
SOLID
  5
F2B
  8
DRG
  6
CONTINUOUS
 62
     7
 10
26.40774158233215
 20
102.0747248149907
 30
0.0
 11
24.644657191740151
 21
101.8027580789511
 31
0.0
 12
28.191279411133561
 22
102.0369718403326
 32
0.0
 13
28.191279411133561
 23
102.0369718403326
 33
0.0
210
0.0
220
0.0
230
1.0
  0
SOLID
  5
F2C
  8
DRG
  6
CONTINUOUS
 62
     7
 10
49.527407010229453
 20
101.94856234311381
 30
0.0
 11
47.650196927116667
 21
102.0963017020437
 31
0.0
 12
41.838142899665847
 22
102.0963017020437
 32
0.0
 13
41.838142899665847
 23
102.0963017020437
 33
0.0
210
0.0
220
0.0
230
1.0
  0
SOLID
  5
F2D
  8
DRG
  6
CONTINUOUS
 62
     7
 10
41.838142899665847
 20
102.0963017020437
 30
0.0
 11
39.960929319183101
 21
101.9485617891854
 31
0.0
 12
49.527407010229453
 22
101.94856234311381
 32
0.0
 13
49.527407010229453
 23
101.94856234311381
 33
0.0
210
0.0
220
0.0
230
1.0
  0
SOLID
  5
F2E
  8
DRG
  6
CONTINUOUS
 62
     7
 10
105.53904684726361
 20
101.94856234311381
 30
0.0
 11
103.66183676415081
 21
102.0963017020437
 31
0.0
 12
97.849782736700035
 22
102.0963017020437
 32
0.0
 13
97.849782736700035
 23
102.0963017020437
 33
0.0
210
0.0
220
0.0
230
1.0
  0
SOLID
  5
F2F
  8
DRG
  6
CONTINUOUS
 62
     7
 10
97.849782736700035
 20
102.0963017020437
 30
0.0
 11
95.97256915621729
 21
101.9485617891854
 31
0.0
 12
105.53904684726361
 22
101.94856234311381
 32
0.0
 13
105.53904684726361
 23
101.94856234311381
 33
0.0
210
0.0
220
0.0
230
1.0
  0
SOLID
  5
F30
  8
DRG
  6
CONTINUOUS
 62
     7
 10
77.482556033578931
 20
107.1280725498991
 30
0.0
 11
67.331191210151701
 21
101.9948050433795
 31
0.0
 12
77.482556033578931
 22
101.9948050433795
 32
0.0
 13
77.482556033578931
 23
101.9948050433795
 33
0.0
  0
SOLID
  5
F31
  8
DRG
  6
CONTINUOUS
 62
     7
 10
67.331191210151701
 20
107.1280725498991
 30
0.0
 11
67.331191210151701
 21
101.9948050433795
 31
0.0
 12
77.482556033578931
 22
107.1280725498991
 32
0.0
 13
77.482556033578931
 23
107.1280725498991
 33
0.0
210
0.0
220
0.0
230
1.0
  0
ENDBLK
  5
F33
  8
0
  0
ENDSEC
  0
SECTION
  2
ENTITIES
  0
POLYLINE
  5
32
  8
BORT
 66
     1
 10
0.0
 20
0.0
 30
0.0
 39
1.8
  0
VERTEX
  5
BFE
  8
BORT
 10
166.0
 20
112.0
 30
0.0
  0
VERTEX
  5
BFF
  8
BORT
 10
10.0
 20
112.0
 30
0.0
  0
SEQEND
  5
C00
  8
BORT
  0
POLYLINE
  5
36
  8
BORT
 66
     1
 10
0.0
 20
0.0
 30
0.0
 39
1.8
  0
VERTEX
  5
C01
  8
BORT
 10
716.0
 20
76.0
 30
0.0
  0
VERTEX
  5
C02
  8
BORT
 10
716.0
 20
44.0
 30
0.0
  0
SEQEND
  5
C03
  8
BORT
  0
POLYLINE
  5
3A
  8
BORT
 66
     1
 10
0.0
 20
0.0
 30
0.0
 39
1.8
  0
VERTEX
  5
C04
  8
BORT
 10
360.0
 20
44.0
 30
0.0
  0
VERTEX
  5
C05
  8
BORT
 10
360.0
 20
14.0
 30
0.0
  0
SEQEND
  5
C06
  8
BORT
  0
POLYLINE
  5
3E
  8
BORT
 66
     1
 10
0.0
 20
0.0
 30
0.0
 39
1.8
  0
VERTEX
  5
C07
  8
BORT
 10
580.0
 20
44.0
 30
0.0
  0
VERTEX
  5
C08
  8
BORT
 10
580.0
 20
14.0
 30
0.0
  0
SEQEND
  5
C09
  8
BORT
  0
TEXT
  5
49
  8
BORT
 10
197.8420272960482
 20
26.268448923031389
 30
0.0
 40
6.0
  1
EXEECO LTD   C   1996
  0
TEXT
  5
4A
  8
BORT
 10
543.45638722086494
 20
65.0
 30
0.0
 40
5.0
  1
DRAWN:-
  0
TEXT
  5
4B
  8
BORT
 10
77.833333333333329
 20
102.4999999999999
 30
0.0
 40
5.0
  1
ALTERATIONS
 72
     4
 11
102.0
 21
105.0
 31
0.0
  0
TEXT
  5
4C
  8
BORT
 10
73.071428571428555
 20
116.5
 30
0.0
 40
5.0
  1
ORIGINAL ISSUE
 72
     4
 11
102.0
 21
119.0
 31
0.0
  0
TEXT
  5
4D
  8
BORT
 10
14.11904761904762
 20
102.4999999999999
 30
0.0
 40
5.0
  1
ISSUE
 72
     4
 11
24.0
 21
105.0
 31
0.0
  0
TEXT
  5
4E
  8
BORT
 10
22.095238095238091
 20
116.5
 30
0.0
 40
5.0
  1
A
 72
     4
 11
24.0
 21
119.0
 31
0.0
  0
TEXT
  5
4F
  8
BORT
 10
613.66666666666663
 20
23.0
 30
0.0
 40
14.0
  1
PUB\IS3CD
 72
     4
 11
670.0
 21
29.0
 31
0.0
  0
TEXT
  5
50
  8
BORT
 10
543.16740467642956
 20
49.32441631859313
 30
0.0
 40
5.0
  1
CHECKED:-
  0
TEXT
  5
51
  8
BORT
 10
725.78627429561266
 20
65.0
 30
0.0
 40
5.0
  1
SCALE
  0
POLYLINE
  5
52
  8
BORT
 66
     1
 10
0.0
 20
0.0
 30
0.0
 39
1.8
  0
VERTEX
  5
C0A
  8
BORT
 10
540.0
 20
76.0
 30
0.0
  0
VERTEX
  5
C0B
  8
BORT
 10
540.0
 20
44.0
 30
0.0
  0
SEQEND
  5
C0C
  8
BORT
  0
CIRCLE
  5
57
  8
BORT
 10
272.15469896790501
 20
29.191286540329269
 30
0.0
 40
5.6547997464713049
  0
TEXT
  5
58
  8
BORT
 10
379.51870841725901
 20
31.187435372907171
 30
0.0
 40
10.0
  1
OUTLINE DETAILS OF IS3
 72
     4
 11
472.85204175059238
 21
36.187435372907167
 31
0.0
  0
TEXT
  5
59
  8
BORT
 10
601.72755352213221
 20
65.5
 30
0.0
 40
5.0
  1
S.W.   9.9.96
 72
     4
 11
627.20374399832281
 21
68.0
 31
0.0
  0
TEXT
  5
5A
  8
BORT
 10
730.99184548397261
 20
49.0
 30
0.0
 40
5.0
  1
1:1
  0
LINE
  5
5B
  8
BORT
 39
1.8
 10
166.0
 20
98.0
 30
0.0
 11
10.0
 21
98.0
 31
0.0
  0
LINE
  5
5C
  8
BORT
 39
1.8
 10
166.0
 20
98.0
 30
0.0
 11
10.0
 21
98.0
 31
0.0
  0
LINE
  5
5D
  8
BORT
 39
1.8
 10
10.0
 20
14.0
 30
0.0
 11
10.0
 21
140.0
 31
0.0
  0
LINE
  5
5E
  8
BORT
 39
1.8
 10
760.0
 20
76.0
 30
0.0
 11
760.0
 21
14.0
 31
0.0
  0
LINE
  5
5F
  8
BORT
 39
1.8
 10
760.0
 20
14.0
 30
0.0
 11
10.0
 21
14.0
 31
0.0
  0
LINE
  5
60
  8
BORT
 39
1.8
 10
760.0
 20
44.0
 30
0.0
 11
166.0
 21
44.0
 31
0.0
  0
POLYLINE
  5
61
  8
BORT
 66
     1
 10
0.0
 20
0.0
 30
0.0
 39
1.8
  0
VERTEX
  5
C0D
  8
BORT
 10
166.0
 20
98.0
 30
0.0
  0
VERTEX
  5
C0E
  8
BORT
 10
166.0
 20
14.0
 30
0.0
  0
SEQEND
  5
C0F
  8
BORT
  0
POLYLINE
  5
65
  8
BORT
 66
     1
 10
0.0
 20
0.0
 30
0.0
 39
1.8
  0
VERTEX
  5
C10
  8
BORT
 10
166.0
 20
126.0
 30
0.0
  0
VERTEX
  5
C11
  8
BORT
 10
10.0
 20
126.0
 30
0.0
  0
SEQEND
  5
C12
  8
BORT
  0
TEXT
  5
69
  8
BORT
 10
387.85204175059238
 20
18.47120504870189
 30
0.0
 40
10.0
  1
ISO & USA STANDARD
 72
     4
 11
472.85204175059238
 21
23.47120504870189
 31
0.0
  0
POLYLINE
  5
6A
  8
BORT
 66
     1
 10
0.0
 20
0.0
 30
0.0
 39
1.8
  0
VERTEX
  5
C13
  8
BORT
 10
760.0
 20
60.0
 30
0.0
  0
VERTEX
  5
C14
  8
BORT
 10
540.0
 20
60.0
 30
0.0
  0
SEQEND
  5
C15
  8
BORT
  0
POLYLINE
  5
6E
  8
BORT
 66
     1
 10
0.0
 20
0.0
 30
0.0
 39
1.8
  0
VERTEX
  5
C16
  8
BORT
 10
540.0
 20
76.0
 30
0.0
  0
VERTEX
  5
C17
  8
BORT
 10
760.0
 20
76.0
 30
0.0
  0
SEQEND
  5
C18
  8
BORT
  0
LINE
  5
72
  8
DRG2
 10
166.0
 20
92.0
 30
0.0
 11
466.0
 21
92.0
 31
0.0
  0
LINE
  5
73
  8
DRG2
 10
166.0
 20
76.0
 30
0.0
 11
466.0
 21
76.0
 31
0.0
  0
LINE
  5
74
  8
DRG2
 10
166.0
 20
60.0
 30
0.0
 11
466.0
 21
60.0
 31
0.0
  0
LINE
  5
75
  8
DRG2
 10
166.0
 20
44.0
 30
0.0
 11
466.0
 21
44.0
 31
0.0
  0
LINE
  5
77
  8
DRG2
 10
286.0
 20
44.0
 30
0.0
 11
286.0
 21
92.0
 31
0.0
  0
LINE
  5
78
  8
DRG2
 10
346.0
 20
44.0
 30
0.0
 11
346.0
 21
92.0
 31
0.0
  0
LINE
  5
79
  8
DRG2
 10
406.0
 20
44.0
 30
0.0
 11
406.0
 21
92.0
 31
0.0
  0
LINE
  5
7A
  8
DRG2
 10
466.0
 20
44.0
 30
0.0
 11
466.0
 21
92.0
 31
0.0
  0
TEXT
  5
7B
  8
TXT
 10
197.3095238095238
 20
81.5
 30
0.0
 40
5.0
  1
NOMINAL RATIO
 72
     4
 11
226.0
 21
84.0
 31
0.0
  0
TEXT
  5
7C
  8
TXT
 10
311.71428571428572
 20
81.5
 30
0.0
 40
5.0
  1
1:1
 72
     4
 11
316.0
 21
84.0
 31
0.0
  0
TEXT
  5
7D
  8
TXT
 10
201.71428571428569
 20
65.5
 30
0.0
 40
5.0
  1
EXACT RATIO
 72
     4
 11
226.0
 21
68.0
 31
0.0
  0
TEXT
  5
7E
  8
TXT
 10
170.76190476190479
 20
49.857142857142847
 30
0.0
 40
5.0
  1
FACTOR (MECH. ADVANTAGE)
 72
     4
 11
226.0
 21
52.0
 31
0.0
  0
TEXT
  5
7F
  8
TXT
 10
305.7619047619047
 20
65.5
 30
0.0
 40
5.0
  1
1.25:1
 72
     4
 11
316.0
 21
68.0
 31
0.0
  0
TEXT
  5
80
  8
TXT
 10
306.95238095238091
 20
49.5
 30
0.0
 40
5.0
  1
1.125
 72
     4
 11
316.0
 21
52.0
 31
0.0
  0
TEXT
  5
81
  8
TXT
 10
366.47619047619042
 20
49.5
 30
0.0
 40
5.0
  1
1.830
 72
     4
 11
376.0
 21
52.0
 31
0.0
  0
TEXT
  5
82
  8
TXT
 10
426.0
 20
49.5
 30
0.0
 40
5.0
  1
2.700
 72
     4
 11
436.0
 21
52.0
 31
0.0
  0
TEXT
  5
83
  8
TXT
 10
431.23809523809518
 20
81.5
 30
0.0
 40
5.0
  1
3:1
 72
     4
 11
436.0
 21
84.0
 31
0.0
  0
TEXT
  5
84
  8
TXT
 10
425.28571428571422
 20
65.5
 30
0.0
 40
5.0
  1
3.00:1
 72
     4
 11
436.0
 21
68.0
 31
0.0
  0
TEXT
  5
85
  8
TXT
 10
365.28571428571428
 20
65.5
 30
0.0
 40
5.0
  1
2.04:1
 72
     4
 11
376.0
 21
68.0
 31
0.0
  0
TEXT
  5
86
  8
TXT
 10
371.23809523809518
 20
81.5
 30
0.0
 40
5.0
  1
2:1
 72
     4
 11
376.0
 21
84.0
 31
0.0
  0
POLYLINE
  5
87
  8
BORT
 66
     1
 10
0.0
 20
0.0
 30
0.0
 39
1.8
  0
VERTEX
  5
C19
  8
BORT
 10
166.0
 20
140.0
 30
0.0
  0
VERTEX
  5
C1A
  8
BORT
 10
166.0
 20
98.0
 30
0.0
  0
SEQEND
  5
C1B
  8
BORT
  0
POLYLINE
  5
8B
  8
BORT
 66
     1
 10
0.0
 20
0.0
 30
0.0
 39
1.8
  0
VERTEX
  5
C1C
  8
BORT
 10
38.0
 20
98.0
 30
0.0
  0
VERTEX
  5
C1D
  8
BORT
 10
38.0
 20
140.0
 30
0.0
  0
SEQEND
  5
C1E
  8
BORT
  0
LINE
  5
93
  8
CRS
 10
212.8975319030107
 20
410.58184782375201
 30
0.0
 11
330.57078235842738
 21
410.58184782375201
 31
0.0
  0
LINE
  5
95
  8
DRG
 62
     1
 10
266.42271433812442
 20
336.60759721835473
 30
0.0
 11
243.42271433812419
 21
336.60759721835473
 31
0.0
  0
LINE
  5
96
  8
DRG
 62
     1
 10
215.42271433812439
 20
470.58184782375213
 30
0.0
 11
215.42271433812439
 21
350.5818478237519
 31
0.0
  0
ARC
  5
98
  8
DRG
 62
     1
 10
230.42271433812419
 20
345.5818478237519
 30
0.0
 40
5.0
 50
0.0000000000005598
 51
90.0
  0
ARC
  5
99
  8
DRG
 62
     1
 10
243.42271433812419
 20
344.60759721835473
 30
0.0
 40
8.0
 50
180.00000000000011
 51
270.0
  0
LINE
  5
9A
  8
DRG
 62
     1
 10
215.42271433812439
 20
350.5818478237519
 30
0.0
 11
230.42271433812419
 21
350.5818478237519
 31
0.0
  0
LINE
  5
9B
  8
HID
 10
215.42271433812439
 20
373.031847823752
 30
0.0
 11
228.42271433812439
 21
373.031847823752
 31
0.0
  0
LINE
  5
9C
  8
HID
 10
215.42271433812439
 20
374.33684782375201
 30
0.0
 11
228.42271433812439
 21
374.33684782375201
 31
0.0
  0
LINE
  5
9D
  8
DRG
 62
     1
 10
215.42271433812439
 20
621.08184782375201
 30
0.0
 11
215.42271433812439
 21
513.06369896335093
 31
0.0
  0
LINE
  5
9E
  8
DRG
 10
201.3977143381245
 20
548.0818478237519
 30
0.0
 11
95.897714338124615
 21
548.0818478237519
 31
0.0
  0
LINE
  5
9F
  8
DRG
 10
201.3977143381245
 20
578.0818478237519
 30
0.0
 11
95.897714338124615
 21
578.0818478237519
 31
0.0
  0
LINE
  5
A0
  8
DRG2
 10
95.897714338124615
 20
578.0818478237519
 30
0.0
 11
95.897714338124615
 21
548.0818478237519
 31
0.0
  0
LINE
  5
A1
  8
DRG
 10
94.397714338124615
 20
576.58184782375201
 30
0.0
 11
94.397714338124615
 21
549.58184782375201
 31
0.0
  0
LINE
  5
A2
  8
DRG
 10
94.397714338124615
 20
549.58184782375201
 30
0.0
 11
95.897714338124615
 21
548.0818478237519
 31
0.0
  0
LINE
  5
A3
  8
DRG
 10
95.897714338124615
 20
578.0818478237519
 30
0.0
 11
94.397714338124615
 21
576.58184782375201
 31
0.0
  0
LINE
  5
A4
  8
DRG
 62
     1
 10
207.39771433812459
 20
613.08184782375292
 30
0.0
 11
207.39771433812459
 21
513.06369896335093
 31
0.0
  0
LINE
  5
A7
  8
HID
 10
215.42271433812439
 20
448.13184782375203
 30
0.0
 11
228.42271433812471
 21
448.1318478237522
 31
0.0
  0
LINE
  5
A8
  8
HID
 10
215.42271433812439
 20
446.82684782375208
 30
0.0
 11
228.42271433812471
 21
446.82684782375208
 31
0.0
  0
LINE
  5
AF
  8
CRS
 10
589.94914622120439
 20
630.87275585031693
 30
0.0
 11
589.94914622120439
 21
315.74770468353961
 31
0.0
  0
CIRCLE
  5
B0
  8
DRG
 10
589.94914622120439
 20
410.58184782375281
 30
0.0
 40
86.0
  0
LINE
  5
B1
  8
CRS
 10
499.20278941423692
 20
410.58184782375281
 30
0.0
 11
680.69550302817186
 21
410.58184782375281
 31
0.0
  0
LINE
  5
B2
  8
DRG
 62
     1
 10
299.42271433812448
 20
324.5818478237519
 30
0.0
 11
299.42271433812448
 21
357.14087920404671
 31
0.0
  0
LINE
  5
B3
  8
DRG
 62
     1
 10
291.42271433812442
 20
324.5818478237519
 30
0.0
 11
291.42271433812442
 21
403.61592692348029
 31
0.0
  0
LINE
  5
B4
  8
DRG
 62
     1
 10
275.42271433812442
 20
324.5818478237519
 30
0.0
 11
299.42271433812448
 21
324.5818478237519
 31
0.0
  0
ARC
  5
B5
  8
DRG
 10
275.42271433812442
 20
328.5818478237519
 30
0.0
 40
4.0
 50
180.0
 51
270.0
  0
ARC
  5
B6
  8
DRG
 62
     1
 10
266.42271433812442
 20
331.60759721835473
 30
0.0
 40
5.0
 50
0.0
 51
90.0
  0
LINE
  5
B8
  8
CRS
 10
520.06723061374123
 20
563.08184782375292
 30
0.0
 11
657.33157334398697
 21
563.08184782375292
 31
0.0
  0
LINE
  5
C3
  8
DRG
 62
     1
 10
271.42271433812442
 20
328.5818478237519
 30
0.0
 11
271.42271433812442
 21
402.82350596878899
 31
0.0
  0
LINE
  5
CA
  8
DRG
 62
     1
 10
559.94914622120439
 20
493.91251444775151
 30
0.0
 11
559.94914622120439
 21
509.08184782375292
 31
0.0
  0
ARC
  5
CC
  8
DRG
 62
     1
 10
555.94914622120439
 20
493.91251444775151
 30
0.0
 40
4.0
 50
292.19610085681973
 51
0.0
  0
ARC
  5
CF
  8
DRG
 62
     1
 10
589.94914622120439
 20
500.58184782375292
 30
0.0
 40
10.0
 50
333.46997898200061
 51
206.5300210179993
  0
LINE
  5
D0
  8
CRS
 10
572.96678467553602
 20
500.58184782375292
 30
0.0
 11
607.34119888347959
 21
500.58184782375292
 31
0.0
  0
LINE
  5
D8
  8
DRG
 62
     1
 10
619.94914622120427
 20
493.91251444775151
 30
0.0
 11
619.94914622120427
 21
509.08184782375292
 31
0.0
  0
ARC
  5
DA
  8
DRG
 62
     1
 10
623.94914622120427
 20
493.91251444775151
 30
0.0
 40
4.0
 50
180.0
 51
247.8038991431799
  0
LINE
  5
E0
  8
DIM
 10
100.3977143381246
 20
707.70488186591069
 30
0.0
 11
209.42271433812439
 21
707.70488186591069
 31
0.0
  0
SOLID
  5
E1
  8
DIM
 10
100.3977143381246
 20
708.70488186591058
 30
0.0
 11
100.3977143381246
 21
706.70488186591069
 31
0.0
 12
94.397714338124615
 22
707.70488186591069
 32
0.0
 13
94.397714338124615
 23
707.70488186591069
 33
0.0
  0
SOLID
  5
E2
  8
DIM
 10
209.42271433812439
 20
708.70488186591058
 30
0.0
 11
209.42271433812439
 21
706.70488186591069
 31
0.0
 12
215.42271433812439
 22
707.70488186591069
 32
0.0
 13
215.42271433812439
 23
707.70488186591069
 33
0.0
  0
TEXT
  5
E3
  8
DIM
 10
150.02926195717211
 20
710.20488186591058
 30
0.0
 40
5.0
  1
121
 72
     1
 11
154.91021433812449
 21
712.70488186591058
 31
0.0
 73
     2
  0
LINE
  5
E4
  8
DIM
 10
215.42271433812439
 20
626.40889722584836
 30
0.0
 11
215.42271433812439
 21
709.70488186591058
 31
0.0
  0
LINE
  5
E5
  8
DIM
 10
94.397714338124615
 20
580.67814442457643
 30
0.0
 11
94.397714338124615
 21
709.70488186591058
 31
0.0
  0
LINE
  5
EB
  8
DIM
 10
207.39771433812459
 20
618.08184782375292
 30
0.0
 11
207.39771433812459
 21
654.91925134474548
 31
0.0
  0
LINE
  5
EC
  8
DIM
 10
221.42271433812439
 20
652.91925134474559
 30
0.0
 11
227.42271433812439
 21
652.91925134474559
 31
0.0
  0
LINE
  5
ED
  8
DIM
 10
201.3977143381245
 20
652.91925134474559
 30
0.0
 11
177.964313704354
 21
652.91925134474559
 31
0.0
  0
LINE
  5
EE
  8
DIM
 10
177.964313704354
 20
652.91925134474559
 30
0.0
 11
173.1309803710206
 21
652.91925134474559
 31
0.0
  0
SOLID
  5
EF
  8
DIM
 10
221.42271433812439
 20
653.91925134474559
 30
0.0
 11
221.42271433812439
 21
651.91925134474559
 31
0.0
 12
215.42271433812439
 22
652.91925134474559
 32
0.0
 13
215.42271433812439
 23
652.91925134474559
 33
0.0
  0
SOLID
  5
F0
  8
DIM
 10
201.3977143381245
 20
653.91925134474559
 30
0.0
 11
201.3977143381245
 21
651.91925134474559
 31
0.0
 12
207.39771433812459
 22
652.91925134474559
 32
0.0
 13
207.39771433812459
 23
652.91925134474559
 33
0.0
  0
TEXT
  5
F1
  8
DIM
 10
184.71339412979921
 20
655.41925134474548
 30
0.0
 40
5.0
  1
8
 72
     1
 11
186.3800607964659
 21
657.91925134474559
 31
0.0
 73
     2
  0
LINE
  5
F2
  8
DRG
 10
139.3977143381245
 20
581.08184782375201
 30
0.0
 11
99.397714338124615
 21
581.08184782375201
 31
0.0
  0
LINE
  5
F3
  8
DRG
 10
139.3977143381245
 20
578.0818478237519
 30
0.0
 11
139.3977143381245
 21
581.08184782375201
 31
0.0
  0
LINE
  5
F4
  8
DRG
 10
99.397714338124615
 20
578.0818478237519
 30
0.0
 11
99.397714338124615
 21
581.08184782375201
 31
0.0
  0
LINE
  5
F5
  8
DIM
 10
99.397714338124615
 20
586.0818478237519
 30
0.0
 11
99.397714338124615
 21
654.91925134474548
 31
0.0
  0
SOLID
  5
F6
  8
DIM
 10
105.3977143381246
 20
653.91925134474559
 30
0.0
 11
105.3977143381246
 21
651.91925134474559
 31
0.0
 12
99.397714338124615
 22
652.91925134474559
 32
0.0
 13
99.397714338124615
 23
652.91925134474559
 33
0.0
  0
LINE
  5
F7
  8
DIM
 10
88.397714338124615
 20
652.91925134474559
 30
0.0
 11
77.469026716645885
 21
652.91925134474559
 31
0.0
  0
LINE
  5
F8
  8
DIM
 10
77.469026716645885
 20
652.91925134474559
 30
0.0
 11
61.299711462693828
 21
652.91925134474559
 31
0.0
  0
SOLID
  5
F9
  8
DIM
 10
88.397714338124615
 20
653.91925134474559
 30
0.0
 11
88.397714338124615
 21
651.91925134474559
 31
0.0
 12
94.397714338124615
 22
652.91925134474559
 32
0.0
 13
94.397714338124615
 23
652.91925134474559
 33
0.0
  0
TEXT
  5
FA
  8
DIM
 10
72.635693383312471
 20
655.41925134474548
 30
0.0
 40
5.0
  1
5
 72
     1
 11
74.302360049979143
 21
657.91925134474559
 31
0.0
 73
     2
  0
LINE
  5
FE
  8
DIM
 10
242.40271433812441
 20
443.98184782375199
 30
0.0
 11
163.1918615282099
 21
443.98184782375199
 31
0.0
  0
LINE
  5
FF
  8
DIM
 10
242.40271433812441
 20
377.18184782375198
 30
0.0
 11
163.1918615282099
 21
377.18184782375198
 31
0.0
  0
LINE
  5
100
  8
DIM
 10
165.1918615282099
 20
443.98184782375188
 30
0.0
 11
165.1918615282099
 21
354.59829914567172
 31
0.0
  0
SOLID
  5
101
  8
DIM
 10
164.1918615282099
 20
437.98184782375199
 30
0.0
 11
166.1918615282099
 21
437.98184782375199
 31
0.0
 12
165.1918615282099
 22
443.98184782375199
 32
0.0
 13
165.1918615282099
 23
443.98184782375199
 33
0.0
  0
SOLID
  5
102
  8
DIM
 10
164.1918615282099
 20
383.18184782375198
 30
0.0
 11
166.1918615282099
 21
383.18184782375198
 31
0.0
 12
165.1918615282099
 22
377.18184782375198
 32
0.0
 13
165.1918615282099
 23
377.18184782375198
 33
0.0
  0
LINE
  5
103
  8
DIM
 10
210.42271433812439
 20
373.031847823752
 30
0.0
 11
168.3717774792033
 21
373.031847823752
 31
0.0
  0
LINE
  5
104
  8
DIM
 10
210.42271433812439
 20
448.13184782375203
 30
0.0
 11
115.8291235746842
 21
448.13184782375203
 31
0.0
  0
LINE
  5
105
  8
DIM
 10
117.8291235746842
 20
379.03184782375189
 30
0.0
 11
117.8291235746842
 21
442.13184782375203
 31
0.0
  0
SOLID
  5
106
  8
DIM
 10
116.8291235746842
 20
379.03184782375189
 30
0.0
 11
118.8291235746842
 21
379.03184782375189
 31
0.0
 12
117.8291235746842
 22
373.031847823752
 32
0.0
 13
117.8291235746842
 23
373.031847823752
 33
0.0
  0
SOLID
  5
107
  8
DIM
 10
116.8291235746842
 20
442.13184782375203
 30
0.0
 11
118.8291235746842
 21
442.13184782375203
 31
0.0
 12
117.8291235746842
 22
448.13184782375203
 32
0.0
 13
117.8291235746842
 23
448.13184782375203
 33
0.0
  0
TEXT
  5
108
  8
DIM
 10
113.0988722713648
 20
384.15327639518063
 30
0.0
 40
5.0
  1
SCREWED 2.5"
 50
90.0
 72
     4
 11
110.1226817951743
 21
410.58184782375201
 31
0.0
  0
TEXT
  5
109
  8
DIM
 10
158.3836728152022
 20
247.34112946389561
 30
0.0
 40
5.0
  1
%%c66 (%%C2.60") ROOT OF SPLINE
 50
90.0
  0
TEXT
  5
10A
  8
DIM
 10
166.9551013866307
 20
247.34112946389561
 30
0.0
 40
5.0
  1
MAX. PERMISSIBLE O/D OF
 50
90.0
  0
TEXT
  5
10B
  8
DIM
 10
175.52652995805931
 20
247.34112946389561
 30
0.0
 40
5.0
  1
VALVE SPINDLE LOCKNUT
 50
90.0
  0
LINE
  5
10C
  8
DIM
 10
215.42271433812439
 20
345.5818478237519
 30
0.0
 11
215.42271433812439
 21
242.630008056468
 31
0.0
  0
LINE
  5
10D
  8
DIM
 10
215.42271433812439
 20
244.630008056468
 30
0.0
 11
324.42271433812431
 21
244.630008056468
 31
0.0
  0
SOLID
  5
10E
  8
DIM
 10
221.42271433812439
 20
245.63000805646789
 30
0.0
 11
221.42271433812439
 21
243.63000805646789
 31
0.0
 12
215.42271433812439
 22
244.630008056468
 32
0.0
 13
215.42271433812439
 23
244.630008056468
 33
0.0
  0
SOLID
  5
10F
  8
DIM
 10
318.42271433812431
 20
245.63000805646789
 30
0.0
 11
318.42271433812431
 21
243.63000805646789
 31
0.0
 12
324.42271433812431
 22
244.630008056468
 32
0.0
 13
324.42271433812431
 23
244.630008056468
 33
0.0
  0
TEXT
  5
110
  8
DIM
 10
268.77047848585028
 20
247.130008056468
 30
0.0
 40
5.0
  1
109
 72
     4
 11
274.60381181918359
 21
249.630008056468
 31
0.0
  0
LINE
  5
114
  8
DIM
 10
509.94914622120439
 20
282.94715566933519
 30
0.0
 11
669.94914622120427
 21
282.94715566933519
 31
0.0
  0
SOLID
  5
115
  8
DIM
 10
509.94914622120439
 20
283.94715566933519
 30
0.0
 11
509.94914622120439
 21
281.94715566933519
 31
0.0
 12
503.94914622120427
 22
282.94715566933519
 32
0.0
 13
503.94914622120427
 23
282.94715566933519
 33
0.0
  0
SOLID
  5
116
  8
DIM
 10
669.94914622120427
 20
283.94715566933519
 30
0.0
 11
669.94914622120427
 21
281.94715566933519
 31
0.0
 12
675.94914622120439
 22
282.94715566933519
 32
0.0
 13
675.94914622120439
 23
282.94715566933519
 33
0.0
  0
TEXT
  5
117
  8
DIM
 10
581.73486050691872
 20
285.44715566933519
 30
0.0
 40
5.0
  1
%%c172
 72
     1
 11
589.94914622120439
 21
287.94715566933519
 31
0.0
 73
     2
  0
TEXT
  5
118
  8
DIM
 10
359.37908475342948
 20
308.44422899087812
 30
0.0
 40
5.0
  1
OFFSET FROM CENTRE LINE
  0
TEXT
  5
119
  8
DIM
 10
359.37908475342948
 20
317.01565756230661
 30
0.0
 40
5.0
  1
SCREWS EQUALLY SPACED 22.5%%d
  0
TEXT
  5
11A
  8
DIM
 10
359.37908475342948
 20
325.58708613373523
 30
0.0
 40
5.0
  1
8 OFF M8 BASEPLATE SECURING
  0
TEXT
  5
11B
  8
DIM
 10
359.37908475342948
 20
300.01939213916103
 30
0.0
 40
5.0
  1
ON %%c150 (%%c5.91") P.C.
  0
SOLID
  5
11C
  8
DIM
 10
515.94286257115652
 20
375.5545164133373
 30
0.0
 11
517.71438762318417
 21
374.62623898172677
 31
0.0
 12
519.61345739200203
 22
380.40495285361578
 32
0.0
 13
519.61345739200203
 23
380.40495285361578
 33
0.0
  0
LINE
  5
11D
  8
DIM
 10
516.8286250971704
 20
375.09037769753212
 30
0.0
 11
492.21559395856758
 21
328.11885842583501
 31
0.0
  0
LINE
  5
11E
  8
DIM
 10
492.21559395856758
 20
328.11885842583501
 30
0.0
 11
486.70043688852309
 21
328.11885842583501
 31
0.0
  0
LINE
  5
11F
  8
DIM
 10
503.94914622120427
 20
343.2355874140228
 30
0.0
 11
503.94914622120427
 21
280.94715566933519
 31
0.0
  0
LINE
  5
120
  8
DIM
 10
675.94914622120439
 20
384.74144577529557
 30
0.0
 11
675.94914622120439
 21
280.94715566933519
 31
0.0
  0
LINE
  5
121
  8
DIM
 10
503.94914622120427
 20
385.47556997897749
 30
0.0
 11
503.94914622120427
 21
357.46309496533797
 31
0.0
  0
LINE
  5
122
  8
DIM
 10
685.69550302817186
 20
410.58184782375281
 30
0.0
 11
722.57111075151295
 21
410.58184782375281
 31
0.0
  0
LINE
  5
123
  8
DIM
 10
662.33157334398709
 20
563.08184782375292
 30
0.0
 11
722.57111075151295
 21
563.08184782375292
 31
0.0
  0
LINE
  5
124
  8
DIM
 10
720.57111075151295
 20
416.58184782375281
 30
0.0
 11
720.57111075151295
 21
557.08184782375292
 31
0.0
  0
SOLID
  5
125
  8
DIM
 10
719.57111075151295
 20
416.58184782375281
 30
0.0
 11
721.57111075151295
 21
416.58184782375281
 31
0.0
 12
720.57111075151295
 22
410.58184782375281
 32
0.0
 13
720.57111075151295
 23
410.58184782375281
 33
0.0
  0
SOLID
  5
126
  8
DIM
 10
719.57111075151295
 20
557.08184782375292
 30
0.0
 11
721.57111075151295
 21
557.08184782375292
 31
0.0
 12
720.57111075151295
 22
563.08184782375292
 32
0.0
 13
720.57111075151295
 23
563.08184782375292
 33
0.0
  0
TEXT
  5
127
  8
DIM
 10
718.07111075151295
 20
480.8794668713719
 30
0.0
 40
5.0
  1
153
 50
90.0
 72
     1
 11
715.57111075151295
 21
486.83184782375292
 31
0.0
 73
     2
  0
LINE
  5
12A
  8
DIM
 10
720.57111075151295
 20
569.08184782375292
 30
0.0
 11
720.57111075151295
 21
615.08184782375292
 31
0.0
  0
SOLID
  5
12B
  8
DIM
 10
719.57111075151295
 20
569.08184782375292
 30
0.0
 11
721.57111075151295
 21
569.08184782375292
 31
0.0
 12
720.57111075151295
 22
563.08184782375292
 32
0.0
 13
720.57111075151295
 23
563.08184782375292
 33
0.0
  0
SOLID
  5
12C
  8
DIM
 10
719.57111075151295
 20
615.08184782375292
 30
0.0
 11
721.57111075151295
 21
615.08184782375292
 31
0.0
 12
720.57111075151295
 22
621.08184782375292
 32
0.0
 13
720.57111075151295
 23
621.08184782375292
 33
0.0
  0
TEXT
  5
12D
  8
DIM
 10
718.07111075151295
 20
588.03422877613377
 30
0.0
 40
5.0
  1
58
 50
90.0
 72
     1
 11
715.57111075151295
 21
592.08184782375292
 31
0.0
 73
     2
  0
LINE
  5
12E
  8
DIM
 10
607.02503357342391
 20
621.08184782375292
 30
0.0
 11
722.57111075151295
 21
621.08184782375292
 31
0.0
  0
SOLID
  5
12F
  8
DIM
 10
113.6813531142927
 20
586.52534975128333
 30
0.0
 11
111.7691655251127
 21
587.11147143130052
 31
0.0
 12
110.9668942796512
 22
581.08184782375201
 32
0.0
 13
110.9668942796512
 23
581.08184782375201
 33
0.0
  0
LINE
  5
130
  8
DIM
 10
112.7252593197027
 20
586.81841059129192
 30
0.0
 11
123.7877949300963
 21
622.90928390352929
 31
0.0
  0
LINE
  5
131
  8
DIM
 10
109.1059323924072
 20
652.91925134474559
 30
0.0
 11
105.3977143381246
 21
652.91925134474559
 31
0.0
  0
LINE
  5
132
  8
DIM
 10
90.897714338124615
 20
578.0818478237519
 30
0.0
 11
61.273817818346508
 21
578.0818478237519
 31
0.0
  0
LINE
  5
133
  8
DIM
 10
90.897714338124615
 20
548.0818478237519
 30
0.0
 11
61.273817818346508
 21
548.0818478237519
 31
0.0
  0
LINE
  5
134
  8
DIM
 10
63.273817818346522
 20
578.0818478237519
 30
0.0
 11
63.273817818346522
 21
474.33980530632579
 31
0.0
  0
SOLID
  5
135
  8
DIM
 10
62.273817818346508
 20
572.08184782375201
 30
0.0
 11
64.273817818346515
 21
572.08184782375201
 31
0.0
 12
63.273817818346522
 22
578.0818478237519
 32
0.0
 13
63.273817818346522
 23
578.0818478237519
 33
0.0
  0
SOLID
  5
136
  8
DIM
 10
62.273817818346508
 20
554.08184782375201
 30
0.0
 11
64.273817818346515
 21
554.08184782375201
 31
0.0
 12
63.273817818346522
 22
548.0818478237519
 32
0.0
 13
63.273817818346522
 23
548.0818478237519
 33
0.0
  0
TEXT
  5
137
  8
DIM
 10
59.269111589962328
 20
481.84165010000748
 30
0.0
 40
5.0
  1
%%c30.00 -0.05
 50
90.0
 72
     4
 11
56.769111589962328
 21
507.79403105238839
 31
0.0
  0
TEXT
  5
138
  8
DIM
 10
70.949640890985648
 20
474.10355486191219
 30
0.0
 40
5.0
  1
(%%c1.181" -0.002")
 50
90.0
 72
     4
 11
68.80678374812851
 21
507.79403105238839
 31
0.0
  0
LINE
  5
139
  8
CRS
 10
639.3405548870852
 20
471.53902416038079
 30
0.0
 11
639.3405548870852
 21
448.40748881888487
 31
0.0
  0
LINE
  5
13A
  8
CRS
 10
650.90632255783305
 20
459.97325648963289
 30
0.0
 11
627.77478721633679
 21
459.97325648963289
 31
0.0
  0
POLYLINE
  5
13B
  8
DRG
 66
     1
 10
0.0
 20
0.0
 30
0.0
  0
VERTEX
  5
C1F
  8
DRG
 10
540.67670319044259
 20
481.06749429011018
 30
0.0
  0
VERTEX
  5
C20
  8
DRG
 10
556.31210432774355
 20
465.43209315280887
 30
0.0
 42
0.3222541028482087
  0
VERTEX
  5
C21
  8
DRG
 10
563.22696330634915
 20
464.30265329300272
 30
0.0
 42
-0.2349805983574491
  0
VERTEX
  5
C22
  8
DRG
 10
616.67132913606008
 20
464.30265329300317
 30
0.0
 42
0.3222541028477364
  0
VERTEX
  5
C23
  8
DRG
 10
623.58618811466465
 20
465.43209315280887
 30
0.0
  0
VERTEX
  5
C24
  8
DRG
 10
639.22158925196607
 20
481.0674942901104
 30
0.0
  0
SEQEND
  5
C25
  8
DRG
  0
POLYLINE
  5
143
  8
DRG
 66
     1
 10
0.0
 20
0.0
 30
0.0
  0
VERTEX
  5
C26
  8
DRG
 10
519.46349975484679
 20
361.30940479299102
 30
0.0
  0
VERTEX
  5
C27
  8
DRG
 10
535.09890089214821
 20
376.94480593029238
 30
0.0
 42
0.3222541028482087
  0
VERTEX
  5
C28
  8
DRG
 10
536.22834075195431
 20
383.85966490889751
 30
0.0
 42
-0.2349805983574491
  0
VERTEX
  5
C29
  8
DRG
 10
536.22834075195385
 20
437.30403073860839
 30
0.0
 42
0.3222541028477364
  0
VERTEX
  5
C2A
  8
DRG
 10
535.09890089214821
 20
444.21888971721319
 30
0.0
  0
VERTEX
  5
C2B
  8
DRG
 10
519.46349975484679
 20
459.85429085451472
 30
0.0
  0
SEQEND
  5
C2C
  8
DRG
  0
POLYLINE
  5
14B
  8
DRG
 66
     1
 10
0.0
 20
0.0
 30
0.0
  0
VERTEX
  5
C2D
  8
DRG
 10
639.22158925196607
 20
340.0962013573955
 30
0.0
  0
VERTEX
  5
C2E
  8
DRG
 10
623.58618811466465
 20
355.73160249469657
 30
0.0
 42
0.3222541028482087
  0
VERTEX
  5
C2F
  8
DRG
 10
616.67132913605963
 20
356.86104235450301
 30
0.0
 42
-0.2349805983574491
  0
VERTEX
  5
C30
  8
DRG
 10
563.22696330634858
 20
356.86104235450239
 30
0.0
 42
0.3222541028477364
  0
VERTEX
  5
C31
  8
DRG
 10
556.31210432774401
 20
355.7316024946968
 30
0.0
  0
VERTEX
  5
C32
  8
DRG
 10
540.67670319044259
 20
340.09620135739527
 30
0.0
  0
SEQEND
  5
C33
  8
DRG
  0
POLYLINE
  5
153
  8
DRG
 66
     1
 10
0.0
 20
0.0
 30
0.0
  0
VERTEX
  5
C34
  8
DRG
 10
660.43479268756153
 20
459.85429085451449
 30
0.0
  0
VERTEX
  5
C35
  8
DRG
 10
644.79939155026045
 20
444.21888971721319
 30
0.0
 42
0.3222541028482087
  0
VERTEX
  5
C36
  8
DRG
 10
643.66995169045401
 20
437.30403073860811
 30
0.0
 42
-0.2349805983574491
  0
VERTEX
  5
C37
  8
DRG
 10
643.66995169045492
 20
383.85966490889712
 30
0.0
 42
0.3222541028477364
  0
VERTEX
  5
C38
  8
DRG
 10
644.79939155026045
 20
376.94480593029238
 30
0.0
  0
VERTEX
  5
C39
  8
DRG
 10
660.43479268756187
 20
361.3094047929909
 30
0.0
  0
SEQEND
  5
C3A
  8
DRG
  0
CIRCLE
  5
15B
  8
DRG
 10
589.94914622120439
 20
410.58184782375281
 30
0.0
 40
55.0
  0
CIRCLE
  5
15C
  8
DRG
 10
589.94914622120439
 20
410.58184782375281
 30
0.0
 40
35.0
  0
LINE
  5
15D
  8
DRG
 62
     1
 10
324.42271433812431
 20
340.09620135739527
 30
0.0
 11
324.42271433812442
 21
496.58184782375292
 31
0.0
  0
LINE
  5
15E
  8
DRG
 10
324.42271433812431
 20
361.30940479299102
 30
0.0
 11
303.42271433812442
 21
361.30940479299102
 31
0.0
  0
ARC
  5
15F
  8
DRG
 10
303.42271433812442
 20
357.30940479299102
 30
0.0
 40
4.0
 50
90.0
 51
180.0
  0
LINE
  5
160
  8
HID
 10
300.42271433812442
 20
472.49434782375198
 30
0.0
 11
300.42271433812442
 21
488.36934782375198
 31
0.0
  0
LINE
  5
161
  8
HID
 10
294.42271433812442
 20
473.6182978237519
 30
0.0
 11
294.42271433812442
 21
487.245397823752
 31
0.0
  0
LINE
  5
162
  8
HID
 10
294.42271433812442
 20
487.245397823752
 30
0.0
 11
291.80723754220878
 21
480.43184782375198
 31
0.0
  0
LINE
  5
163
  8
HID
 10
291.80723754220878
 20
480.43184782375198
 30
0.0
 11
294.42271433812442
 21
473.61829782375202
 31
0.0
  0
LINE
  5
164
  8
CRS
 10
289.09633260939438
 20
480.43184782375198
 30
0.0
 11
330.51320275317198
 21
480.43184782375198
 31
0.0
  0
LINE
  5
167
  8
DRG
 10
324.42271433812431
 20
340.09620135739527
 30
0.0
 11
299.42271433812448
 21
340.09620135739527
 31
0.0
  0
LINE
  5
168
  8
DRG2
 10
299.42271433812448
 20
334.79108288540658
 30
0.0
 11
306.42291433812437
 21
334.79108288540658
 31
0.0
  0
LINE
  5
169
  8
DRG2
 10
306.42291433812437
 20
334.79108288540658
 30
0.0
 11
307.42191433812462
 21
335.790682885406
 31
0.0
  0
LINE
  5
16A
  8
DRG2
 10
307.42191433812462
 20
335.790682885406
 30
0.0
 11
307.42191433812462
 21
340.09620135739527
 31
0.0
  0
POLYLINE
  5
16B
  8
DRG2
 66
     1
 10
0.0
 20
0.0
 30
0.0
  0
VERTEX
  5
C3B
  8
DRG2
 10
306.4229143381242
 20
334.79108288540658
 30
0.0
  0
VERTEX
  5
C3C
  8
DRG2
 10
306.42291433812437
 20
340.09620135739527
 30
0.0
  0
SEQEND
  5
C3D
  8
DRG2
  0
LINE
  5
16F
  8
HID
 10
293.67271433812442
 20
456.83184782375213
 30
0.0
 11
293.67271433812442
 21
445.38184782375203
 31
0.0
  0
LINE
  5
170
  8
HID
 10
306.17271433812442
 20
445.38184782375203
 30
0.0
 11
306.17271433812442
 21
456.83184782375213
 31
0.0
  0
LINE
  5
171
  8
HID
 10
293.67271433812442
 20
375.781847823752
 30
0.0
 11
268.67271433812442
 21
375.781847823752
 31
0.0
  0
LINE
  5
172
  8
HID
 10
293.67271433812442
 20
445.38184782375203
 30
0.0
 11
268.67271433812442
 21
445.38184782375203
 31
0.0
  0
LINE
  5
173
  8
HID
 10
246.52271433812459
 20
440.88184782375191
 30
0.0
 11
246.52271433812459
 21
384.58184782375201
 31
0.0
  0
LINE
  5
174
  8
HID
 10
246.52271433812459
 20
377.18184782375198
 30
0.0
 11
257.67271433812442
 21
377.18184782375198
 31
0.0
  0
LINE
  5
175
  8
HID
 10
257.67271433812442
 20
375.781847823752
 30
0.0
 11
247.02271433812459
 21
375.78184782375212
 31
0.0
  0
LINE
  5
176
  8
HID
 10
246.52271433812459
 20
376.28184782375212
 30
0.0
 11
246.52271433812459
 21
384.58184782375201
 31
0.0
  0
LINE
  5
177
  8
HID
 10
246.52271433812459
 20
376.28184782375212
 30
0.0
 11
247.02271433812459
 21
375.78184782375212
 31
0.0
  0
LINE
  5
178
  8
HID
 10
263.17271433812442
 20
375.58184782375201
 30
0.0
 11
261.67271433812442
 21
376.45184782375202
 31
0.0
  0
LINE
  5
179
  8
HID
 10
268.67271433812442
 20
375.781847823752
 30
0.0
 11
268.67271433812442
 21
375.58184782375201
 31
0.0
  0
LINE
  5
17A
  8
HID
 10
268.67271433812442
 20
375.58184782375201
 30
0.0
 11
263.17271433812442
 21
375.58184782375201
 31
0.0
  0
LINE
  5
17B
  8
HID
 10
261.67271433812442
 20
376.45184782375202
 30
0.0
 11
261.67271433812442
 21
377.58184782375201
 31
0.0
  0
LINE
  5
17C
  8
HID
 10
261.67271433812442
 20
377.58184782375201
 30
0.0
 11
257.67271433812442
 21
377.58184782375201
 31
0.0
  0
LINE
  5
17D
  8
HID
 10
257.67271433812442
 20
377.58184782375201
 30
0.0
 11
257.67271433812442
 21
375.781847823752
 31
0.0
  0
LINE
  5
17E
  8
HID
 10
246.52271433812459
 20
443.98184782375199
 30
0.0
 11
257.67271433812442
 21
443.98184782375199
 31
0.0
  0
LINE
  5
17F
  8
HID
 10
257.67271433812442
 20
445.38184782375203
 30
0.0
 11
247.02271433812459
 21
445.38184782375203
 31
0.0
  0
LINE
  5
180
  8
HID
 10
247.02271433812459
 20
445.38184782375203
 30
0.0
 11
246.52271433812459
 21
444.88184782375191
 31
0.0
  0
LINE
  5
181
  8
HID
 10
246.52271433812459
 20
444.88184782375191
 30
0.0
 11
246.52271433812459
 21
440.88184782375191
 31
0.0
  0
LINE
  5
182
  8
HID
 10
263.17271433812442
 20
445.58184782375201
 30
0.0
 11
261.67271433812442
 21
444.71184782375201
 31
0.0
  0
LINE
  5
183
  8
HID
 10
257.67271433812442
 20
443.58184782375201
 30
0.0
 11
257.67271433812442
 21
445.38184782375203
 31
0.0
  0
LINE
  5
184
  8
HID
 10
261.67271433812442
 20
443.58184782375201
 30
0.0
 11
257.67271433812442
 21
443.58184782375201
 31
0.0
  0
LINE
  5
185
  8
HID
 10
261.67271433812442
 20
444.71184782375201
 30
0.0
 11
261.67271433812442
 21
443.58184782375201
 31
0.0
  0
LINE
  5
186
  8
HID
 10
268.67271433812442
 20
445.58184782375201
 30
0.0
 11
263.17271433812442
 21
445.58184782375201
 31
0.0
  0
LINE
  5
187
  8
HID
 10
268.67271433812442
 20
445.38184782375203
 30
0.0
 11
268.67271433812442
 21
445.58184782375201
 31
0.0
  0
LINE
  5
188
  8
HID
 10
319.77271433812467
 20
440.88184782375208
 30
0.0
 11
319.77271433812467
 21
384.58184782375201
 31
0.0
  0
LINE
  5
189
  8
HID
 10
319.27271433812467
 20
375.58184782375201
 30
0.0
 11
312.67271433812431
 21
375.58184782375201
 31
0.0
  0
LINE
  5
18A
  8
HID
 10
305.67271433812448
 20
363.83184782375201
 30
0.0
 11
294.17271433812442
 21
363.83184782375201
 31
0.0
  0
LINE
  5
18B
  8
HID
 10
293.67271433812442
 20
364.33184782375201
 30
0.0
 11
293.67271433812442
 21
375.781847823752
 31
0.0
  0
LINE
  5
18C
  8
HID
 10
293.67271433812442
 20
364.33184782375201
 30
0.0
 11
294.17271433812442
 21
363.83184782375201
 31
0.0
  0
LINE
  5
18D
  8
HID
 10
312.67271433812431
 20
375.58184782375201
 30
0.0
 11
312.67271433812431
 21
375.781847823752
 31
0.0
  0
LINE
  5
18E
  8
HID
 10
306.17271433812442
 20
375.781847823752
 30
0.0
 11
306.17271433812442
 21
364.33184782375201
 31
0.0
  0
LINE
  5
18F
  8
HID
 10
306.17271433812442
 20
364.33184782375201
 30
0.0
 11
305.67271433812448
 21
363.83184782375201
 31
0.0
  0
LINE
  5
190
  8
HID
 10
312.67271433812431
 20
375.781847823752
 30
0.0
 11
306.17271433812442
 21
375.781847823752
 31
0.0
  0
LINE
  5
191
  8
HID
 10
319.27271433812467
 20
375.58184782375201
 30
0.0
 11
319.77271433812467
 21
376.08184782375201
 31
0.0
  0
LINE
  5
192
  8
HID
 10
319.77271433812422
 20
384.58184782375201
 30
0.0
 11
319.77271433812467
 21
376.08184782375201
 31
0.0
  0
LINE
  5
193
  8
HID
 10
319.27271433812467
 20
445.58184782375201
 30
0.0
 11
312.67271433812431
 21
445.58184782375201
 31
0.0
  0
LINE
  5
194
  8
HID
 10
312.67271433812431
 20
445.38184782375203
 30
0.0
 11
306.17271433812442
 21
445.38184782375203
 31
0.0
  0
LINE
  5
195
  8
HID
 10
312.67271433812431
 20
445.58184782375201
 30
0.0
 11
312.67271433812431
 21
445.38184782375203
 31
0.0
  0
LINE
  5
196
  8
HID
 10
319.27271433812467
 20
445.58184782375201
 30
0.0
 11
319.77271433812467
 21
445.08184782375201
 31
0.0
  0
LINE
  5
197
  8
HID
 10
319.77271433812467
 20
440.88184782375191
 30
0.0
 11
319.77271433812467
 21
445.08184782375201
 31
0.0
  0
LINE
  5
198
  8
HID
 10
305.67271433812448
 20
457.33184782375213
 30
0.0
 11
294.17271433812442
 21
457.33184782375213
 31
0.0
  0
LINE
  5
199
  8
HID
 10
294.17271433812442
 20
457.33184782375213
 30
0.0
 11
293.67271433812442
 21
456.83184782375213
 31
0.0
  0
LINE
  5
19A
  8
HID
 10
306.17271433812442
 20
456.83184782375213
 30
0.0
 11
305.67271433812448
 21
457.33184782375213
 31
0.0
  0
LINE
  5
19E
  8
DRG
 10
327.6977143381244
 20
458.20684782375213
 30
0.0
 11
324.42271433812431
 21
458.20684782375213
 31
0.0
  0
LINE
  5
19F
  8
DRG
 10
327.6977143381244
 20
362.95684782375201
 30
0.0
 11
324.42271433812431
 21
362.95684782375201
 31
0.0
  0
LINE
  5
1A0
  8
DRG
 62
     1
 10
328.29771433812431
 20
363.55684782375198
 30
0.0
 11
328.29771433812431
 21
457.60684782375199
 31
0.0
  0
LINE
  5
1A1
  8
DRG
 10
327.6977143381244
 20
458.20684782375213
 30
0.0
 11
328.29771433812431
 21
457.60684782375199
 31
0.0
  0
LINE
  5
1A2
  8
DRG
 10
327.6977143381244
 20
362.95684782375201
 30
0.0
 11
328.29771433812431
 21
363.55684782375198
 31
0.0
  0
LINE
  5
1A3
  8
DIM
 10
252.52271433812459
 20
424.69698033565112
 30
0.0
 11
313.77271433812467
 21
424.69698033565112
 31
0.0
  0
SOLID
  5
1A4
  8
DIM
 10
252.52271433812459
 20
425.69698033565101
 30
0.0
 11
252.52271433812459
 21
423.69698033565101
 31
0.0
 12
246.52271433812459
 22
424.69698033565112
 32
0.0
 13
246.52271433812459
 23
424.69698033565112
 33
0.0
  0
SOLID
  5
1A5
  8
DIM
 10
313.77271433812467
 20
425.69698033565101
 30
0.0
 11
313.77271433812467
 21
423.69698033565101
 31
0.0
 12
319.77271433812467
 22
424.69698033565112
 32
0.0
 13
319.77271433812467
 23
424.69698033565112
 33
0.0
  0
TEXT
  5
1A6
  8
DIM
 10
279.10009529050552
 20
427.19698033565101
 30
0.0
 40
5.0
  1
73
 72
     1
 11
283.14771433812462
 21
429.69698033565101
 31
0.0
 73
     2
  0
LINE
  5
1A7
  8
DIM
 10
324.42271433812431
 20
333.86094929182951
 30
0.0
 11
324.42271433812431
 21
242.630008056468
 31
0.0
  0
LINE
  5
1A8
  8
DIM
 10
328.29771433812431
 20
359.85059884348323
 30
0.0
 11
328.29771433812431
 21
304.72031789757409
 31
0.0
  0
LINE
  5
1A9
  8
DIM
 10
334.29771433812431
 20
244.630008056468
 30
0.0
 11
340.29771433812431
 21
244.630008056468
 31
0.0
  0
LINE
  5
1AA
  8
DIM
 10
340.29771433812431
 20
244.630008056468
 30
0.0
 11
360.81868332997448
 21
244.630008056468
 31
0.0
  0
SOLID
  5
1AB
  8
DIM
 10
334.29771433812431
 20
245.63000805646789
 30
0.0
 11
334.29771433812431
 21
243.63000805646789
 31
0.0
 12
328.29771433812431
 22
244.630008056468
 32
0.0
 13
328.29771433812431
 23
244.630008056468
 33
0.0
  0
TEXT
  5
1AC
  8
DIM
 10
347.2967032350175
 20
247.130008056468
 30
0.0
 40
5.0
  1
4
 72
     1
 11
349.08241752073172
 21
249.630008056468
 31
0.0
 73
     2
  0
LINE
  5
1AD
  8
DIM
 10
331.28477643276318
 20
362.95684782375201
 30
0.0
 11
365.80027122530578
 21
362.95684782375201
 31
0.0
  0
LINE
  5
1AE
  8
DIM
 10
331.28477643276318
 20
458.20684782375213
 30
0.0
 11
365.80027122530578
 21
458.20684782375213
 31
0.0
  0
LINE
  5
1AF
  8
DIM
 10
363.80027122530578
 20
366.61934782375278
 30
0.0
 11
363.80027122530578
 21
452.20684782375201
 31
0.0
  0
SOLID
  5
1B0
  8
DIM
 10
362.80027122530589
 20
368.95684782375201
 30
0.0
 11
364.80027122530589
 21
368.95684782375201
 31
0.0
 12
363.80027122530578
 22
362.95684782375201
 32
0.0
 13
363.80027122530578
 23
362.95684782375201
 33
0.0
  0
SOLID
  5
1B1
  8
DIM
 10
362.80027122530589
 20
452.20684782375201
 30
0.0
 11
364.80027122530589
 21
452.20684782375201
 31
0.0
 12
363.80027122530578
 22
458.20684782375213
 32
0.0
 13
363.80027122530578
 23
458.20684782375213
 33
0.0
  0
TEXT
  5
1B2
  8
DIM
 10
361.30027122530589
 20
381.17708591899088
 30
0.0
 40
5.0
  1
SEE TABLE FOR
 50
90.0
 72
     4
 11
358.80027122530589
 21
410.58184782375281
 31
0.0
  0
TEXT
  5
1B3
  8
DIM
 10
371.11753712268171
 20
390.57596519555949
 30
0.0
 40
5.0
  1
SPIGOT DIA.
 50
90.0
 72
     4
 11
368.61753712268171
 21
412.24263186222618
 31
0.0
  0
LINE
  5
1B4
  8
DIM
 10
246.52271433812459
 20
372.18184782375198
 30
0.0
 11
246.52271433812459
 21
273.87220974212238
 31
0.0
  0
LINE
  5
1B5
  8
DIM
 10
252.52271433812459
 20
275.87220974212238
 30
0.0
 11
318.42271433812431
 21
275.87220974212238
 31
0.0
  0
SOLID
  5
1B6
  8
DIM
 10
252.52271433812459
 20
276.87220974212238
 30
0.0
 11
252.52271433812459
 21
274.87220974212249
 31
0.0
 12
246.52271433812459
 22
275.87220974212238
 32
0.0
 13
246.52271433812459
 23
275.87220974212238
 33
0.0
  0
SOLID
  5
1B7
  8
DIM
 10
318.42271433812431
 20
276.87220974212238
 30
0.0
 11
318.42271433812431
 21
274.87220974212249
 31
0.0
 12
324.42271433812431
 22
275.87220974212238
 32
0.0
 13
324.42271433812431
 23
275.87220974212238
 33
0.0
  0
TEXT
  5
1B8
  8
DIM
 10
281.42509529050528
 20
278.37220974212238
 30
0.0
 40
5.0
  1
78
 72
     1
 11
285.47271433812438
 21
280.87220974212238
 31
0.0
 73
     2
  0
POLYLINE
  5
1C2
  8
DRG2
 66
     1
 10
0.0
 20
0.0
 30
0.0
  0
VERTEX
  5
C3E
  8
DRG2
 10
198.8977143381245
 20
608.20495383604657
 30
0.0
  0
VERTEX
  5
C3F
  8
DRG2
 10
197.3977143381245
 20
606.70495383604646
 30
0.0
  0
VERTEX
  5
C40
  8
DRG2
 10
197.3977143381245
 20
593.70495383604646
 30
0.0
  0
VERTEX
  5
C41
  8
DRG2
 10
198.8977143381245
 20
592.20495383604646
 30
0.0
  0
SEQEND
  5
C42
  8
DRG2
  0
LINE
  5
1C8
  8
CRS
 10
209.16869492691919
 20
600.20495383604646
 30
0.0
 11
195.38841363815729
 21
600.20495383604646
 31
0.0
  0
POLYLINE
  5
1D7
  8
DRG2
 66
     1
 10
0.0
 20
0.0
 30
0.0
  0
VERTEX
  5
C43
  8
DRG2
 10
198.8977143381245
 20
533.95874181145905
 30
0.0
  0
VERTEX
  5
C44
  8
DRG2
 10
197.3977143381245
 20
532.45874181145905
 30
0.0
  0
VERTEX
  5
C45
  8
DRG2
 10
197.3977143381245
 20
519.45874181145916
 30
0.0
  0
VERTEX
  5
C46
  8
DRG2
 10
198.8977143381245
 20
517.95874181145905
 30
0.0
  0
SEQEND
  5
C47
  8
DRG2
  0
LINE
  5
1DD
  8
CRS
 10
209.16869492691919
 20
525.95874181145905
 30
0.0
 11
195.38841363815729
 21
525.95874181145905
 31
0.0
  0
LINE
  5
1DE
  8
DRG2
 10
207.39771433812459
 20
592.20495383604646
 30
0.0
 11
198.8977143381245
 21
592.20495383604646
 31
0.0
  0
LINE
  5
1DF
  8
DRG2
 10
198.8977143381245
 20
592.20495383604646
 30
0.0
 11
198.8977143381245
 21
608.20495383604657
 31
0.0
  0
LINE
  5
1E0
  8
DRG2
 10
198.8977143381245
 20
608.20495383604657
 30
0.0
 11
207.39771433812459
 21
608.20495383604657
 31
0.0
  0
LINE
  5
1E7
  8
DRG2
 10
207.39771433812459
 20
517.95874181145905
 30
0.0
 11
198.8977143381245
 21
517.95874181145905
 31
0.0
  0
LINE
  5
1E8
  8
DRG2
 10
198.8977143381245
 20
517.95874181145905
 30
0.0
 11
198.8977143381245
 21
533.95874181145905
 31
0.0
  0
LINE
  5
1E9
  8
DRG2
 10
198.8977143381245
 20
533.95874181145905
 30
0.0
 11
207.39771433812459
 21
533.95874181145905
 31
0.0
  0
CIRCLE
  5
21A
  8
DRG2
 10
561.24788879382265
 20
479.87281276209961
 30
0.0
 40
6.4999998000000003
  0
CIRCLE
  5
21B
  8
DRG2
 10
561.24788879382265
 20
479.87281276209939
 30
0.0
 40
5.9867932928637497
  0
POLYLINE
  5
21C
  8
DRG2
 66
     1
 10
0.0
 20
0.0
 30
0.0
 70
     1
  0
VERTEX
  5
C48
  8
DRG2
 10
559.51583798625404
 20
482.8728127620995
 30
0.0
  0
VERTEX
  5
C49
  8
DRG2
 10
557.78378717868486
 20
479.87281276209961
 30
0.0
  0
VERTEX
  5
C4A
  8
DRG2
 10
559.51583798625404
 20
476.8728127620995
 30
0.0
  0
VERTEX
  5
C4B
  8
DRG2
 10
562.97993960139161
 20
476.8728127620995
 30
0.0
  0
VERTEX
  5
C4C
  8
DRG2
 10
564.71199040896067
 20
479.87281276209961
 30
0.0
  0
VERTEX
  5
C4D
  8
DRG2
 10
562.97993960139161
 20
482.8728127620995
 30
0.0
  0
SEQEND
  5
C4E
  8
DRG2
  0
POLYLINE
  5
224
  8
CRS
 66
     1
 10
0.0
 20
0.0
 30
0.0
  0
VERTEX
  5
C4F
  8
CRS
 10
561.24788879382265
 20
487.31652290461938
 30
0.0
  0
VERTEX
  5
C50
  8
CRS
 10
561.24788879382265
 20
479.87281276209939
 30
0.0
  0
VERTEX
  5
C51
  8
CRS
 10
561.24788879382265
 20
472.57463950418202
 30
0.0
  0
SEQEND
  5
C52
  8
CRS
  0
POLYLINE
  5
229
  8
CRS
 66
     1
 10
0.0
 20
0.0
 30
0.0
  0
VERTEX
  5
C53
  8
CRS
 10
568.28619602444519
 20
479.87281276209939
 30
0.0
  0
VERTEX
  5
C54
  8
CRS
 10
561.24788879382265
 20
479.87281276209939
 30
0.0
  0
VERTEX
  5
C55
  8
CRS
 10
553.81124237555628
 20
479.87281276209939
 30
0.0
  0
SEQEND
  5
C56
  8
CRS
  0
CIRCLE
  5
22E
  8
DRG2
 10
618.65040364858612
 20
479.87281276209961
 30
0.0
 40
6.4999998000000003
  0
CIRCLE
  5
22F
  8
DRG2
 10
618.65040364858612
 20
479.87281276209939
 30
0.0
 40
5.9867932928637497
  0
POLYLINE
  5
230
  8
DRG2
 66
     1
 10
0.0
 20
0.0
 30
0.0
 70
     1
  0
VERTEX
  5
C57
  8
DRG2
 10
616.91835284101751
 20
482.8728127620995
 30
0.0
  0
VERTEX
  5
C58
  8
DRG2
 10
615.18630203344844
 20
479.87281276209961
 30
0.0
  0
VERTEX
  5
C59
  8
DRG2
 10
616.91835284101751
 20
476.8728127620995
 30
0.0
  0
VERTEX
  5
C5A
  8
DRG2
 10
620.38245445615519
 20
476.8728127620995
 30
0.0
  0
VERTEX
  5
C5B
  8
DRG2
 10
622.1145052637238
 20
479.87281276209961
 30
0.0
  0
VERTEX
  5
C5C
  8
DRG2
 10
620.38245445615519
 20
482.8728127620995
 30
0.0
  0
SEQEND
  5
C5D
  8
DRG2
  0
POLYLINE
  5
238
  8
CRS
 66
     1
 10
0.0
 20
0.0
 30
0.0
  0
VERTEX
  5
C5E
  8
CRS
 10
618.65040364858612
 20
487.31652290461938
 30
0.0
  0
VERTEX
  5
C5F
  8
CRS
 10
618.65040364858612
 20
479.87281276209939
 30
0.0
  0
VERTEX
  5
C60
  8
CRS
 10
618.65040364858612
 20
472.57463950418202
 30
0.0
  0
SEQEND
  5
C61
  8
CRS
  0
POLYLINE
  5
23D
  8
CRS
 66
     1
 10
0.0
 20
0.0
 30
0.0
  0
VERTEX
  5
C62
  8
CRS
 10
625.68871087920832
 20
479.87281276209939
 30
0.0
  0
VERTEX
  5
C63
  8
CRS
 10
618.65040364858612
 20
479.87281276209939
 30
0.0
  0
VERTEX
  5
C64
  8
CRS
 10
611.21375723031929
 20
479.87281276209939
 30
0.0
  0
SEQEND
  5
C65
  8
CRS
  0
CIRCLE
  5
242
  8
DRG2
 10
659.24011115955125
 20
439.2831052511346
 30
0.0
 40
6.4999998000000003
  0
CIRCLE
  5
243
  8
DRG2
 10
659.24011115955068
 20
439.28310525113437
 30
0.0
 40
5.9867932928637497
  0
POLYLINE
  5
244
  8
DRG2
 66
     1
 10
0.0
 20
0.0
 30
0.0
 70
     1
  0
VERTEX
  5
C66
  8
DRG2
 10
657.50806035198218
 20
442.28310525113449
 30
0.0
  0
VERTEX
  5
C67
  8
DRG2
 10
655.776009544413
 20
439.2831052511346
 30
0.0
  0
VERTEX
  5
C68
  8
DRG2
 10
657.50806035198218
 20
436.2831052511346
 30
0.0
  0
VERTEX
  5
C69
  8
DRG2
 10
660.97216196711975
 20
436.2831052511346
 30
0.0
  0
VERTEX
  5
C6A
  8
DRG2
 10
662.70421277468893
 20
439.2831052511346
 30
0.0
  0
VERTEX
  5
C6B
  8
DRG2
 10
660.97216196711975
 20
442.28310525113449
 30
0.0
  0
SEQEND
  5
C6C
  8
DRG2
  0
POLYLINE
  5
24C
  8
CRS
 66
     1
 10
0.0
 20
0.0
 30
0.0
  0
VERTEX
  5
C6D
  8
CRS
 10
659.24011115955125
 20
446.72681539365448
 30
0.0
  0
VERTEX
  5
C6E
  8
CRS
 10
659.24011115955068
 20
439.28310525113437
 30
0.0
  0
VERTEX
  5
C6F
  8
CRS
 10
659.24011115955068
 20
431.98493199321712
 30
0.0
  0
SEQEND
  5
C70
  8
CRS
  0
POLYLINE
  5
251
  8
CRS
 66
     1
 10
0.0
 20
0.0
 30
0.0
  0
VERTEX
  5
C71
  8
CRS
 10
666.27841839017344
 20
439.28310525113437
 30
0.0
  0
VERTEX
  5
C72
  8
CRS
 10
659.24011115955125
 20
439.28310525113437
 30
0.0
  0
VERTEX
  5
C73
  8
CRS
 10
651.80346474128453
 20
439.28310525113437
 30
0.0
  0
SEQEND
  5
C74
  8
CRS
  0
CIRCLE
  5
256
  8
DRG2
 10
659.24011115955125
 20
381.8805903963713
 30
0.0
 40
6.4999998000000003
  0
CIRCLE
  5
257
  8
DRG2
 10
659.24011115955068
 20
381.88059039637108
 30
0.0
 40
5.9867932928637497
  0
POLYLINE
  5
258
  8
DRG2
 66
     1
 10
0.0
 20
0.0
 30
0.0
 70
     1
  0
VERTEX
  5
C75
  8
DRG2
 10
657.50806035198218
 20
384.8805903963713
 30
0.0
  0
VERTEX
  5
C76
  8
DRG2
 10
655.776009544413
 20
381.8805903963713
 30
0.0
  0
VERTEX
  5
C77
  8
DRG2
 10
657.50806035198218
 20
378.8805903963713
 30
0.0
  0
VERTEX
  5
C78
  8
DRG2
 10
660.97216196711975
 20
378.8805903963713
 30
0.0
  0
VERTEX
  5
C79
  8
DRG2
 10
662.70421277468893
 20
381.8805903963713
 30
0.0
  0
VERTEX
  5
C7A
  8
DRG2
 10
660.97216196711975
 20
384.8805903963713
 30
0.0
  0
SEQEND
  5
C7B
  8
DRG2
  0
POLYLINE
  5
260
  8
CRS
 66
     1
 10
0.0
 20
0.0
 30
0.0
  0
VERTEX
  5
C7C
  8
CRS
 10
659.24011115955125
 20
389.32430053889118
 30
0.0
  0
VERTEX
  5
C7D
  8
CRS
 10
659.24011115955068
 20
381.88059039637119
 30
0.0
  0
VERTEX
  5
C7E
  8
CRS
 10
659.24011115955068
 20
374.58241713845382
 30
0.0
  0
SEQEND
  5
C7F
  8
CRS
  0
POLYLINE
  5
265
  8
CRS
 66
     1
 10
0.0
 20
0.0
 30
0.0
  0
VERTEX
  5
C80
  8
CRS
 10
666.27841839017344
 20
381.88059039637119
 30
0.0
  0
VERTEX
  5
C81
  8
CRS
 10
659.24011115955125
 20
381.88059039637119
 30
0.0
  0
VERTEX
  5
C82
  8
CRS
 10
651.80346474128453
 20
381.88059039637119
 30
0.0
  0
SEQEND
  5
C83
  8
CRS
  0
CIRCLE
  5
26A
  8
DRG2
 10
618.65040364858612
 20
341.2908828854064
 30
0.0
 40
6.4999998000000003
  0
CIRCLE
  5
26B
  8
DRG2
 10
618.65040364858612
 20
341.29088288540629
 30
0.0
 40
5.9867932928637497
  0
POLYLINE
  5
26C
  8
DRG2
 66
     1
 10
0.0
 20
0.0
 30
0.0
 70
     1
  0
VERTEX
  5
C84
  8
DRG2
 10
616.91835284101751
 20
344.2908828854064
 30
0.0
  0
VERTEX
  5
C85
  8
DRG2
 10
615.18630203344844
 20
341.2908828854064
 30
0.0
  0
VERTEX
  5
C86
  8
DRG2
 10
616.91835284101751
 20
338.2908828854064
 30
0.0
  0
VERTEX
  5
C87
  8
DRG2
 10
620.38245445615519
 20
338.2908828854064
 30
0.0
  0
VERTEX
  5
C88
  8
DRG2
 10
622.1145052637238
 20
341.2908828854064
 30
0.0
  0
VERTEX
  5
C89
  8
DRG2
 10
620.38245445615519
 20
344.2908828854064
 30
0.0
  0
SEQEND
  5
C8A
  8
DRG2
  0
POLYLINE
  5
274
  8
CRS
 66
     1
 10
0.0
 20
0.0
 30
0.0
  0
VERTEX
  5
C8B
  8
CRS
 10
618.65040364858612
 20
348.73459302792628
 30
0.0
  0
VERTEX
  5
C8C
  8
CRS
 10
618.65040364858612
 20
341.29088288540629
 30
0.0
  0
VERTEX
  5
C8D
  8
CRS
 10
618.65040364858612
 20
333.99270962748892
 30
0.0
  0
SEQEND
  5
C8E
  8
CRS
  0
POLYLINE
  5
279
  8
CRS
 66
     1
 10
0.0
 20
0.0
 30
0.0
  0
VERTEX
  5
C8F
  8
CRS
 10
625.68871087920832
 20
341.29088288540629
 30
0.0
  0
VERTEX
  5
C90
  8
CRS
 10
618.65040364858612
 20
341.29088288540629
 30
0.0
  0
VERTEX
  5
C91
  8
CRS
 10
611.21375723031929
 20
341.29088288540629
 30
0.0
  0
SEQEND
  5
C92
  8
CRS
  0
CIRCLE
  5
27E
  8
DRG2
 10
561.24788879382265
 20
341.2908828854064
 30
0.0
 40
6.4999998000000003
  0
CIRCLE
  5
27F
  8
DRG2
 10
561.24788879382265
 20
341.29088288540618
 30
0.0
 40
5.9867932928637497
  0
POLYLINE
  5
280
  8
DRG2
 66
     1
 10
0.0
 20
0.0
 30
0.0
 70
     1
  0
VERTEX
  5
C93
  8
DRG2
 10
559.51583798625404
 20
344.2908828854064
 30
0.0
  0
VERTEX
  5
C94
  8
DRG2
 10
557.78378717868486
 20
341.2908828854064
 30
0.0
  0
VERTEX
  5
C95
  8
DRG2
 10
559.51583798625404
 20
338.2908828854064
 30
0.0
  0
VERTEX
  5
C96
  8
DRG2
 10
562.97993960139161
 20
338.2908828854064
 30
0.0
  0
VERTEX
  5
C97
  8
DRG2
 10
564.71199040896067
 20
341.2908828854064
 30
0.0
  0
VERTEX
  5
C98
  8
DRG2
 10
562.97993960139161
 20
344.2908828854064
 30
0.0
  0
SEQEND
  5
C99
  8
DRG2
  0
POLYLINE
  5
288
  8
CRS
 66
     1
 10
0.0
 20
0.0
 30
0.0
  0
VERTEX
  5
C9A
  8
CRS
 10
561.24788879382265
 20
348.73459302792628
 30
0.0
  0
VERTEX
  5
C9B
  8
CRS
 10
561.24788879382265
 20
341.29088288540629
 30
0.0
  0
VERTEX
  5
C9C
  8
CRS
 10
561.24788879382265
 20
333.99270962748892
 30
0.0
  0
SEQEND
  5
C9D
  8
CRS
  0
POLYLINE
  5
28D
  8
CRS
 66
     1
 10
0.0
 20
0.0
 30
0.0
  0
VERTEX
  5
C9E
  8
CRS
 10
568.28619602444519
 20
341.29088288540629
 30
0.0
  0
VERTEX
  5
C9F
  8
CRS
 10
561.24788879382265
 20
341.29088288540629
 30
0.0
  0
VERTEX
  5
CA0
  8
CRS
 10
553.81124237555628
 20
341.29088288540629
 30
0.0
  0
SEQEND
  5
CA1
  8
CRS
  0
CIRCLE
  5
292
  8
DRG2
 10
520.65818128285798
 20
381.88059039637119
 30
0.0
 40
6.4999998000000003
  0
CIRCLE
  5
293
  8
DRG2
 10
520.65818128285798
 20
381.88059039637108
 30
0.0
 40
5.9867932928637497
  0
POLYLINE
  5
294
  8
DRG2
 66
     1
 10
0.0
 20
0.0
 30
0.0
 70
     1
  0
VERTEX
  5
CA2
  8
DRG2
 10
518.9261304752888
 20
384.88059039637119
 30
0.0
  0
VERTEX
  5
CA3
  8
DRG2
 10
517.1940796677203
 20
381.88059039637119
 30
0.0
  0
VERTEX
  5
CA4
  8
DRG2
 10
518.9261304752888
 20
378.88059039637119
 30
0.0
  0
VERTEX
  5
CA5
  8
DRG2
 10
522.39023209042648
 20
378.88059039637119
 30
0.0
  0
VERTEX
  5
CA6
  8
DRG2
 10
524.12228289799555
 20
381.88059039637119
 30
0.0
  0
VERTEX
  5
CA7
  8
DRG2
 10
522.39023209042648
 20
384.88059039637119
 30
0.0
  0
SEQEND
  5
CA8
  8
DRG2
  0
POLYLINE
  5
29C
  8
CRS
 66
     1
 10
0.0
 20
0.0
 30
0.0
  0
VERTEX
  5
CA9
  8
CRS
 10
520.65818128285798
 20
389.32430053889112
 30
0.0
  0
VERTEX
  5
CAA
  8
CRS
 10
520.65818128285798
 20
381.88059039637108
 30
0.0
  0
VERTEX
  5
CAB
  8
CRS
 10
520.65818128285798
 20
374.58241713845371
 30
0.0
  0
SEQEND
  5
CAC
  8
CRS
  0
POLYLINE
  5
2A1
  8
CRS
 66
     1
 10
0.0
 20
0.0
 30
0.0
  0
VERTEX
  5
CAD
  8
CRS
 10
527.69648851348006
 20
381.88059039637108
 30
0.0
  0
VERTEX
  5
CAE
  8
CRS
 10
520.65818128285798
 20
381.88059039637108
 30
0.0
  0
VERTEX
  5
CAF
  8
CRS
 10
513.22153486459115
 20
381.88059039637108
 30
0.0
  0
SEQEND
  5
CB0
  8
CRS
  0
CIRCLE
  5
2A6
  8
DRG2
 10
520.65818128285798
 20
439.28310525113471
 30
0.0
 40
6.4999998000000003
  0
CIRCLE
  5
2A7
  8
DRG2
 10
520.65818128285798
 20
439.28310525113437
 30
0.0
 40
5.9867932928637497
  0
POLYLINE
  5
2A8
  8
DRG2
 66
     1
 10
0.0
 20
0.0
 30
0.0
 70
     1
  0
VERTEX
  5
CB1
  8
DRG2
 10
518.9261304752888
 20
442.28310525113471
 30
0.0
  0
VERTEX
  5
CB2
  8
DRG2
 10
517.1940796677203
 20
439.28310525113471
 30
0.0
  0
VERTEX
  5
CB3
  8
DRG2
 10
518.9261304752888
 20
436.28310525113471
 30
0.0
  0
VERTEX
  5
CB4
  8
DRG2
 10
522.39023209042648
 20
436.28310525113471
 30
0.0
  0
VERTEX
  5
CB5
  8
DRG2
 10
524.12228289799555
 20
439.28310525113471
 30
0.0
  0
VERTEX
  5
CB6
  8
DRG2
 10
522.39023209042648
 20
442.28310525113471
 30
0.0
  0
SEQEND
  5
CB7
  8
DRG2
  0
POLYLINE
  5
2B0
  8
CRS
 66
     1
 10
0.0
 20
0.0
 30
0.0
  0
VERTEX
  5
CB8
  8
CRS
 10
520.65818128285798
 20
446.72681539365459
 30
0.0
  0
VERTEX
  5
CB9
  8
CRS
 10
520.65818128285798
 20
439.2831052511346
 30
0.0
  0
VERTEX
  5
CBA
  8
CRS
 10
520.65818128285798
 20
431.98493199321717
 30
0.0
  0
SEQEND
  5
CBB
  8
CRS
  0
POLYLINE
  5
2B5
  8
CRS
 66
     1
 10
0.0
 20
0.0
 30
0.0
  0
VERTEX
  5
CBC
  8
CRS
 10
527.69648851348006
 20
439.2831052511346
 30
0.0
  0
VERTEX
  5
CBD
  8
CRS
 10
520.65818128285798
 20
439.2831052511346
 30
0.0
  0
VERTEX
  5
CBE
  8
CRS
 10
513.22153486459115
 20
439.2831052511346
 30
0.0
  0
SEQEND
  5
CBF
  8
CRS
  0
LINE
  5
2BB
  8
CRS
 10
425.40296958047202
 20
563.08184782375201
 30
0.0
 11
84.187693865396554
 21
563.08184782375201
 31
0.0
  0
LINE
  5
2BC
  8
DRG
 62
     1
 10
201.3977143381245
 20
592.20495383604646
 30
0.0
 11
201.3977143381245
 21
533.95874181145905
 31
0.0
  0
LINE
  5
2BD
  8
DIM
 10
162.17501787468009
 20
373.031847823752
 30
0.0
 11
115.8291235746842
 21
373.031847823752
 31
0.0
  0
LINE
  5
2C7
  8
DIM
 10
307.42191433812462
 20
295.98653886080098
 30
0.0
 11
307.42191433812462
 21
332.97359850918701
 31
0.0
  0
TEXT
  5
2C8
  8
DIM
 10
282.78937220899309
 20
301.86304262928292
 30
0.0
 40
5.0
  1
17
 72
     4
 11
286.3608007804217
 21
304.36304262928292
 31
0.0
  0
LINE
  5
2C9
  8
DIM
 10
278.1393789227975
 20
299.36304262928292
 30
0.0
 11
273.54414082755937
 21
299.36304262928292
 31
0.0
  0
SOLID
  5
2CA
  8
DIM
 10
301.42191433812468
 20
300.36304262928292
 30
0.0
 11
301.42191433812468
 21
298.36304262928292
 31
0.0
 12
307.42191433812462
 22
299.36304262928292
 32
0.0
 13
307.42191433812462
 23
299.36304262928292
 33
0.0
  0
LINE
  5
2CB
  8
DIM
 10
301.42191433812468
 20
299.36304262928292
 30
0.0
 11
278.1393789227975
 21
299.36304262928292
 31
0.0
  0
LINE
  5
2CC
  8
DIM
 10
330.42271433812431
 20
299.36304262928292
 30
0.0
 11
336.42271433812431
 21
299.36304262928292
 31
0.0
  0
SOLID
  5
2CD
  8
DIM
 10
330.42271433812431
 20
300.36304262928292
 30
0.0
 11
330.42271433812431
 21
298.36304262928292
 31
0.0
 12
324.42271433812431
 22
299.36304262928292
 32
0.0
 13
324.42271433812431
 23
299.36304262928292
 33
0.0
  0
LINE
  5
2CE
  8
DIM
 10
328.29771433812431
 20
294.83712768423078
 30
0.0
 11
328.29771433812431
 21
242.630008056468
 31
0.0
  0
TEXT
  5
2CF
  8
DIM
 10
727.71396789436994
 20
474.21280020470527
 30
0.0
 40
5.0
  1
(6.00")
 50
90.0
 72
     4
 11
725.57111075151295
 21
486.83184782375292
 31
0.0
  0
TEXT
  5
2D0
  8
DIM
 10
727.71396789436994
 20
579.46280020470533
 30
0.0
 40
5.0
  1
(2.28")
 50
90.0
 72
     4
 11
725.57111075151295
 21
592.08184782375292
 31
0.0
  0
TEXT
  5
2D1
  8
DIM
 10
575.06819384025198
 20
275.80429852647802
 30
0.0
 40
5.0
  1
(%%c6.77")
 72
     4
 11
589.94914622120439
 21
277.94715566933507
 31
0.0
  0
LINE
  5
2D2
  8
HID
 10
300.42271433812442
 20
488.36934782375198
 30
0.0
 11
324.42271433812431
 21
488.36934782375198
 31
0.0
  0
LINE
  5
2D3
  8
HID
 10
300.42271433812442
 20
472.49434782375198
 30
0.0
 11
324.42271433812431
 21
472.49434782375198
 31
0.0
  0
LINE
  5
2D4
  8
HID
 10
294.42271433812442
 20
487.245397823752
 30
0.0
 11
324.42271433812431
 21
487.245397823752
 31
0.0
  0
LINE
  5
2D5
  8
HID
 10
294.42271433812442
 20
473.6182978237519
 30
0.0
 11
324.42271433812431
 21
473.6182978237519
 31
0.0
  0
LINE
  5
2D6
  8
CRS
 10
528.99196988457629
 20
459.97325648963368
 30
0.0
 11
552.12350522607233
 21
459.97325648963368
 31
0.0
  0
LINE
  5
2D7
  8
CRS
 10
540.55773755532425
 20
471.53902416038147
 30
0.0
 11
540.55773755532425
 21
448.40748881888533
 31
0.0
  0
LINE
  5
2D8
  8
CRS
 10
540.55773755532346
 20
349.62467148712489
 30
0.0
 11
540.55773755532346
 21
372.7562068286208
 31
0.0
  0
LINE
  5
2D9
  8
CRS
 10
528.99196988457572
 20
361.19043915787279
 30
0.0
 11
552.12350522607187
 21
361.19043915787279
 31
0.0
  0
LINE
  5
2DA
  8
CRS
 10
650.90632255783225
 20
361.19043915787199
 30
0.0
 11
627.77478721633634
 21
361.19043915787199
 31
0.0
  0
LINE
  5
2DB
  8
CRS
 10
639.34055488708441
 20
349.62467148712409
 30
0.0
 11
639.34055488708441
 21
372.75620682862029
 31
0.0
  0
ARC
  5
2DC
  8
DRG2
 10
639.3405548870852
 20
459.97325648963289
 30
0.0
 40
7.9375
 50
66.392956157176286
 51
22.584439655679201
  0
CIRCLE
  5
2DD
  8
DRG2
 10
639.3405548870852
 20
459.97325648963289
 30
0.0
 40
6.8135500000000002
  0
ARC
  5
2DE
  8
DRG2
 10
540.55773755532425
 20
459.97325648963368
 30
0.0
 40
7.9375
 50
66.392956157176286
 51
22.584439655679201
  0
CIRCLE
  5
2DF
  8
DRG2
 10
540.55773755532425
 20
459.97325648963368
 30
0.0
 40
6.8135500000000002
  0
ARC
  5
2E0
  8
DRG2
 10
540.55773755532346
 20
361.19043915787279
 30
0.0
 40
7.9375
 50
66.392956157176286
 51
22.584439655679201
  0
CIRCLE
  5
2E1
  8
DRG2
 10
540.55773755532346
 20
361.19043915787279
 30
0.0
 40
6.8135500000000002
  0
ARC
  5
2E2
  8
DRG2
 10
639.34055488708441
 20
361.19043915787199
 30
0.0
 40
7.9375
 50
66.392956157176286
 51
22.584439655679201
  0
CIRCLE
  5
2E3
  8
DRG2
 10
639.34055488708441
 20
361.19043915787199
 30
0.0
 40
6.8135500000000002
  0
TEXT
  5
2E4
  8
DIM
 10
261.984764200136
 20
237.4871509136108
 30
0.0
 40
5.0
  1
(4.29")
 72
     4
 11
274.60381181918359
 21
239.63000805646789
 31
0.0
  0
TEXT
  5
2E5
  8
DIM
 10
336.93956037787461
 20
237.4871509136108
 30
0.0
 40
5.0
  1
(0.15")
 72
     4
 11
349.08241752073172
 21
239.63000805646789
 31
0.0
  0
TEXT
  5
2E6
  8
DIM
 10
272.85366671907678
 20
268.72935259926521
 30
0.0
 40
5.0
  1
(3.07")
 72
     4
 11
285.47271433812438
 21
270.87220974212238
 31
0.0
  0
TEXT
  5
2E7
  8
DIM
 10
273.74175316137411
 20
292.22018548642581
 30
0.0
 40
5.0
  1
(0.67")
 72
     4
 11
286.3608007804217
 21
294.36304262928292
 31
0.0
  0
TEXT
  5
2E8
  8
DIM
 10
270.52866671907702
 20
417.5541231927939
 30
0.0
 40
5.0
  1
(2.88")
 72
     4
 11
283.14771433812462
 21
419.69698033565101
 31
0.0
  0
TEXT
  5
2EA
  8
DIM
 10
142.2911667190769
 20
700.56202472305358
 30
0.0
 40
5.0
  1
(4.76")
 72
     4
 11
154.91021433812449
 21
702.70488186591069
 31
0.0
  0
TEXT
  5
2ED
  8
DIM
 10
173.76101317741831
 20
645.77639420188848
 30
0.0
 40
5.0
  1
(0.32")
 72
     4
 11
186.3800607964659
 21
647.91925134474559
 31
0.0
  0
TEXT
  5
2EE
  8
DIM
 10
61.683312430931522
 20
645.77639420188848
 30
0.0
 40
5.0
  1
(0.20")
 72
     4
 11
74.302360049979143
 21
647.91925134474559
 31
0.0
  0
TEXT
  5
2EF
  8
DIM
 10
154.043103317874
 20
628.98071247495784
 30
0.0
 40
5.0
  1
8x7x40
 72
     4
 11
166.90024617501689
 21
631.48071247495784
 31
0.0
  0
TEXT
  5
2F0
  8
DIM
 10
130.94786522263601
 20
620.76642676067206
 30
0.0
 40
5.0
  1
(0.31"x0.28"x1.57")
 72
     4
 11
166.90024617501689
 21
622.90928390352929
 31
0.0
  0
TEXT
  5
2F1
  8
DIM
 10
160.2335795083502
 20
611.83785533210073
 30
0.0
 40
5.0
  1
KEY
 72
     4
 11
166.90024617501689
 21
614.33785533210073
 31
0.0
  0
LINE
  5
2F2
  8
DIM
 10
129.48696023261019
 20
622.90928390352929
 30
0.0
 11
123.7877949300963
 21
622.90928390352929
 31
0.0
  0
CIRCLE
  5
2F3
  8
DRG
 10
589.94914622120439
 20
410.58184782375281
 30
0.0
 40
47.624999999999197
  0
TEXT
  5
2F4
  8
DIM
 10
128.03556535419401
 20
380.10565734756148
 30
0.0
 40
5.0
  1
B.S.P. OR N.P.T.
 50
90.0
 72
     4
 11
125.53556535419411
 21
410.58184782375201
 31
0.0
  0
TEXT
  5
2F5
  8
TXT
 10
513.60864006054578
 20
223.67491858003129
 30
0.0
 40
5.0
  1
BASEPLATE DETAILS
 72
     4
 11
551.34673529864108
 21
226.1749185800314
 31
0.0
  0
TEXT
  5
2F6
  8
TXT
 10
463.13244958435558
 20
181.53206143717421
 30
0.0
 40
5.0
  1
(%%c3.935" -0.002") 
 72
     4
 11
501.34673529864142
 21
183.67491858003129
 31
0.0
  0
LINE
  5
2F7
  8
DRG2
 10
401.34673529864119
 20
234.17491858003129
 30
0.0
 11
701.34673529864108
 21
234.17491858003129
 31
0.0
  0
LINE
  5
2F8
  8
DRG2
 10
401.34673529864119
 20
218.1749185800314
 30
0.0
 11
701.34673529864108
 21
218.1749185800314
 31
0.0
  0
LINE
  5
2F9
  8
DRG2
 10
401.34673529864119
 20
202.1749185800314
 30
0.0
 11
701.34673529864108
 21
202.1749185800314
 31
0.0
  0
LINE
  5
2FA
  8
DRG2
 10
401.34673529864119
 20
149.1749185800314
 30
0.0
 11
701.34673529864108
 21
149.1749185800314
 31
0.0
  0
LINE
  5
2FB
  8
DRG2
 10
401.34673529864119
 20
175.6749185800314
 30
0.0
 11
701.34673529864108
 21
175.6749185800314
 31
0.0
  0
LINE
  5
2FC
  8
DRG2
 10
451.34673529864142
 20
149.1749185800314
 30
0.0
 11
451.34673529864119
 21
218.1749185800314
 31
0.0
  0
LINE
  5
2FD
  8
DRG2
 10
401.34673529864142
 20
149.1749185800314
 30
0.0
 11
401.34673529864119
 21
234.17491858003129
 31
0.0
  0
TEXT
  5
2FE
  8
TXT
 10
463.13244958435558
 20
155.03206143717421
 30
0.0
 40
5.0
  1
(%%c3.749" -0.004") 
 72
     4
 11
501.34673529864142
 21
157.1749185800314
 31
0.0
  0
TEXT
  5
2FF
  8
TXT
 10
412.29911625102221
 20
186.4249185800314
 30
0.0
 40
5.0
  1
ISO F14
 72
     4
 11
426.34673529864119
 21
188.9249185800314
 31
0.0
  0
TEXT
  5
300
  8
TXT
 10
417.8943543462604
 20
159.9249185800314
 30
0.0
 40
5.0
  1
FA14
 72
     4
 11
426.34673529864142
 21
162.4249185800314
 31
0.0
  0
TEXT
  5
301
  8
TXT
 10
475.3943543462604
 20
191.6749185800314
 30
0.0
 40
5.0
  1
%%c99.95 -0.05
 72
     4
 11
501.34673529864142
 21
194.17491858003129
 31
0.0
  0
TEXT
  5
302
  8
TXT
 10
479.68006863197468
 20
207.6749185800314
 30
0.0
 40
5.0
  1
SPIGOT DIA.
 72
     4
 11
501.34673529864142
 21
210.1749185800314
 31
0.0
  0
TEXT
  5
303
  8
TXT
 10
475.87054482245088
 20
165.1749185800314
 30
0.0
 40
5.0
  1
%%c95.22 -0.10
 72
     4
 11
501.34673529864142
 21
167.6749185800314
 31
0.0
  0
LINE
  5
304
  8
DRG2
 10
701.34673529864108
 20
149.1749185800316
 30
0.0
 11
701.34673529864108
 21
234.1749185800316
 31
0.0
  0
LINE
  5
305
  8
DRG2
 10
551.34673529864142
 20
149.17491858003149
 30
0.0
 11
551.34673529864142
 21
218.1749185800314
 31
0.0
  0
TEXT
  5
306
  8
TXT
 10
580.15625910816505
 20
181.53206143717421
 30
0.0
 40
5.0
  1
ON %%c140.0 (%%c5.51") P.C.
 72
     4
 11
626.34673529864108
 21
183.67491858003129
 31
0.0
  0
TEXT
  5
307
  8
TXT
 10
579.68006863197456
 20
155.03206143717421
 30
0.0
 40
5.0
  1
ON %%c139.7 (%%c5.50") P.C.
 72
     4
 11
626.34673529864108
 21
157.1749185800314
 31
0.0
  0
TEXT
  5
308
  8
TXT
 10
566.94197339387915
 20
192.03206143717421
 30
0.0
 40
5.0
  1
4 HOLES M16x20 (0.79") DEEP
 72
     4
 11
626.34673529864108
 21
194.17491858003129
 31
0.0
  0
TEXT
  5
309
  8
TXT
 10
557.18006863197445
 20
165.53206143717421
 30
0.0
 40
5.0
  1
4 HOLES 5/8"UNCx20 (0.79") DEEP
 72
     4
 11
626.34673529864108
 21
167.6749185800314
 31
0.0
  0
TEXT
  5
30A
  8
TXT
 10
561.10864006054589
 20
208.03206143717421
 30
0.0
 40
5.0
  1
HOLE DETAILS (45%%d OFF CENTRES)
 72
     4
 11
626.34673529864108
 21
210.1749185800314
 31
0.0
  0
LINE
  5
30E
  8
DRG
 10
143.45218587777359
 20
802.79052051292661
 30
0.0
 11
143.45218587777359
 21
977.79052051292661
 31
0.0
  0
LINE
  5
30F
  8
DRG
 10
128.45218587777359
 20
977.79052051292661
 30
0.0
 11
128.45218587777359
 21
802.79052051292661
 31
0.0
  0
LINE
  5
310
  8
DRG
 10
128.45218587777359
 20
802.79052051292661
 30
0.0
 11
143.45218587777359
 21
802.79052051292661
 31
0.0
  0
LINE
  5
311
  8
DRG
 10
186.20218587777359
 20
840.29052051292661
 30
0.0
 11
198.45218587777359
 21
840.29052051292661
 31
0.0
  0
LINE
  5
312
  8
CRS
 10
212.6683097374414
 20
890.29052051292661
 30
0.0
 11
68.63707701528142
 21
890.29052051292661
 31
0.0
  0
LINE
  5
313
  8
DRG
 10
186.20218587777359
 20
840.29052051292661
 30
0.0
 11
186.20218587777589
 21
940.29052051292661
 31
0.0
  0
LINE
  5
314
  8
DRG
 10
128.45218587777359
 20
875.29052051292661
 30
0.0
 11
78.952185877774582
 21
875.29052051292661
 31
0.0
  0
LINE
  5
315
  8
DRG
 10
128.45218587777359
 20
905.29052051292649
 30
0.0
 11
78.952185877774582
 21
905.29052051292649
 31
0.0
  0
LINE
  5
316
  8
DRG
 10
122.4521858777745
 20
908.59052051292645
 30
0.0
 11
82.452185877774582
 21
908.59052051292645
 31
0.0
  0
LINE
  5
317
  8
DRG
 10
77.452185877774582
 20
903.79052051292661
 30
0.0
 11
77.452185877774582
 21
876.79052051292649
 31
0.0
  0
LINE
  5
318
  8
DRG2
 10
78.952185877774582
 20
905.29052051292649
 30
0.0
 11
78.952185877774582
 21
875.29052051292661
 31
0.0
  0
LINE
  5
319
  8
DRG
 10
77.452185877774582
 20
876.79052051292649
 30
0.0
 11
78.952185877774582
 21
875.29052051292661
 31
0.0
  0
LINE
  5
31A
  8
DRG
 10
78.952185877774582
 20
905.29052051292649
 30
0.0
 11
77.452185877774582
 21
903.79052051292661
 31
0.0
  0
LINE
  5
31B
  8
DRG
 10
82.452185877774582
 20
908.59052051292645
 30
0.0
 11
82.452185877774582
 21
905.29052051292649
 31
0.0
  0
LINE
  5
31C
  8
HID
 10
133.45218587777359
 20
935.29052051292194
 30
0.0
 11
133.45218587777359
 21
845.29052051292672
 31
0.0
  0
LINE
  5
31D
  8
DRG
 10
149.45218587777359
 20
864.19447702886043
 30
0.0
 11
180.20218587777359
 21
864.19447702886043
 31
0.0
  0
LINE
  5
31E
  8
HID
 10
133.45218587777359
 20
847.69052051292658
 30
0.0
 11
133.45218587777359
 21
843.66552051292661
 31
0.0
  0
LINE
  5
31F
  8
HID
 10
132.45218587777359
 20
842.66552051292661
 30
0.0
 11
128.45218587777359
 21
842.66552051292661
 31
0.0
  0
ARC
  5
320
  8
HID
 10
132.45218587777359
 20
843.66552051292661
 30
0.0
 40
1.0
 50
270.0
 51
0.0
  0
ARC
  5
321
  8
DRG
 10
149.45218587777359
 20
858.19447702886021
 30
0.0
 40
6.0
 50
90.0
 51
180.0
  0
ARC
  5
322
  8
DRG
 10
180.20218587777359
 20
858.19447702886055
 30
0.0
 40
6.0
 50
0.0
 51
90.000000000000114
  0
LINE
  5
323
  8
DRG
 10
180.20218587777541
 20
916.38656399699266
 30
0.0
 11
149.45218587777359
 21
916.38656399699255
 31
0.0
  0
LINE
  5
324
  8
DRG
 10
122.4521858777745
 20
908.59052051292645
 30
0.0
 11
122.4521858777745
 21
905.29052051292649
 31
0.0
  0
LINE
  5
325
  8
HID
 10
132.45218587777359
 20
937.91552051292649
 30
0.0
 11
128.45218587777359
 21
937.91552051292649
 31
0.0
  0
LINE
  5
326
  8
HID
 10
133.45218587777359
 20
935.29052051292661
 30
0.0
 11
133.45218587777359
 21
936.91552051292649
 31
0.0
  0
ARC
  5
327
  8
HID
 10
132.45218587777359
 20
936.91552051292649
 30
0.0
 40
1.0
 50
0.0
 51
90.0
  0
LINE
  5
328
  8
DRG
 10
128.45218587777359
 20
977.79052051292661
 30
0.0
 11
143.45218587777359
 21
977.79052051292661
 31
0.0
  0
LINE
  5
329
  8
HID
 10
128.45218587777359
 20
947.93192918292652
 30
0.0
 11
143.45218587777359
 21
947.93192918292652
 31
0.0
  0
LINE
  5
32A
  8
HID
 10
128.45218587777359
 20
931.43192918292652
 30
0.0
 11
143.45218587777359
 21
931.43192918292652
 31
0.0
  0
LINE
  5
32B
  8
CRS
 10
125.4336545077346
 20
939.68192918292652
 30
0.0
 11
147.26456969605101
 21
939.68192918292652
 31
0.0
  0
ARC
  5
32C
  8
DRG
 10
149.45218587777359
 20
922.38656399699244
 30
0.0
 40
6.0
 50
180.0
 51
270.0
  0
ARC
  5
32D
  8
DRG
 10
180.20218587777541
 20
922.38656399699266
 30
0.0
 40
6.0
 50
270.00000000000011
 51
359.99999999999869
  0
LINE
  5
32E
  8
DRG
 10
198.45218587777359
 20
840.27237165252563
 30
0.0
 11
198.45218587777569
 21
948.49052051292642
 31
0.0
  0
LINE
  5
32F
  8
DRG
 10
186.20218587777359
 20
940.29052051292661
 30
0.0
 11
198.45218587777359
 21
940.29052051292661
 31
0.0
  0
LINE
  5
330
  8
CRS
 10
125.0209957820018
 20
840.89911184292657
 30
0.0
 11
146.2555289259482
 21
840.89911184292657
 31
0.0
  0
LINE
  5
331
  8
HID
 10
128.45218587777359
 20
832.64911184292669
 30
0.0
 11
143.45218587777359
 21
832.64911184292669
 31
0.0
  0
LINE
  5
332
  8
HID
 10
128.45218587777359
 20
849.14911184292657
 30
0.0
 11
143.45218587777359
 21
849.14911184292657
 31
0.0
  0
LINE
  5
333
  8
DIM
 10
27.452185877774578
 20
802.79052051292661
 30
0.0
 11
27.452185877774578
 21
977.79052051292661
 31
0.0
  0
SOLID
  5
334
  8
DIM
 10
26.452185877774578
 20
808.79052051292649
 30
0.0
 11
28.452185877774578
 21
808.79052051292649
 31
0.0
 12
27.452185877774578
 22
802.79052051292661
 32
0.0
 13
27.452185877774578
 23
802.79052051292661
 33
0.0
  0
TEXT
  5
335
  8
DIM
 10
24.952185877774578
 20
852.55242527483131
 30
0.0
 40
5.0
  1
FOR INPUT OPTIONS
 50
90.0
 72
     4
 11
22.452185877774578
 21
890.29052051292661
 31
0.0
  0
SOLID
  5
336
  8
DIM
 10
26.452185877774578
 20
971.79052051292661
 30
0.0
 11
28.452185877774578
 21
971.79052051292661
 31
0.0
 12
27.452185877774578
 22
977.79052051292661
 32
0.0
 13
27.452185877774578
 23
977.79052051292661
 33
0.0
  0
TEXT
  5
337
  8
DIM
 10
102.37926767471301
 20
951.09052051292645
 30
0.0
 40
5.0
  1
5
 72
     1
 11
104.04593434137971
 21
953.59052051292656
 31
0.0
 73
     2
  0
LINE
  5
338
  8
DIM
 10
77.452185877774582
 20
948.59052051292645
 30
0.0
 11
64.531201284590452
 21
948.59052051292645
 31
0.0
  0
LINE
  5
339
  8
DIM
 10
88.452185877774568
 20
948.59052051292645
 30
0.0
 11
116.5890557475862
 21
948.59052051292645
 31
0.0
  0
SOLID
  5
33A
  8
DIM
 10
88.452185877774568
 20
949.59052051292645
 30
0.0
 11
88.452185877774568
 21
947.59052051292645
 31
0.0
 12
82.452185877774582
 22
948.59052051292645
 32
0.0
 13
82.452185877774582
 23
948.59052051292645
 33
0.0
  0
LINE
  5
33B
  8
DIM
 10
82.452185877774582
 20
912.88781382063883
 30
0.0
 11
82.452185877774582
 21
950.59052051292645
 31
0.0
  0
SOLID
  5
33C
  8
DIM
 10
71.452185877774582
 20
949.59052051292645
 30
0.0
 11
71.452185877774582
 21
947.59052051292645
 31
0.0
 12
77.452185877774582
 22
948.59052051292645
 32
0.0
 13
77.452185877774582
 23
948.59052051292645
 33
0.0
  0
LINE
  5
33D
  8
DIM
 10
124.980626224283
 20
977.79052051292661
 30
0.0
 11
25.452185877774578
 21
977.79052051292661
 31
0.0
  0
ARC
  5
33F
  8
DRG
 10
146.45218587777359
 20
897.29052051292649
 30
0.0
 40
3.0
 50
180.0
 51
270.0
  0
ARC
  5
340
  8
DRG
 10
146.45218587777359
 20
883.29052051292661
 30
0.0
 40
3.0
 50
90.0
 51
179.99999999999989
  0
LINE
  5
341
  8
DRG
 10
183.20218587777501
 20
894.29052051292661
 30
0.0
 11
146.45218587777359
 21
894.29052051292661
 31
0.0
  0
LINE
  5
342
  8
DRG
 10
183.2021858777745
 20
886.29052051292638
 30
0.0
 11
146.45218587777359
 21
886.29052051292661
 31
0.0
  0
ARC
  5
343
  8
DRG
 10
183.20218587777501
 20
897.29052051292649
 30
0.0
 40
3.0
 50
270.0
 51
359.99999999999869
  0
ARC
  5
344
  8
DRG
 10
183.2021858777745
 20
883.29052051292638
 30
0.0
 40
3.0
 50
359.99999999999869
 51
90.0
  0
LINE
  5
345
  8
DRG
 10
186.20218587777359
 20
840.29052051292661
 30
0.0
 11
144.95218587777359
 21
816.47482190885466
 31
0.0
  0
ARC
  5
346
  8
DRG
 10
146.45218587777359
 20
813.87674569750129
 30
0.0
 40
3.0
 50
119.9999999999999
 51
180.0
  0
LINE
  5
347
  8
DRG
 10
186.20218587777359
 20
940.29052051292661
 30
0.0
 11
144.95218587777359
 21
964.10621911699855
 31
0.0
  0
ARC
  5
348
  8
DRG
 10
146.45218587777359
 20
966.70429532835203
 30
0.0
 40
3.0
 50
180.0
 51
240.0
  0
TEXT
  5
349
  8
DIM
 10
34.952185877774582
 20
870.29052051292649
 30
0.0
 40
5.0
  1
SEE TABLE
 50
90.0
 72
     4
 11
32.452185877774582
 21
890.29052051292661
 31
0.0
  0
LINE
  5
34A
  8
DIM
 10
124.32326775322051
 20
802.79052051292661
 30
0.0
 11
25.452185877774578
 21
802.79052051292661
 31
0.0
  0
TEXT
  5
34B
  8
DIM
 10
91.426886722332114
 20
941.44766337006945
 30
0.0
 40
5.0
  1
(0.20")
 72
     4
 11
104.04593434137971
 21
943.59052051292656
 31
0.0
  0
TEXT
  5
34C
  8
DIM
 10
142.05429565016021
 20
755.64766337006949
 30
0.0
 40
5.0
  1
(0.20")
 72
     4
 11
154.67334326920781
 21
757.79052051292649
 31
0.0
  0
LINE
  5
34D
  8
DIM
 10
139.45218587777339
 20
762.79052051292661
 30
0.0
 11
151.50667660254109
 21
762.79052051292661
 31
0.0
  0
LINE
  5
34E
  8
DIM
 10
133.45218587777339
 20
837.79232392402764
 30
0.0
 11
133.45218587777339
 21
760.79052051292661
 31
0.0
  0
LINE
  5
34F
  8
DIM
 10
128.45218587777359
 20
800.79052051292649
 30
0.0
 11
128.45218587777359
 21
760.79052051292661
 31
0.0
  0
SOLID
  5
350
  8
DIM
 10
122.4521858777736
 20
763.79052051292661
 30
0.0
 11
122.4521858777736
 21
761.79052051292649
 31
0.0
 12
128.45218587777359
 22
762.79052051292661
 32
0.0
 13
128.45218587777359
 23
762.79052051292661
 33
0.0
  0
LINE
  5
351
  8
DIM
 10
122.4521858777736
 20
762.79052051292661
 30
0.0
 11
116.4521858777736
 21
762.79052051292661
 31
0.0
  0
SOLID
  5
352
  8
DIM
 10
139.45218587777339
 20
763.79052051292661
 30
0.0
 11
139.45218587777339
 21
761.79052051292649
 31
0.0
 12
133.45218587777339
 22
762.79052051292661
 32
0.0
 13
133.45218587777339
 23
762.79052051292661
 33
0.0
  0
LINE
  5
353
  8
DIM
 10
151.50667660254109
 20
762.79052051292661
 30
0.0
 11
167.80792664397831
 21
762.79052051292661
 31
0.0
  0
TEXT
  5
354
  8
DIM
 10
153.00667660254121
 20
765.29052051292661
 30
0.0
 40
5.0
  1
5
 72
     1
 11
154.67334326920781
 21
767.79052051292661
 31
0.0
 73
     2
  0
LINE
  5
359
  8
DIM
 10
198.45218587777541
 20
1017.790520512926
 30
0.0
 11
128.45218587777359
 21
1017.790520512926
 31
0.0
  0
SOLID
  5
35A
  8
DIM
 10
134.45218587777359
 20
1018.790520512926
 30
0.0
 11
134.45218587777359
 21
1016.790520512926
 31
0.0
 12
128.45218587777359
 22
1017.790520512926
 32
0.0
 13
128.45218587777359
 23
1017.790520512926
 33
0.0
  0
LINE
  5
35B
  8
DIM
 10
198.45218587777549
 20
951.57472776631619
 30
0.0
 11
198.45218587777541
 21
1019.730700395069
 31
0.0
  0
TEXT
  5
35C
  8
DIM
 10
150.8331382587269
 20
1009.217428559806
 30
0.0
 40
5.0
  1
(2.76")
 72
     4
 11
163.4521858777745
 21
1011.360285702663
 31
0.0
  0
TEXT
  5
35D
  8
DIM
 10
159.40456683015549
 20
1020.290520512926
 30
0.0
 40
5.0
  1
70
 72
     4
 11
163.4521858777745
 21
1022.790520512926
 31
0.0
  0
SOLID
  5
35E
  8
DIM
 10
192.45218587777549
 20
1018.790520512926
 30
0.0
 11
192.45218587777549
 21
1016.7905205129269
 31
0.0
 12
198.45218587777541
 22
1017.790520512926
 32
0.0
 13
198.45218587777541
 23
1017.790520512926
 33
0.0
  0
TEXT
  5
360
  8
TXT
 10
306.54761904761898
 20
917.80365680174407
 30
0.0
 40
5.0
  1
x 10 (0.39")
 72
     4
 11
330.0
 21
919.94651394460129
 31
0.0
  0
LINE
  5
361
  8
DRG2
 10
239.99999999999989
 20
980.94651394460129
 30
0.0
 11
760.0
 21
980.94651394460163
 31
0.0
  0
LINE
  5
362
  8
DRG2
 10
239.99999999999989
 20
964.94651394460129
 30
0.0
 11
760.0
 21
964.94651394460175
 31
0.0
  0
LINE
  5
363
  8
DRG2
 10
239.99999999999989
 20
938.44651394460118
 30
0.0
 11
760.0
 21
938.44651394460175
 31
0.0
  0
TEXT
  5
364
  8
TXT
 10
418.80952380952351
 20
970.44651394460118
 30
0.0
 40
5.0
  1
INPUT FLANGE DETAILS
 72
     4
 11
462.49999999999977
 21
972.94651394460129
 31
0.0
  0
LINE
  5
365
  8
DRG2
 10
239.99999999999989
 20
885.44651394460141
 30
0.0
 11
760.0
 21
885.44651394460163
 31
0.0
  0
LINE
  5
366
  8
DRG2
 10
239.99999999999989
 20
911.94651394460129
 30
0.0
 11
760.0
 21
911.94651394460175
 31
0.0
  0
LINE
  5
367
  8
DRG2
 10
290.0
 20
832.44651394460129
 30
0.0
 11
290.0
 21
964.94651394460129
 31
0.0
  0
LINE
  5
368
  8
DRG2
 10
239.99999999999989
 20
832.44651394460129
 30
0.0
 11
239.99999999999989
 21
980.94651394460129
 31
0.0
  0
TEXT
  5
369
  8
TXT
 10
251.0714285714285
 20
922.69651394460129
 30
0.0
 40
5.0
  1
ISO F10
 72
     4
 11
265.0
 21
925.19651394460118
 31
0.0
  0
TEXT
  5
36A
  8
TXT
 10
256.66666666666657
 20
896.19651394460129
 30
0.0
 40
5.0
  1
FA10
 72
     4
 11
265.0
 21
898.69651394460129
 31
0.0
  0
TEXT
  5
36B
  8
TXT
 10
303.92857142857139
 20
928.30365680174418
 30
0.0
 40
5.0
  1
%%c125 (%%c4.92")
 72
     4
 11
330.0
 21
930.44651394460118
 31
0.0
  0
TEXT
  5
36C
  8
TXT
 10
305.0
 20
943.94651394460118
 30
0.0
 40
5.0
  1
& THICKNESS
 72
     4
 11
330.0
 21
946.44651394460118
 31
0.0
  0
LINE
  5
36D
  8
DRG2
 10
459.99999999999972
 20
832.44651394460152
 30
0.0
 11
459.99999999999972
 21
964.94651394460175
 31
0.0
  0
LINE
  5
36E
  8
DRG2
 10
370.0
 20
832.44651394460152
 30
0.0
 11
370.0
 21
964.94651394460129
 31
0.0
  0
TEXT
  5
36F
  8
TXT
 10
389.04761904761898
 20
927.94651394460129
 30
0.0
 40
5.0
  1
%%c20.00 -0.05
 72
     4
 11
415.0
 21
930.44651394460118
 31
0.0
  0
TEXT
  5
370
  8
TXT
 10
408.6904761904762
 20
943.94651394460118
 30
0.0
 40
5.0
  1
DIA.
 72
     4
 11
415.0
 21
946.44651394460118
 31
0.0
  0
TEXT
  5
371
  8
TXT
 10
702.14285714285711
 20
927.94651394460129
 30
0.0
 40
5.0
  1
6x6x40
 72
     4
 11
715.0
 21
930.44651394460118
 31
0.0
  0
TEXT
  5
372
  8
TXT
 10
678.57142857142856
 20
917.80365680174407
 30
0.0
 40
5.0
  1
(0.24"x0.24"x1.57")
 72
     4
 11
715.0
 21
919.94651394460129
 31
0.0
  0
LINE
  5
373
  8
DRG2
 10
550.00000000000023
 20
832.44651394460152
 30
0.0
 11
549.99999999999977
 21
964.94651394460129
 31
0.0
  0
TEXT
  5
374
  8
TXT
 10
573.69047619047615
 20
944.30365680174418
 30
0.0
 40
5.0
  1
(45%%d OFF CENTRES)
 72
     4
 11
610.0
 21
946.44651394460118
 31
0.0
  0
TEXT
  5
375
  8
TXT
 10
564.40476190476181
 20
928.30365680174418
 30
0.0
 40
5.0
  1
4 HOLES %%c10.5 (%%c0.41")
 72
     4
 11
610.0
 21
930.44651394460118
 31
0.0
  0
TEXT
  5
376
  8
TXT
 10
563.33333333333326
 20
917.80365680174407
 30
0.0
 40
5.0
  1
ON %%c102.0 (%%c4.02") P.C.
 72
     4
 11
610.0
 21
919.94651394460129
 31
0.0
  0
LINE
  5
377
  8
DRG2
 10
670.0
 20
832.44651394460152
 30
0.0
 11
670.0
 21
964.94651394460129
 31
0.0
  0
TEXT
  5
378
  8
TXT
 10
700.83333333333326
 20
943.94651394460118
 30
0.0
 40
5.0
  1
DETAILS
 72
     4
 11
715.0
 21
946.44651394460118
 31
0.0
  0
LINE
  5
379
  8
DRG2
 10
760.0
 20
832.44651394460152
 30
0.0
 11
760.0
 21
980.94651394460163
 31
0.0
  0
TEXT
  5
37A
  8
TXT
 10
498.69047619047592
 20
943.94651394460118
 30
0.0
 40
5.0
  1
DIA.
 72
     4
 11
504.99999999999977
 21
946.44651394460118
 31
0.0
  0
TEXT
  5
37B
  8
TXT
 10
708.33333333333326
 20
954.44651394460118
 30
0.0
 40
5.0
  1
KEY
 72
     4
 11
715.0
 21
956.94651394460129
 31
0.0
  0
TEXT
  5
37C
  8
TXT
 10
584.04761904761904
 20
954.44651394460118
 30
0.0
 40
5.0
  1
HOLE DETAILS
 72
     4
 11
610.0
 21
956.94651394460129
 31
0.0
  0
TEXT
  5
37D
  8
TXT
 10
491.4285714285711
 20
954.44651394460118
 30
0.0
 40
5.0
  1
RECESS
 72
     4
 11
504.99999999999977
 21
956.94651394460129
 31
0.0
  0
TEXT
  5
37E
  8
TXT
 10
403.5714285714285
 20
954.44651394460118
 30
0.0
 40
5.0
  1
SHAFT
 72
     4
 11
415.0
 21
956.94651394460129
 31
0.0
  0
TEXT
  5
37F
  8
TXT
 10
302.02380952380952
 20
954.80365680174418
 30
0.0
 40
5.0
  1
FLANGE O/DIA.
 72
     4
 11
330.0
 21
956.94651394460129
 31
0.0
  0
TEXT
  5
380
  8
TXT
 10
303.92857142857139
 20
901.80365680174407
 30
0.0
 40
5.0
  1
%%c125 (%%c4.92")
 72
     4
 11
330.0
 21
903.94651394460129
 31
0.0
  0
TEXT
  5
381
  8
TXT
 10
306.54761904761898
 20
891.30365680174418
 30
0.0
 40
5.0
  1
x 10 (0.39")
 72
     4
 11
330.0
 21
893.44651394460129
 31
0.0
  0
TEXT
  5
382
  8
TXT
 10
389.04761904761898
 20
901.44651394460129
 30
0.0
 40
5.0
  1
%%c20.00 -0.05
 72
     4
 11
415.0
 21
903.94651394460129
 31
0.0
  0
TEXT
  5
383
  8
TXT
 10
466.78571428571399
 20
917.80365680174407
 30
0.0
 40
5.0
  1
(%%c2.758" +0.002") 
 72
     4
 11
504.99999999999977
 21
919.94651394460129
 31
0.0
  0
TEXT
  5
384
  8
TXT
 10
479.04761904761881
 20
927.94651394460129
 30
0.0
 40
5.0
  1
%%c70.05 +0.05
 72
     4
 11
504.99999999999977
 21
930.44651394460118
 31
0.0
  0
TEXT
  5
385
  8
TXT
 10
467.26190476190447
 20
891.30365680174418
 30
0.0
 40
5.0
  1
(%%c2.313" +0.002") 
 72
     4
 11
504.99999999999977
 21
893.44651394460129
 31
0.0
  0
TEXT
  5
386
  8
TXT
 10
479.04761904761881
 20
901.44651394460129
 30
0.0
 40
5.0
  1
%%c58.75 +0.05
 72
     4
 11
504.99999999999977
 21
903.94651394460129
 31
0.0
  0
TEXT
  5
387
  8
TXT
 10
564.40476190476181
 20
901.80365680174407
 30
0.0
 40
5.0
  1
4 HOLES %%c10.5 (%%c0.41")
 72
     4
 11
610.0
 21
903.94651394460129
 31
0.0
  0
TEXT
  5
388
  8
TXT
 10
563.33333333333326
 20
891.30365680174418
 30
0.0
 40
5.0
  1
ON %%c102.0 (%%c4.02") P.C.
 72
     4
 11
610.0
 21
893.44651394460129
 31
0.0
  0
TEXT
  5
389
  8
TXT
 10
678.57142857142856
 20
891.30365680174418
 30
0.0
 40
5.0
  1
(0.24"x0.24"x1.57")
 72
     4
 11
715.0
 21
893.44651394460129
 31
0.0
  0
TEXT
  5
38A
  8
TXT
 10
702.14285714285711
 20
901.44651394460129
 30
0.0
 40
5.0
  1
6x6x40
 72
     4
 11
715.0
 21
903.94651394460129
 31
0.0
  0
TEXT
  5
38B
  8
TXT
 10
379.88095238095229
 20
917.80365680174407
 30
0.0
 40
5.0
  1
(%%c0.787" -0.002")
 72
     4
 11
415.0
 21
919.94651394460129
 31
0.0
  0
TEXT
  5
38C
  8
TXT
 10
379.88095238095229
 20
891.30365680174418
 30
0.0
 40
5.0
  1
(%%c0.787" -0.002")
 72
     4
 11
415.0
 21
893.44651394460129
 31
0.0
  0
TEXT
  5
38D
  8
TXT
 10
479.04761904761881
 20
848.44651394460129
 30
0.0
 40
5.0
  1
%%c95.27 +0.05
 72
     4
 11
504.99999999999977
 21
850.94651394460141
 31
0.0
  0
TEXT
  5
38E
  8
TXT
 10
477.14285714285683
 20
874.94651394460141
 30
0.0
 40
5.0
  1
%%c100.05 +0.05
 72
     4
 11
504.99999999999977
 21
877.44651394460141
 31
0.0
  0
LINE
  5
38F
  8
DRG2
 10
239.99999999999989
 20
832.44651394460129
 30
0.0
 11
760.0
 21
832.44651394460152
 31
0.0
  0
LINE
  5
390
  8
DRG2
 10
239.99999999999989
 20
885.44651394460141
 30
0.0
 11
760.0
 21
885.44651394460163
 31
0.0
  0
LINE
  5
391
  8
DRG2
 10
239.99999999999989
 20
858.94651394460141
 30
0.0
 11
760.0
 21
858.94651394460163
 31
0.0
  0
TEXT
  5
392
  8
TXT
 10
467.26190476190447
 20
838.3036568017443
 30
0.0
 40
5.0
  1
(%%c3.751" +0.002") 
 72
     4
 11
504.99999999999977
 21
840.44651394460129
 31
0.0
  0
TEXT
  5
393
  8
TXT
 10
466.78571428571399
 20
864.80365680174441
 30
0.0
 40
5.0
  1
(%%c3.939" +0.002") 
 72
     4
 11
504.99999999999977
 21
866.94651394460141
 31
0.0
  0
TEXT
  5
394
  8
TXT
 10
256.54761904761898
 20
843.19651394460129
 30
0.0
 40
5.0
  1
FA14
 72
     4
 11
265.0
 21
845.69651394460141
 31
0.0
  0
TEXT
  5
395
  8
TXT
 10
250.95238095238091
 20
869.69651394460141
 30
0.0
 40
5.0
  1
ISO F14
 72
     4
 11
265.0
 21
872.19651394460141
 31
0.0
  0
TEXT
  5
396
  8
TXT
 10
381.30952380952368
 20
864.80365680174441
 30
0.0
 40
5.0
  1
(%%c1.181" -0.002")
 72
     4
 11
415.0
 21
866.94651394460141
 31
0.0
  0
TEXT
  5
397
  8
TXT
 10
381.30952380952368
 20
838.3036568017443
 30
0.0
 40
5.0
  1
(%%c1.181" -0.002")
 72
     4
 11
415.0
 21
840.44651394460129
 31
0.0
  0
TEXT
  5
398
  8
TXT
 10
389.04761904761898
 20
874.94651394460141
 30
0.0
 40
5.0
  1
%%c30.00 -0.05
 72
     4
 11
415.0
 21
877.44651394460141
 31
0.0
  0
TEXT
  5
399
  8
TXT
 10
389.04761904761898
 20
848.44651394460129
 30
0.0
 40
5.0
  1
%%c30.00 -0.05
 72
     4
 11
415.0
 21
850.94651394460141
 31
0.0
  0
TEXT
  5
39A
  8
TXT
 10
303.92857142857139
 20
848.8036568017443
 30
0.0
 40
5.0
  1
%%c175 (%%c6.89")
 72
     4
 11
330.0
 21
850.94651394460141
 31
0.0
  0
TEXT
  5
39B
  8
TXT
 10
306.54761904761898
 20
838.3036568017443
 30
0.0
 40
5.0
  1
x 15 (0.59")
 72
     4
 11
330.0
 21
840.44651394460129
 31
0.0
  0
TEXT
  5
39C
  8
TXT
 10
306.54761904761898
 20
864.80365680174441
 30
0.0
 40
5.0
  1
x 15 (0.59")
 72
     4
 11
330.0
 21
866.94651394460141
 31
0.0
  0
TEXT
  5
39D
  8
TXT
 10
303.92857142857139
 20
875.30365680174418
 30
0.0
 40
5.0
  1
%%c175 (%%c6.89")
 72
     4
 11
330.0
 21
877.44651394460141
 31
0.0
  0
TEXT
  5
39E
  8
TXT
 10
679.04761904761904
 20
838.3036568017443
 30
0.0
 40
5.0
  1
(0.31"x0.28"x1.57")
 72
     4
 11
715.0
 21
840.44651394460129
 31
0.0
  0
TEXT
  5
39F
  8
TXT
 10
679.04761904761904
 20
864.80365680174441
 30
0.0
 40
5.0
  1
(0.31"x0.28"x1.57")
 72
     4
 11
715.0
 21
866.94651394460141
 31
0.0
  0
TEXT
  5
3A0
  8
TXT
 10
702.14285714285711
 20
848.44651394460129
 30
0.0
 40
5.0
  1
8x7x40
 72
     4
 11
715.0
 21
850.94651394460141
 31
0.0
  0
TEXT
  5
3A1
  8
TXT
 10
702.14285714285711
 20
874.94651394460141
 30
0.0
 40
5.0
  1
8x7x40
 72
     4
 11
715.0
 21
877.44651394460141
 31
0.0
  0
TEXT
  5
3A2
  8
TXT
 10
563.80952380952385
 20
838.3036568017443
 30
0.0
 40
5.0
  1
ON %%c140.0 (%%c5.51") P.C.
 72
     4
 11
610.0
 21
840.44651394460129
 31
0.0
  0
TEXT
  5
3A3
  8
TXT
 10
563.80952380952385
 20
864.80365680174441
 30
0.0
 40
5.0
  1
ON %%c140.0 (%%c5.51") P.C.
 72
     4
 11
610.0
 21
866.94651394460141
 31
0.0
  0
TEXT
  5
3A4
  8
TXT
 10
563.92857142857144
 20
848.8036568017443
 30
0.0
 40
5.0
  1
4 HOLES %%c16.5 (%%c0.65")
 72
     4
 11
610.0
 21
850.94651394460141
 31
0.0
  0
TEXT
  5
3A5
  8
TXT
 10
563.92857142857144
 20
875.30365680174418
 30
0.0
 40
5.0
  1
4 HOLES %%c16.5 (%%c0.65")
 72
     4
 11
610.0
 21
877.44651394460141
 31
0.0
  0
LINE
  5
3A6
  8
DIM
 10
128.45218587777359
 20
982.79052051292649
 30
0.0
 11
128.45218587777359
 21
1019.790520512926
 31
0.0
  0
LINE
  5
3A7
  8
DIM
 10
77.452185877774582
 20
908.79052051292649
 30
0.0
 11
77.452185877774582
 21
974.89769024516852
 31
0.0
  0
LINE
  5
3A8
  8
DIM
 10
122.4521858777736
 20
1017.790520512926
 30
0.0
 11
83.452185877774568
 21
1017.790520512926
 31
0.0
  0
SOLID
  5
3A9
  8
DIM
 10
122.4521858777736
 20
1018.790520512926
 30
0.0
 11
122.4521858777736
 21
1016.790520512926
 31
0.0
 12
128.45218587777359
 22
1017.790520512926
 32
0.0
 13
128.45218587777359
 23
1017.790520512926
 33
0.0
  0
SOLID
  5
3AA
  8
DIM
 10
83.452185877774568
 20
1018.790520512926
 30
0.0
 11
83.452185877774568
 21
1016.790520512926
 31
0.0
 12
77.452185877774582
 22
1017.790520512926
 32
0.0
 13
77.452185877774582
 23
1017.790520512926
 33
0.0
  0
TEXT
  5
3AB
  8
DIM
 10
99.975995401583646
 20
1020.290520512926
 30
0.0
 40
5.0
  1
51
 72
     1
 11
102.9521858777741
 21
1022.790520512926
 31
0.0
 73
     2
  0
TEXT
  5
3AC
  8
DIM
 10
90.809328734916988
 20
1010.647663370069
 30
0.0
 40
5.0
  1
(2.01")
 72
     4
 11
102.9521858777741
 21
1012.790520512926
 31
0.0
  0
LINE
  5
3AD
  8
DIM
 10
77.452185877774582
 20
979.54947184026503
 30
0.0
 11
77.452185877774582
 21
1019.790520512926
 31
0.0
  0
LINE
  5
3AF
  8
DRG
 10
198.45218587777549
 20
940.29052051292751
 30
0.0
 11
190.4271858777746
 21
940.29052051292751
 31
0.0
  0
POLYLINE
  5
480
  8
BORT
 66
     1
 10
0.0
 20
0.0
 30
0.0
 39
1.8
  0
VERTEX
  5
CC3
  8
BORT
 10
166.0
 20
140.0
 30
0.0
  0
VERTEX
  5
CC4
  8
BORT
 10
10.0
 20
140.0
 30
0.0
  0
SEQEND
  5
CC5
  8
BORT
  0
TEXT
  5
481
  8
BORT
 10
23.285714285714281
 20
130.0
 30
0.0
 40
6.0
  1
1
 72
     4
 11
24.0
 21
133.0
 31
0.0
  0
TEXT
  5
482
  8
BORT
 10
47.428571428571409
 20
130.0
 30
0.0
 40
6.0
  1
CN1413  D.S.  25.10.02
 72
     4
 11
102.0
 21
133.0
 31
0.0
  0
LINE
  5
794
  8
DRG
 62
     1
 10
549.94914622120484
 20
613.08184782375292
 30
0.0
 11
560.55526930780854
 21
613.08184782375304
 31
0.0
  0
ARC
  5
795
  8
DRG
 62
     1
 10
549.94914622120484
 20
603.08184782375292
 30
0.0
 40
10.0
 50
90.0
 51
180.0
  0
ARC
  5
7AD
  8
DRG
 62
     1
 10
629.94914622120484
 20
603.08184782375292
 30
0.0
 40
10.0
 50
0.0
 51
90.0
  0
LINE
  5
7AE
  8
DRG
 62
     1
 10
639.94914622120484
 20
603.08184782375292
 30
0.0
 11
639.94914622120484
 21
592.47572473714865
 31
0.0
  0
LINE
  5
7B8
  8
DIM
 10
221.42271433812459
 20
707.70488186591069
 30
0.0
 11
309.4477143381244
 21
707.70488186591069
 31
0.0
  0
SOLID
  5
7B9
  8
DIM
 10
221.42271433812459
 20
708.70488186591058
 30
0.0
 11
221.42271433812459
 21
706.70488186591069
 31
0.0
 12
215.42271433812459
 22
707.70488186591069
 32
0.0
 13
215.42271433812459
 23
707.70488186591069
 33
0.0
  0
SOLID
  5
7BA
  8
DIM
 10
305.42271433812459
 20
708.70488186591058
 30
0.0
 11
305.42271433812459
 21
706.70488186591069
 31
0.0
 12
311.42271433812459
 22
707.70488186591069
 32
0.0
 13
311.42271433812459
 23
707.70488186591069
 33
0.0
  0
TEXT
  5
7BB
  8
DIM
 10
261.38759529050532
 20
710.20488186591058
 30
0.0
 40
5.0
  1
95
 72
     1
 11
265.43521433812441
 21
712.70488186591058
 31
0.0
 73
     2
  0
TEXT
  5
7CC
  8
DIM
 10
95.181865869577905
 20
505.12686256724169
 30
0.0
 40
5.0
  1
4 OFF M10 SCREWS 
  0
TEXT
  5
7CD
  8
DIM
 10
95.181865869577905
 20
496.55543399581302
 30
0.0
 40
5.0
  1
ON %%c105 (4.13") P.C.
  0
TEXT
  5
7F4
  8
DIM
 10
369.74304513263871
 20
502.85858466107788
 30
0.0
 40
5.0
  1
SEE TABLE FOR
  0
TEXT
  5
7F5
  8
DIM
 10
369.74304513263871
 20
494.28715608964927
 30
0.0
 40
5.0
  1
HOLE DETAILS
  0
LINE
  5
80A
  8
DRG
 62
     1
 10
658.83826367172003
 20
462.06281029425298
 30
0.0
 11
647.63409279845712
 21
569.11897780243601
 31
0.0
  0
LINE
  5
80B
  8
DRG
 62
     1
 10
522.15369550573655
 20
463.49476554982948
 30
0.0
 11
532.21293065283032
 21
568.60719051377976
 31
0.0
  0
TEXT
  5
890
  8
DIM
 10
252.8161667190767
 20
700.56202472305358
 30
0.0
 40
5.0
  1
(3.74")
 72
     4
 11
265.43521433812441
 21
702.70488186591069
 31
0.0
  0
LINE
  5
959
  8
DRG
 62
     1
 10
311.42271433812408
 20
592.28184782375286
 30
0.0
 11
311.42271433812459
 21
534.28184782375297
 31
0.0
  0
ARC
  5
95B
  8
DRG
 62
     1
 10
299.42271433812448
 20
534.28184782375297
 30
0.0
 40
12.0
 50
270.0
 51
0.0
  0
LINE
  5
95C
  8
DRG
 62
     1
 10
227.42271433812411
 20
474.58184782375201
 30
0.0
 11
227.42271433812411
 21
509.06369896335087
 31
0.0
  0
LINE
  5
95D
  8
DRG
 62
     1
 10
215.42271433812459
 20
470.58184782375201
 30
0.0
 11
223.42271433812411
 21
470.58184782375201
 31
0.0
  0
ARC
  5
95E
  8
DRG
 62
     1
 10
223.42271433812411
 20
474.58184782375201
 30
0.0
 40
4.0
 50
270.0
 51
0.0
  0
LINE
  5
95F
  8
DRG
 62
     1
 10
207.39771433812459
 20
513.06369896335093
 30
0.0
 11
223.42271433812411
 21
513.06369896335093
 31
0.0
  0
ARC
  5
960
  8
DRG
 62
     1
 10
223.42271433812411
 20
509.06369896335087
 30
0.0
 40
4.0
 50
0.0
 51
90.0
  0
ARC
  5
961
  8
DRG
 62
     1
 10
290.4227143381259
 20
519.17443089661776
 30
0.0
 40
3.0
 50
180.0
 51
270.0
  0
LINE
  5
962
  8
DRG
 62
     1
 10
291.42271433812641
 20
512.40670161950504
 30
0.0
 11
291.42271433812408
 21
512.40670161950504
 31
0.0
  0
ARC
  5
963
  8
DRG
 62
     1
 10
290.4227143381259
 20
519.2818478237532
 30
0.0
 40
3.0
 50
90.0
 51
180.0
  0
LINE
  5
964
  8
DRG
 62
     1
 10
287.4227143381259
 20
519.2818478237532
 30
0.0
 11
287.4227143381259
 21
519.17443089661765
 31
0.0
  0
LINE
  5
965
  8
DRG
 62
     1
 10
290.4227143381259
 20
516.17443089661776
 30
0.0
 11
291.42271433812448
 21
516.17443089661776
 31
0.0
  0
LINE
  5
966
  8
DRG
 62
     1
 10
290.4227143381259
 20
522.2818478237532
 30
0.0
 11
299.42271433812408
 21
522.28184782375297
 31
0.0
  0
ARC
  5
967
  8
DRG
 62
     1
 10
299.42271433812448
 20
592.28184782375286
 30
0.0
 40
12.0
 50
0.0
 51
90.0
  0
LINE
  5
968
  8
DRG
 62
     1
 10
218.42271433812411
 20
613.08184782375292
 30
0.0
 11
239.92271433812411
 21
613.08184782375292
 31
0.0
  0
ARC
  5
969
  8
DRG
 62
     1
 10
239.92271433812411
 20
608.58184782375292
 30
0.0
 40
4.5
 50
0.0
 51
90.0
  0
ARC
  5
96A
  8
DRG
 62
     1
 10
281.42271433812408
 20
615.2818478237516
 30
0.0
 40
6.0
 50
0.0
 51
90.0
  0
ARC
  5
96B
  8
DRG
 62
     1
 10
293.42271433812448
 20
610.28184782375286
 30
0.0
 40
6.0
 50
180.0
 51
270.0
  0
LINE
  5
96C
  8
DRG
 62
     1
 10
293.42271433812448
 20
604.28184782375286
 30
0.0
 11
299.42271433812448
 21
604.28184782375286
 31
0.0
  0
LINE
  5
96D
  8
DRG
 62
     1
 10
287.42271433812408
 20
615.2818478237516
 30
0.0
 11
287.42271433812863
 21
519.28184782375308
 31
0.0
  0
LINE
  5
96E
  8
DRG
 62
     1
 10
215.42271433812411
 20
621.28184782375183
 30
0.0
 11
281.42271433812408
 21
621.28184782375172
 31
0.0
  0
ARC
  5
96F
  8
DRG
 62
     1
 10
589.94914622120439
 20
563.08184782375292
 30
0.0
 40
57.99999999999897
 50
304.22886632781228
 51
235.7711336721876
  0
CIRCLE
  5
970
  8
DRG
 62
     1
 10
589.94914622120439
 20
563.08184782375292
 30
0.0
 40
41.0
  0
LINE
  5
971
  8
DRG
 62
     1
 10
559.94914622120439
 20
493.71251444775248
 30
0.0
 11
559.94914622120439
 21
510.16682160246228
 31
0.0
  0
LINE
  5
972
  8
DRG
 62
     1
 10
619.94914622120427
 20
493.71251444775243
 30
0.0
 11
619.94914622120427
 21
510.16682160246199
 31
0.0
  0
ARC
  5
973
  8
DRG
 62
     1
 10
589.94914622120439
 20
410.38184782375367
 30
0.0
 40
106.34999999999999
 50
73.395533819549399
 51
106.6044661804506
  0
ARC
  5
974
  8
DRG
 62
     1
 10
553.94914622120484
 20
510.16682160246228
 30
0.0
 40
6.0
 50
0.0
 51
55.771133672187638
  0
ARC
  5
975
  8
DRG
 62
     1
 10
625.94914622120439
 20
510.16682160246211
 30
0.0
 40
6.0
 50
124.2288663278123
 51
180.0
  0
LINE
  5
976
  8
DRG
 62
     1
 10
235.42271433812411
 20
345.5818478237519
 30
0.0
 11
235.42271433812431
 21
545.45315003475775
 31
0.0
  0
LINE
  5
977
  8
DRG
 62
     1
 10
244.42271433812411
 20
608.58184782375292
 30
0.0
 11
244.42271433812411
 21
595.47572473714865
 31
0.0
  0
LINE
  5
979
  8
DRG
 62
     1
 10
207.39771433812439
 20
613.08184782375292
 30
0.0
 11
215.42271433812411
 21
613.08184782375292
 31
0.0
  0
POLYLINE
  8
0
  5
F34
  66
     1
 10
0.000000
 20
0.000000
 30
0.000000
  70
     8
  0
VERTEX
  8
0
  5
F35
 10
197.398
 20
523.143
 30
0.000000
  70
    32
  0
VERTEX
  8
0
  5
F36
 10
181.342
 20
507.492
 30
0.000000
  70
    32
  0
VERTEX
  8
0
  5
F37
 10
174.587
 20
507.492
 30
0.000000
  70
    32
  0
SEQEND
  8
0
  5
F38
  0
LINE
  5
97D
  8
DRG
 62
     1
 10
619.34302313460034
 20
613.08184782375304
 30
0.0
 11
629.94914622120484
 21
613.08184782375292
 31
0.0
  0
LINE
  5
97E
  8
DRG
 62
     1
 10
539.94914622120484
 20
592.47572473714968
 30
0.0
 11
539.94914622120484
 21
603.08184782375292
 31
0.0
  0
DIMENSION
  5
97F
  8
DIM
  2
*D0
 10
324.42271433812431
 20
535.99990248952849
 30
0.0
 11
341.36128576669569
 21
535.99990248952849
 31
0.0
 70
   128
 13
311.42271433812459
 23
534.28184782375297
 33
0.0
 14
324.42271433812431
 24
496.58184782375292
 34
0.0
  0
POLYLINE
  8
0
  5
F39
  66
     1
 10
0.000000
 20
0.000000
 30
0.000000
  70
     8
  0
VERTEX
  8
0
  5
F3A
 10
324.423
 20
483.622
 30
0.000000
  70
    32
  0
VERTEX
  8
0
  5
F3B
 10
356.788
 20
505.754
 30
0.000000
  70
    32
  0
VERTEX
  8
0
  5
F3C
 10
365.661
 20
505.754
 30
0.000000
  70
    32
  0
SEQEND
  8
0
  5
F3D
  0
LINE
  5
988
  8
DRG2
  6
PHANTOM
 10
417.42271433812408
 20
548.28184782375229
 30
0.0
 11
311.42271433812431
 21
548.2818478237524
 31
0.0
  0
LINE
  5
989
  8
DRG2
  6
PHANTOM
 10
417.42271433812408
 20
578.28184782375229
 30
0.0
 11
311.42271433812408
 21
578.2818478237524
 31
0.0
  0
LINE
  5
98A
  8
DRG2
  6
PHANTOM
 10
417.42271433812408
 20
578.28184782375229
 30
0.0
 11
417.42271433812408
 21
548.28184782375229
 31
0.0
  0
LINE
  5
98B
  8
DRG2
  6
PHANTOM
 10
418.92271433812408
 20
576.78184782375217
 30
0.0
 11
418.92271433812408
 21
549.78184782375229
 31
0.0
  0
LINE
  5
98C
  8
DRG2
  6
PHANTOM
 10
417.42271433812408
 20
548.28184782375229
 30
0.0
 11
418.92271433812408
 21
549.78184782375229
 31
0.0
  0
LINE
  5
98D
  8
DRG2
  6
PHANTOM
 10
417.42271433812408
 20
578.28184782375229
 30
0.0
 11
418.92271433812408
 21
576.78184782375217
 31
0.0
  0
DIMENSION
  5
98E
  8
DIM
  2
*D1
 10
418.92271433812408
 20
707.70488186591069
 30
0.0
 11
365.17271433812431
 21
713.54988186591072
 31
0.0
 70
     0
 13
311.42271433812459
 23
592.28184782375286
 33
0.0
 14
418.92271433812408
 24
576.78184782375217
 34
0.0
  0
TEXT
  5
98F
  8
DIM
 10
353.15220923711212
 20
699.33904671358459
 30
0.0
 40
5.0
  1
(4.25")
 72
     4
 11
365.77125685615971
 21
701.4819038564417
 31
0.0
  0
LINE
  5
990
  8
DRG2
  6
PHANTOM
 10
373.42271433812408
 20
581.08184782375201
 30
0.0
 11
413.91771120921169
 21
581.08184782375201
 31
0.0
  0
LINE
  5
991
  8
DRG2
  6
PHANTOM
 10
413.91771120921169
 20
578.28184782375229
 30
0.0
 11
413.91771120921169
 21
581.08184782375201
 31
0.0
  0
LINE
  5
992
  8
DRG2
  6
PHANTOM
 10
373.42271433812391
 20
578.28184782375229
 30
0.0
 11
373.42271433812391
 21
581.08184782375201
 31
0.0
  0
TEXT
  5
993
  8
DIM
 10
345.44573535293858
 20
689.50878934053435
 30
0.0
 40
5.0
  1
DOWNWARD 
  0
TEXT
  5
994
  8
DIM
 10
332.31509455862198
 20
681.25752942649524
 30
0.0
 40
5.0
  1
FACING SHAFT IS
  0
ARC
  5
995
  8
DRG
 62
     1
 10
218.42271433812411
 20
616.08184782375292
 30
0.0
 40
3.0
 50
180.0
 51
270.0
  0
ARC
  5
996
  8
DRG
 62
     1
 10
247.42271433812411
 20
595.47572473714865
 30
0.0
 40
3.0
 50
180.0
 51
246.20454153183391
  0
LINE
  5
997
  8
DRG
 62
     1
 10
271.42271433812459
 20
437.68999290535697
 30
0.0
 11
271.42271433812459
 21
546.76925483970331
 31
0.0
  0
LINE
  5
998
  8
DRG
 62
     1
 10
291.42271433812431
 20
436.36929423669278
 30
0.0
 11
291.42271433812431
 21
516.17443089661776
 31
0.0
  0
TEXT
  5
9A0
  8
DIM
 10
334.37856568136959
 20
672.49174656049445
 30
0.0
 40
5.0
  1
NON-STANDARD
  0
TEXT
  5
9A1
  8
DIM
 10
344.91524095108281
 20
664.30549621186674
 30
0.0
 40
5.0
  1
BUT IS AN 
  0
TEXT
  5
9A2
  8
DIM
 10
331.72002421986991
 20
655.24669017572785
 30
0.0
 40
5.0
  1
OPTIONAL EXTRA
  0
TEXT
  5
9A3
  8
DIM
 10
330.7398777530322
 20
528.02012480399515
 30
0.0
 40
5.0
  1
(0.47")
 72
     4
 11
343.3589253720798
 21
530.16298194685226
 31
0.0
  0
LINE
  5
9A5
  8
DIM
 10
335.53588175834381
 20
535.99990248952849
 30
0.0
 11
341.43855169298519
 21
535.99990248952849
 31
0.0
  0
LINE
  5
9A6
  8
DIM
 10
348.2798571952672
 20
535.99990248952849
 30
0.0
 11
356.01413303893918
 21
535.99990248952849
 31
0.0
  0
LINE
  5
9A7
  8
DRG2
  6
PHANTOM
 10
585.94914622120427
 20
581.08184782375201
 30
0.0
 11
593.9491462212045
 21
581.08184782375201
 31
0.0
  0
ARC
  5
9A8
  8
DRG2
  6
PHANTOM
 10
589.94914622120439
 20
563.08184782375292
 30
0.0
 40
15.0
 50
105.4660099534196
 51
74.533990046580314
  0
LINE
  5
9A9
  8
DRG2
  6
PHANTOM
 10
585.94914622120427
 20
574.08184782375213
 30
0.0
 11
585.94914622120427
 21
581.08184782375201
 31
0.0
  0
LINE
  5
9AA
  8
DRG2
  6
PHANTOM
 10
593.94914622120439
 20
574.08184782375213
 30
0.0
 11
593.94914622120439
 21
581.08184782375201
 31
0.0
  0
LINE
  5
9AB
  8
DRG2
  6
PHANTOM
 10
585.94914622120427
 20
574.08184782375213
 30
0.0
 11
593.9491462212045
 21
574.08184782375213
 31
0.0
  0
LINE
  5
9EF
  8
DRG
 10
227.4521858777745
 20
935.79052051292751
 30
0.0
 11
227.4521858777745
 21
922.68439742632336
 31
0.0
  0
ARC
  5
9F0
  8
DRG
 10
230.45218587777461
 20
922.68439742632336
 30
0.0
 40
3.0
 50
180.0
 51
246.20454153183391
  0
LINE
  5
9F1
  8
DRG
 10
198.4521858777745
 20
948.49052051292642
 30
0.0
 11
234.29692864271689
 21
948.49052051292642
 31
0.0
  0
LINE
  5
9F2
  8
DRG
 10
201.45218587777461
 20
940.29052051292751
 30
0.0
 11
222.9521858777745
 21
940.29052051292751
 31
0.0
  0
ARC
  5
9F3
  8
DRG
 10
222.9521858777745
 20
935.79052051292751
 30
0.0
 40
4.5
 50
0.0
 51
90.0
  0
ARC
  5
9F4
  8
DRG
 10
201.45218587777461
 20
943.29052051292751
 30
0.0
 40
3.0
 50
180.0
 51
270.0
  0
LINE
  5
9F5
  8
DRG
 10
198.4521858777745
 20
840.27237165252552
 30
0.0
 11
206.4521858777745
 21
840.27237165252552
 31
0.0
  0
ARC
  5
9F6
  8
DRG
 10
206.4521858777745
 20
836.27237165252552
 30
0.0
 40
4.0
 50
0.0
 51
90.0
  0
LINE
  5
9F7
  8
DRG
 10
210.4521858777745
 20
801.79052051292649
 30
0.0
 11
210.4521858777745
 21
836.27237165252552
 31
0.0
  0
LINE
  5
A46
  8
DRG
 62
     1
 10
324.42271433812431
 20
496.58184782375292
 30
0.0
 11
291.42271433812431
 21
496.58184782375292
 31
0.0
  0
INSERT
  5
BE7
  8
0
  2
ROTORK_GEARS_LOGO
 10
12.75457693508252
 20
15.98260227257312
 30
0.0
 41
0.70000000000001
 42
0.70000000000001
 43
0.7000000000000001
  0
VIEWPORT
  5
31
 67
     1
  8
0
 10
210.00000022409631
 20
152.0942409999999
 30
0.0
 40
420.00000044819268
 41
304.18848199999991
 68
     1
 69
     1
1001
ACAD
1000
MVIEW
1002
{
1070
    16
1010
0.0
1020
0.0
1030
0.0
1010
0.0
1020
0.0
1030
1.0
1040
0.0
1040
304.18848199999991
1040
210.00000022409631
1040
152.0942409999999
1040
50.0
1040
0.0
1040
0.0
1070
     0
1070
  2000
1070
     1
1070
     1
1070
     1
1070
     0
1070
     0
1070
     1
1040
0.0
1040
0.0
1040
0.0
1040
5.0
1040
5.0
1040
10.0
1040
10.0
1070
     0
1002
{
1002
}
1002
}
  0
ENDSEC
  0
EOF
