  0
SECTION
  2
HEADER
  9
$ACADVER
  1
AC1009
  9
$INSBASE
 10
0.0
 20
0.0
 30
0.0
  9
$EXTMIN
 10
10.0
 20
37.029034967232228
 30
0.0
  9
$EXTMAX
 10
760.0
 20
1063.6280697327441
 30
1.8
  9
$LIMMIN
 10
0.0
 20
0.0
  9
$LIMMAX
 10
840.0
 20
1188.0
  9
$ORTHOMODE
 70
     1
  9
$REGENMODE
 70
     1
  9
$FILLMODE
 70
     1
  9
$QTEXTMODE
 70
     0
  9
$MIRRTEXT
 70
     0
  9
$DRAGMODE
 70
     2
  9
$LTSCALE
 40
0.5
  9
$OSMODE
 70
    47
  9
$ATTMODE
 70
     1
  9
$TEXTSIZE
 40
5.0
  9
$TRACEWID
 40
10.0
  9
$TEXTSTYLE
  7
STANDARD
  9
$CLAYER
  8
DIM
  9
$CELTYPE
  6
BYLAYER
  9
$CECOLOR
 62
   256
  9
$DIMSCALE
 40
1.0
  9
$DIMASZ
 40
6.0
  9
$DIMEXO
 40
5.0
  9
$DIMDLI
 40
10.0
  9
$DIMRND
 40
0.0
  9
$DIMDLE
 40
1.25
  9
$DIMEXE
 40
2.0
  9
$DIMTP
 40
0.0
  9
$DIMTM
 40
0.0
  9
$DIMTXT
 40
5.0
  9
$DIMCEN
 40
0.0
  9
$DIMTSZ
 40
0.0
  9
$DIMTOL
 70
     0
  9
$DIMLIM
 70
     0
  9
$DIMTIH
 70
     0
  9
$DIMTOH
 70
     0
  9
$DIMSE1
 70
     0
  9
$DIMSE2
 70
     0
  9
$DIMTAD
 70
     1
  9
$DIMZIN
 70
     0
  9
$DIMBLK
  1

  9
$DIMASO
 70
     1
  9
$DIMSHO
 70
     0
  9
$DIMPOST
  1

  9
$DIMAPOST
  1

  9
$DIMALT
 70
     0
  9
$DIMALTD
 70
     2
  9
$DIMALTF
 40
0.039
  9
$DIMLFAC
 40
1.0
  9
$DIMTOFL
 70
     0
  9
$DIMTVP
 40
1.5
  9
$DIMTIX
 70
     0
  9
$DIMSOXD
 70
     0
  9
$DIMSAH
 70
     0
  9
$DIMBLK1
  1

  9
$DIMBLK2
  1

  9
$DIMSTYLE
  2
STD
  9
$DIMCLRD
 70
   256
  9
$DIMCLRE
 70
   256
  9
$DIMCLRT
 70
   256
  9
$DIMTFAC
 40
0.75
  9
$DIMGAP
 40
1.5
  9
$LUNITS
 70
     2
  9
$LUPREC
 70
     2
  9
$SKETCHINC
 40
1.0
  9
$FILLETRAD
 40
3.0
  9
$AUNITS
 70
     0
  9
$AUPREC
 70
     2
  9
$MENU
  1
ACAD
  9
$ELEVATION
 40
0.0
  9
$PELEVATION
 40
0.0
  9
$THICKNESS
 40
0.0
  9
$LIMCHECK
 70
     0
  9
$BLIPMODE
 70
     0
  9
$CHAMFERA
 40
0.0
  9
$CHAMFERB
 40
0.0
  9
$SKPOLY
 70
     1
  9
$TDCREATE
 40
2449624.6341687501
  9
$TDUPDATE
 40
2452817.4647025
  9
$TDINDWG
 40
0.6095056019
  9
$TDUSRTIMER
 40
0.6095056019
  9
$USRTIMER
 70
     1
  9
$ANGBASE
 50
0.0
  9
$ANGDIR
 70
     0
  9
$PDMODE
 70
     3
  9
$PDSIZE
 40
0.0
  9
$PLINEWID
 40
0.0
  9
$COORDS
 70
     1
  9
$SPLFRAME
 70
     0
  9
$SPLINETYPE
 70
     6
  9
$SPLINESEGS
 70
     6
  9
$ATTDIA
 70
     0
  9
$ATTREQ
 70
     1
  9
$HANDLING
 70
  4097
  9
$HANDSEED
  5
10C1
  9
$SURFTAB1
 70
    18
  9
$SURFTAB2
 70
    18
  9
$SURFTYPE
 70
     6
  9
$SURFU
 70
    18
  9
$SURFV
 70
    18
  9
$UCSNAME
  2

  9
$UCSORG
 10
0.0
 20
0.0
 30
0.0
  9
$UCSXDIR
 10
1.0
 20
0.0
 30
0.0
  9
$UCSYDIR
 10
0.0
 20
1.0
 30
0.0
  9
$PUCSNAME
  2

  9
$PUCSORG
 10
0.0
 20
0.0
 30
0.0
  9
$PUCSXDIR
 10
1.0
 20
0.0
 30
0.0
  9
$PUCSYDIR
 10
0.0
 20
1.0
 30
0.0
  9
$USERI1
 70
     0
  9
$USERI2
 70
     0
  9
$USERI3
 70
     0
  9
$USERI4
 70
     0
  9
$USERI5
 70
     0
  9
$USERR1
 40
0.0
  9
$USERR2
 40
0.0
  9
$USERR3
 40
0.0
  9
$USERR4
 40
0.0
  9
$USERR5
 40
0.0
  9
$WORLDVIEW
 70
     0
  9
$SHADEDGE
 70
     3
  9
$SHADEDIF
 70
    70
  9
$TILEMODE
 70
     1
  9
$MAXACTVP
 70
    16
  9
$PLIMCHECK
 70
     0
  9
$PEXTMIN
 10
1.0000000000000000E+020
 20
1.0000000000000000E+020
 30
1.0000000000000000E+020
  9
$PEXTMAX
 10
-1.0000000000000000E+020
 20
-1.0000000000000000E+020
 30
-1.0000000000000000E+020
  9
$PLIMMIN
 10
0.0
 20
0.0
  9
$PLIMMAX
 10
420.0
 20
297.0
  9
$UNITMODE
 70
     0
  9
$VISRETAIN
 70
     0
  9
$PLINEGEN
 70
     0
  9
$PSLTSCALE
 70
     0
  0
ENDSEC
  0
SECTION
  2
TABLES
  0
TABLE
  2
VPORT
 70
     2
  0
VPORT
  2
*ACTIVE
 70
     0
 10
0.0
 20
0.0
 11
1.0
 21
1.0
 12
75.05355066040272
 22
0.0
 13
0.0
 23
0.0
 14
5.0
 24
5.0
 15
50.0
 25
50.0
 16
0.0
 26
0.0
 36
1.0
 17
496.49305805330789
 27
550.31286892610694
 37
0.0
 40
1034.6361490779921
 41
1.7512195121951211
 42
50.0
 43
0.0
 44
0.0
 50
0.0
 51
0.0
 71
     0
 72
  2000
 73
     1
 74
     2
 75
     0
 76
     0
 77
     0
 78
     1
  0
ENDTAB
  0
TABLE
  2
LTYPE
 70
    15
  0
LTYPE
  2
CONTINUOUS
 70
     0
  3
Solid line
 72
    65
 73
     0
 40
0.0
  0
LTYPE
  2
CENTER
 70
     0
  3
____ _ ____ _ ____ _ ____ _ ____ _ ____ _ ____ 
 72
    65
 73
     4
 40
50.0
 49
31.25
 49
-6.25
 49
6.25
 49
-6.25
  0
LTYPE
  2
HIDDEN
 70
     0
  3
_ _ _ _ _ _ _ _ _ _ _ _ _ _ _ _ _ _ _ _ _ _ _ _
 72
    65
 73
     2
 40
9.375
 49
6.25
 49
-3.125
  0
LTYPE
  2
CENTRE
 70
     0
  3
____ _ ____ _ ____ _ ____ _ ____ _ ____ _ ____ 
 72
    65
 73
     4
 40
50.0
 49
31.25
 49
-6.25
 49
6.25
 49
-6.25
  0
LTYPE
  2
PHANTOM
 70
     0
  3
Phantom ______  __  __  ______  __  __  ______
 72
    65
 73
     6
 40
2.5
 49
1.25
 49
-0.25
 49
0.25
 49
-0.25
 49
0.25
 49
-0.25
  0
LTYPE
  2
PHANTOM2
 70
     0
  3
Phantom (.5x) ___ _ _ ___ _ _ ___ _ _ ___ _ _
 72
    65
 73
     6
 40
1.25
 49
0.625
 49
-0.125
 49
0.125
 49
-0.125
 49
0.125
 49
-0.125
  0
LTYPE
  2
ASULTYPE
 70
     0
  3
Solid line
 72
    65
 73
     2
 40
3.0
 49
2.5
 49
0.5
  0
LTYPE
  2
ASVLTYPE
 70
     0
  3
__ __ __ __ __ __ __ __ __ __ __ __ __ __ __ __ __ __ __ __ __
 72
    65
 73
     2
 40
0.75
 49
0.5
 49
-0.25
  0
LTYPE
  2
AM_ISO02W050
 70
     0
  3
__ __ __ __ __ __ __ __ __ __ __ __ __ __ __
 72
    65
 73
     2
 40
7.5
 49
6.0
 49
-1.5
  0
LTYPE
  2
AM_ISO08W050
 70
     0
  3
____ . ____ . ____ . ____ . ____ . ____ . ____
 72
    65
 73
     4
 40
18.0
 49
12.0
 49
-1.5
 49
3.0
 49
-1.5
  0
LTYPE
  2
AM_ISO09W050
 70
     0
  3
_____ . . _____ . . _____ . . ____ .. ____
 72
    65
 73
     6
 40
22.5
 49
12.0
 49
-1.5
 49
3.0
 49
-1.5
 49
3.0
 49
-1.5
  0
LTYPE
  2
AMCONSTR
 70
     0
  3
_______________________
 72
    65
 73
     2
 40
9999.0
 49
9999.0
 49
0.0
  0
LTYPE
  2
AM_ISO08W050X2
 70
     0
  3
__ . __ . __ . __ . __ . __
 72
    65
 73
     4
 40
9.0
 49
6.0
 49
-0.75
 49
1.5
 49
-0.75
  0
LTYPE
  2
AM_ISO02W050X2
 70
     0
  3
 _ _ _ _ _ _ _ _ _ _ _ _
 72
    65
 73
     2
 40
3.75
 49
3.0
 49
-0.75
  0
LTYPE
  2
AMZIGZAG
 70
     0
  3
/\/-/\/-/\/-/\/-/\/-/\/
 72
    65
 73
     2
 40
11.000099999999991
 49
0.0001
 49
-11.0
  0
ENDTAB
  0
TABLE
  2
LAYER
 70
     9
  0
LAYER
  2
0
 70
     0
 62
     7
  6
CONTINUOUS
  0
LAYER
  2
DRG
 70
     0
 62
     1
  6
CONTINUOUS
  0
LAYER
  2
CRS
 70
     0
 62
     3
  6
CENTER
  0
LAYER
  2
HID
 70
     0
 62
     6
  6
HIDDEN
  0
LAYER
  2
BORT
 70
     0
 62
     7
  6
CONTINUOUS
  0
LAYER
  2
TXT
 70
     0
 62
     4
  6
CONTINUOUS
  0
LAYER
  2
DIM
 70
     0
 62
     2
  6
CONTINUOUS
  0
LAYER
  2
DRG2
 70
     0
 62
     8
  6
CONTINUOUS
  0
LAYER
  2
DEFPOINTS
 70
     0
 62
     7
  6
CONTINUOUS
  0
ENDTAB
  0
TABLE
  2
STYLE
 70
     3
  0
STYLE
  2
STANDARD
 70
     0
 40
0.0
 41
1.0
 50
0.0
 71
     0
 42
5.0
  3
SIMPLEX
  4

  0
STYLE
  2
ROMANS
 70
     0
 40
5.0
 41
1.0
 50
0.0
 71
     0
 42
5.0
  3
romans
  4

  0
STYLE
  2

 70
     1
 40
0.0
 41
1.0
 50
0.0
 71
     0
 42
5.0
  3
ltypeshp.shx
  4

  0
ENDTAB
  0
TABLE
  2
VIEW
 70
     0
  0
ENDTAB
  0
TABLE
  2
UCS
 70
     0
  0
ENDTAB
  0
TABLE
  2
APPID
 70
    12
  0
APPID
  2
ACAD
 70
     0
  0
APPID
  2
GENIUS_GENDIM_13
 70
     0
  0
APPID
  2
GENIUS_GENDTOL_13
 70
     0
  0
APPID
  2
GENIUS_GE3DTOL_13
 70
     0
  0
APPID
  2
MCAD_NO_VIS
 70
     0
  0
APPID
  2
ACAD_TEMP_GRAPHIC
 70
     0
  0
APPID
  2
AD_DRAW
 70
     0
  0
APPID
  2
ACATTRIBSERVICES
 70
     0
  0
APPID
  2
ASURF_PCURVE_APPNAME
 70
     0
  0
APPID
  2
DESIGNERASSEMBLIES
 70
     0
  0
APPID
  2
ACADM_DIM_EDIT
 70
     0
  0
APPID
  2
CONTENTBLOCKICON
 70
     0
  0
ENDTAB
  0
TABLE
  2
DIMSTYLE
 70
     2
  0
DIMSTYLE
  2
STD
 70
     0
  3

  4

  5

  6

  7

 40
1.0
 41
6.0
 42
5.0
 43
10.0
 44
2.0
 45
0.0
 46
1.25
 47
0.0
 48
0.0
140
5.0
141
0.0
142
0.0
143
0.039
144
1.0
145
1.5
146
0.75
147
1.5
 71
     0
 72
     0
 73
     0
 74
     0
 75
     0
 76
     0
 77
     1
 78
     0
170
     0
171
     2
172
     0
173
     0
174
     0
175
     0
176
   256
177
   256
178
   256
  0
DIMSTYLE
  2
STANDARD
 70
     0
  3

  4

  5

  6

  7

 40
1.0
 41
6.0
 42
2.5
 43
10.0
 44
2.5
 45
0.0
 46
1.25
 47
0.0
 48
0.0
140
3.0
141
-3.0
142
0.0
143
0.039
144
1.0
145
1.5
146
0.75
147
1.5
 71
     0
 72
     0
 73
     0
 74
     0
 75
     0
 76
     0
 77
     0
 78
     0
170
     0
171
     2
172
     0
173
     0
174
     0
175
     0
176
     0
177
     0
178
     0
  0
ENDTAB
  0
ENDSEC
  0
SECTION
  2
BLOCKS
  0
BLOCK
  8
0
  2
$MODEL_SPACE
 70
     0
 10
0.0
 20
0.0
 30
0.0
  3
$MODEL_SPACE
  1

  0
ENDBLK
  5
44A
  8
0
  0
BLOCK
 67
     1
  8
0
  2
$PAPER_SPACE
 70
     0
 10
0.0
 20
0.0
 30
0.0
  3
$PAPER_SPACE
  1

  0
ENDBLK
  5
448
 67
     1
  8
0
  0
BLOCK
  8
0
  2
*D0
 70
     1
 10
0.0
 20
0.0
 30
0.0
  3
*D0
  1

  0
LINE
  5
B46
  8
DIM
 10
196.67677241780899
 20
707.58550297423744
 30
0.0
 11
196.67677241780899
 21
768.58550297423744
 31
0.0
  0
LINE
  5
B47
  8
DIM
 10
288.67677241780922
 20
702.58550297423744
 30
0.0
 11
288.67677241780922
 21
768.58550297423744
 31
0.0
  0
LINE
  5
B48
  8
DIM
 10
202.67677241780899
 20
766.58550297423744
 30
0.0
 11
282.67677241780922
 21
766.58550297423744
 31
0.0
  0
SOLID
  5
B49
  8
DIM
 10
202.67677241780899
 20
767.58550297423744
 30
0.0
 11
202.67677241780899
 21
765.58550297423744
 31
0.0
 12
196.67677241780899
 22
766.58550297423744
 32
0.0
 13
196.67677241780899
 23
766.58550297423744
 33
0.0
  0
SOLID
  5
B4A
  8
DIM
 10
282.67677241780922
 20
767.58550297423744
 30
0.0
 11
282.67677241780922
 21
765.58550297423744
 31
0.0
 12
288.67677241780922
 22
766.58550297423744
 32
0.0
 13
288.67677241780922
 23
766.58550297423744
 33
0.0
  0
TEXT
  5
B4B
  8
DIM
 10
238.6291533701901
 20
768.08550297423744
 30
0.0
 40
5.0
  1
92
  0
POINT
  5
B4C
  8
DEFPOINTS
 62
     0
 10
196.67677241780899
 20
702.58550297423744
 30
0.0
  0
POINT
  5
B4D
  8
DEFPOINTS
 62
     0
 10
288.67677241780922
 20
697.58550297423744
 30
0.0
  0
POINT
  5
B4E
  8
DEFPOINTS
 62
     0
 10
288.67677241780922
 20
766.58550297423744
 30
0.0
  0
ENDBLK
  5
783
  8
0
  0
BLOCK
  8
0
  2
*D1
 70
     1
 10
0.0
 20
0.0
 30
0.0
  3
*D1
  1

  0
LINE
  5
B3D
  8
DIM
 10
288.67677241780922
 20
702.58550297423744
 30
0.0
 11
288.67677241780922
 21
768.58550297423744
 31
0.0
  0
LINE
  5
B3E
  8
DIM
 10
398.70177241780908
 20
665.08550297423756
 30
0.0
 11
398.70177241780908
 21
768.58550297423744
 31
0.0
  0
LINE
  5
B3F
  8
DIM
 10
294.67677241780922
 20
766.58550297423744
 30
0.0
 11
392.70177241780908
 21
766.58550297423744
 31
0.0
  0
SOLID
  5
B40
  8
DIM
 10
294.67677241780922
 20
767.58550297423744
 30
0.0
 11
294.67677241780922
 21
765.58550297423744
 31
0.0
 12
288.67677241780922
 22
766.58550297423744
 32
0.0
 13
288.67677241780922
 23
766.58550297423744
 33
0.0
  0
SOLID
  5
B41
  8
DIM
 10
392.70177241780908
 20
767.58550297423744
 30
0.0
 11
392.70177241780908
 21
765.58550297423744
 31
0.0
 12
398.70177241780908
 22
766.58550297423744
 32
0.0
 13
398.70177241780908
 23
766.58550297423744
 33
0.0
  0
TEXT
  5
B42
  8
DIM
 10
338.21308194161873
 20
768.08550297423744
 30
0.0
 40
5.0
  1
110
  0
POINT
  5
B43
  8
DEFPOINTS
 62
     0
 10
288.67677241780922
 20
697.58550297423744
 30
0.0
  0
POINT
  5
B44
  8
DEFPOINTS
 62
     0
 10
398.70177241780908
 20
660.08550297423756
 30
0.0
  0
POINT
  5
B45
  8
DEFPOINTS
 62
     0
 10
398.70177241780908
 20
766.58550297423744
 30
0.0
  0
ENDBLK
  5
9EC
  8
0
  0
BLOCK
  8
0
  2
*D2
 70
     1
 10
0.0
 20
0.0
 30
0.0
  3
*D2
  1

  0
LINE
  5
E37
  8
DIM
 10
280.17677241780899
 20
579.08550297423744
 30
0.0
 11
280.17677241780899
 21
591.01180487680256
 31
0.0
  0
LINE
  5
E38
  8
DIM
 10
288.67677241780871
 20
596.28550297423749
 30
0.0
 11
288.67677241780871
 21
587.01180487680256
 31
0.0
  0
LINE
  5
E39
  8
DIM
 10
274.17677241780899
 20
589.01180487680267
 30
0.0
 11
268.17677241780899
 21
589.01180487680267
 31
0.0
  0
LINE
  5
E3A
  8
DIM
 10
294.67677241780871
 20
589.01180487680267
 30
0.0
 11
309.21590214307042
 21
589.01180487680267
 31
0.0
  0
SOLID
  5
E3B
  8
DIM
 10
274.17677241780899
 20
590.01180487680256
 30
0.0
 11
274.17677241780899
 21
588.01180487680256
 31
0.0
 12
280.17677241780899
 22
589.01180487680267
 32
0.0
 13
280.17677241780899
 23
589.01180487680267
 33
0.0
  0
SOLID
  5
E3C
  8
DIM
 10
294.67677241780871
 20
590.01180487680256
 30
0.0
 11
294.67677241780871
 21
588.01180487680256
 31
0.0
 12
288.67677241780871
 22
589.01180487680267
 32
0.0
 13
288.67677241780871
 23
589.01180487680267
 33
0.0
  0
TEXT
  8
0
  40
5
  5
10B5
  72
0
  71
0
 10
296.168
 20
584.162
 30
0.000000
  1
9
  0
POINT
  5
E3E
  8
DEFPOINTS
 62
     0
 10
280.17677241780899
 20
574.08550297423744
 30
0.0
  0
POINT
  5
E3F
  8
DEFPOINTS
 62
     0
 10
288.67677241780871
 20
601.28550297423737
 30
0.0
  0
POINT
  5
E40
  8
DEFPOINTS
 62
     0
 10
288.67677241780871
 20
589.01180487680267
 30
0.0
  0
ENDBLK
  5
A69
  8
0
  0
BLOCK
  8
0
  2
*D3
 70
     1
 10
0.0
 20
0.0
 30
0.0
  3
*D3
  1

  0
LINE
  5
E41
  8
DIM
 10
288.17597241780919
 20
543.49287562139921
 30
0.0
 11
288.17597241780919
 21
525.01947961178485
 31
0.0
  0
LINE
  5
E42
  8
DIM
 10
274.17677241780899
 20
527.01947961178485
 30
0.0
 11
268.17677241780899
 21
527.01947961178485
 31
0.0
  0
LINE
  5
E43
  8
DIM
 10
294.17597241780919
 20
527.01947961178485
 30
0.0
 11
309.81564506142161
 21
527.01947961178485
 31
0.0
  0
SOLID
  5
E44
  8
DIM
 10
274.17677241780899
 20
528.01947961178485
 30
0.0
 11
274.17677241780899
 21
526.01947961178485
 31
0.0
 12
280.17677241780899
 22
527.01947961178485
 32
0.0
 13
280.17677241780899
 23
527.01947961178485
 33
0.0
  0
SOLID
  5
E45
  8
DIM
 10
294.17597241780919
 20
528.01947961178485
 30
0.0
 11
294.17597241780919
 21
526.01947961178485
 31
0.0
 12
288.17597241780919
 22
527.01947961178485
 32
0.0
 13
288.17597241780919
 23
527.01947961178485
 33
0.0
  0
TEXT
  8
0
  40
5
  5
10B6
  72
0
  71
0
 10
296.649
 20
522.169
 30
0.000000
  1
8
  0
POINT
  5
E47
  8
DEFPOINTS
 62
     0
 10
280.17677241780899
 20
574.0855029742371
 30
0.0
  0
POINT
  5
E48
  8
DEFPOINTS
 62
     0
 10
288.17597241780919
 20
548.49287562139909
 30
0.0
  0
POINT
  5
E49
  8
DEFPOINTS
 62
     0
 10
288.17597241780919
 20
527.01947961178485
 30
0.0
  0
ENDBLK
  5
A77
  8
0
  0
BLOCK
  8
0
  2
*D4
 70
     1
 10
0.0
 20
0.0
 30
0.0
  3
*D4
  1

  0
LINE
  5
BDA
  8
DIM
 10
280.17677241780927
 20
307.08550297423727
 30
0.0
 11
280.17677241780927
 21
280.72031358684711
 31
0.0
  0
LINE
  5
BDB
  8
DIM
 10
200.17677241780899
 20
388.0855029742375
 30
0.0
 11
200.17677241780899
 21
280.72031358684711
 31
0.0
  0
LINE
  5
BDC
  8
DIM
 10
274.17677241780927
 20
282.72031358684711
 30
0.0
 11
206.17677241780899
 21
282.72031358684711
 31
0.0
  0
SOLID
  5
BDD
  8
DIM
 10
274.17677241780927
 20
283.72031358684711
 30
0.0
 11
274.17677241780927
 21
281.72031358684711
 31
0.0
 12
280.17677241780927
 22
282.72031358684711
 32
0.0
 13
280.17677241780927
 23
282.72031358684711
 33
0.0
  0
SOLID
  5
BDE
  8
DIM
 10
206.17677241780899
 20
283.72031358684711
 30
0.0
 11
206.17677241780899
 21
281.72031358684711
 31
0.0
 12
200.17677241780899
 22
282.72031358684711
 32
0.0
 13
200.17677241780899
 23
282.72031358684711
 33
0.0
  0
TEXT
  5
BDF
  8
DIM
 10
236.1291533701901
 20
284.22031358684711
 30
0.0
 40
5.0
  1
80
  0
POINT
  5
BE0
  8
DEFPOINTS
 62
     0
 10
280.17677241780927
 20
312.08550297423727
 30
0.0
  0
POINT
  5
BE1
  8
DEFPOINTS
 62
     0
 10
200.17677241780899
 20
393.08550297423739
 30
0.0
  0
POINT
  5
BE2
  8
DEFPOINTS
 62
     0
 10
200.17677241780899
 20
282.72031358684711
 30
0.0
  0
ENDBLK
  5
BCF
  8
0
  0
BLOCK
  8
0
  2
*U5
 70
     1
 10
0.0
 20
0.0
 30
0.0
  3
*U5
  1

  0
ENDBLK
  5
C9E
  8
0
  0
BLOCK
  8
0
  2
LOGO
 70
     0
 10
0.0
 20
0.0
 30
0.0
  3
LOGO
  1

  0
INSERT
  5
CC9
  8
DRG
  6
CONTINUOUS
 62
     7
  2
*U8
 10
0.0
 20
0.0
 30
0.0
1001
ACAD
1002
{
1000
R14_HATCH_DATA
1000
CC9
1011
1.0
1021
-0.0
1031
-4.5073925062794786E+227
1021
0.0
1031
0.0
1011
0.0
1021
-0.0
1031
-4.5073925062794786E+227
1021
1.0
1031
0.0
1011
0.0
1021
-0.0
1031
-4.5073925062794786E+227
1021
0.0
1031
1.0
1040
0.0
1010
0.0
1020
0.0
1030
1.0
1000
SOLID
1070
     1
1070
     1
1071
       17
1071
        7
1070
     1
1070
     1
1071
        9
1040
18.821661727211438
1040
85.569427875032716
1040
-0.4142135623730951
1040
26.821661727211438
1040
93.569427875032716
1040
0.0
1040
28.191279411133561
1040
93.56942787503273
1040
0.0
1040
28.191279411133561
1040
102.0369718403326
1040
0.2674368359602434
1040
18.821661727211438
1040
97.915857504065912
1040
0.0
1040
18.821661727211438
1040
102.0369718403326
1040
0.0
1040
7.7802673214059723
1040
102.0369718403326
1040
0.0
1040
7.7802673214059723
1040
62.115696081838671
1040
0.0
1040
18.821661727211438
1040
62.115696081838678
1040
0.0
1071
        9
1005
CEC
1005
CF3
1005
CF2
1005
CF1
1005
CF0
1005
CEB
1005
CDB
1005
CDD
1005
CD9
1071
        7
1070
     1
1070
     1
1071
        8
1040
29.838142899665851
1040
72.897331735467191
1040
0.4142135623730863
1040
41.838142899665847
1040
60.89733173546756
1040
0.0
1040
47.650196927116667
1040
60.89733173546756
1040
0.4142126981028046
1040
59.650196927064421
1040
72.897296325816569
1040
0.0348233422700972
1040
59.650196927064421
1040
90.096337111694368
1040
0.4142126981028142
1040
47.650196927116667
1040
102.0963017020437
1040
0.0
1040
41.838142899665847
1040
102.0963017020437
1040
0.4142135623730893
1040
29.838142899665851
1040
90.096301702044016
1040
0.0348231985322414
1071
        8
1005
CCD
1005
CF4
1005
CEF
1005
CEE
1005
CDA
1005
CEA
1005
CCC
1005
D2B
1071
       22
1070
     1
1070
     1
1071
        4
1040
40.882971825549703
1040
90.337990088334166
1040
-1.0
1040
48.605370470334492
1040
90.337990088334735
1040
-0.0248818291691539
1040
48.605370470334492
1040
72.655643349175492
1040
-1.0
1040
40.882971825549703
1040
72.655643349177595
1040
-0.0248818291691501
1071
        4
1005
CCF
1005
D2A
1005
CCE
1005
CED
1071
        7
1070
     1
1070
     1
1071
       18
1040
67.331191210151701
1040
68.89733173546756
1040
0.4142135623730951
1040
75.331191210151701
1040
60.89733173546756
1040
0.0
1040
80.675802928262684
1040
60.89733173546756
1040
0.1450058980834471
1040
84.501142256151084
1040
62.072518178885289
1040
0.0
1040
84.501142256151084
1040
70.214764581409185
1040
-0.0833071563303517
1040
83.501142256151255
1040
69.876055965300111
1040
0.0
1040
80.482556033578916
1040
69.876055965300111
1040
-0.4142135623730951
1040
77.482556033578931
1040
72.876055965300111
1040
0.0
1040
77.482556033578931
1040
94.593352860836134
1040
0.0
1040
84.553623006881026
1040
94.593352860836134
1040
0.0
1040
84.553623006881026
1040
101.9948050433795
1040
0.0
1040
77.482556033578931
1040
101.9948050433795
1040
0.0
1040
77.482556033578931
1040
107.1280725498991
1040
0.0
1040
67.331191210151701
1040
107.1280725498991
1040
0.0
1040
67.331191210151701
1040
101.9948050433795
1040
0.0
1040
62.478989637268562
1040
101.9948050433795
1040
0.0
1040
62.478989637268569
1040
94.593352860836134
1040
0.0
1040
67.331191210151687
1040
94.593352860836134
1040
0.0
1071
       18
1005
D28
1005
D3C
1005
D29
1005
D34
1005
D32
1005
D33
1005
D2F
1005
D31
1005
D30
1005
D2C
1005
CFE
1005
D12
1005
D01
1005
CFF
1005
D39
1005
D27
1005
D2E
1005
D2D
1071
        7
1070
     1
1070
     1
1071
        8
1040
85.849782736700035
1040
72.897331735467475
1040
0.4142135623730931
1040
97.849782736700035
1040
60.89733173546756
1040
0.0
1040
103.66183676415081
1040
60.89733173546756
1040
0.4142126981028048
1040
115.6618367640986
1040
72.897296325816569
1040
0.0348233422700971
1040
115.6618367640986
1040
90.096337111694325
1040
0.4142126981028151
1040
103.66183676415081
1040
102.0963017020437
1040
0.0
1040
97.849782736700035
1040
102.0963017020437
1040
0.4142135623730893
1040
85.849782736700035
1040
90.096301702044016
1040
0.0348231985322409
1071
        8
1005
CFD
1005
D3D
1005
D3B
1005
D37
1005
D00
1005
D26
1005
CFC
1005
D64
1071
       22
1070
     1
1070
     1
1071
        4
1040
96.894611662583884
1040
90.337990088335033
1040
-1.0
1040
104.6170103073686
1040
90.337990088334763
1040
-0.0248818291691539
1040
104.6170103073686
1040
72.655643349175506
1040
-1.0
1040
96.894611662583884
1040
72.655643349177595
1040
-0.0248818291691514
1071
        4
1005
D3A
1005
D35
1005
D38
1005
D36
1071
        7
1070
     1
1070
     1
1071
        9
1040
119.0096173095521
1040
62.115696081838678
1040
0.0
1040
130.05101171535759
1040
62.115696081838671
1040
0.0
1040
130.05101171535759
1040
85.569427875032716
1040
-0.4142135623730946
1040
138.05101171535759
1040
93.569427875032716
1040
0.0
1040
139.4206293992797
1040
93.56942787503273
1040
0.0
1040
139.4206293992797
1040
102.0369718403325
1040
0.2674368359602435
1040
130.05101171535759
1040
97.915857504065855
1040
0.0
1040
130.05101171535759
1040
102.0369718403326
1040
0.0
1040
119.0096173095521
1040
102.0369718403326
1040
0.0
1071
        9
1005
D63
1005
D69
1005
D68
1005
D65
1005
D67
1005
D66
1005
D3F
1005
D4E
1005
D3E
1071
        7
1070
     0
1070
     1
1071
        4
1040
153.2899770207527
1040
102.0369718403326
1040
142.11987082690661
1040
102.0369718403326
1040
142.11987082690661
1040
62.115696081838678
1040
153.2899770207527
1040
62.115696081838678
1071
        4
1005
D62
1005
D43
1005
D47
1005
D42
1071
        7
1070
     0
1070
     1
1071
        9
1040
161.3332883364622
1040
62.115696081838678
1040
171.78072804963571
1040
62.115696081838678
1040
165.4162645291251
1040
78.311404477182364
1040
176.9709164189357
1040
78.31140447718235
1040
176.9709164189357
1040
86.855763084496857
1040
165.4162645291251
1040
86.855763084496886
1040
171.38205787173379
1040
102.0369718403326
1040
160.9346181585602
1040
102.0369718403326
1040
153.2899770207527
1040
82.583583780839575
1071
        9
1005
D6F
1005
D6E
1005
D6D
1005
D6A
1005
D41
1005
D5D
1005
D40
1005
D6C
1005
D6B
1071
        7
1070
     1
1070
     1
1071
       21
1040
152.52515784094209
1040
47.648154099737518
1040
-0.8501159182110916
1040
160.04745823702251
1040
46.421288526219293
1040
0.0
1040
160.04745823702251
1040
45.21828747592599
1040
0.0
1040
171.0912486890569
1040
45.21828747592599
1040
0.4103700463812956
1040
159.0922846938046
1040
57.06060729124669
1040
0.0
1040
153.28023066635379
1040
57.06060729124669
1040
0.3231315706904765
1040
141.8917942032017
1040
48.84260609145101
1040
0.1954153765693974
1040
142.3184035466634
1040
43.115005509834923
1040
0.2113556324406552
1040
155.72873071743231
1040
33.145354604103439
1040
-0.2264685134690167
1040
160.04745823702251
1040
29.300230626583549
1040
0.0
1040
160.04745823702251
1040
27.619948938379359
1040
-1.0
1040
152.32505959223769
1040
27.619948938379359
1040
0.0
1040
152.32505959223769
1040
29.959298931438969
1040
0.0
1040
141.28023066635379
1040
29.95929893143898
1040
0.0
1040
141.28023066635379
1040
27.861637324670479
1040
0.4142135623730951
1040
153.28023066635379
1040
15.861637324670481
1040
0.0
1040
159.0922846938046
1040
15.861637324670481
1040
0.4142135623730951
1040
171.0922846938046
1040
27.861637324670479
1040
0.0
1040
171.0922846938046
1040
29.95929893143904
1040
0.3201720163042325
1040
161.4128172083947
1040
39.98989916707626
1040
-0.1549843570040388
1040
153.4809683549079
1040
44.585756161105429
1040
-0.2969707756967668
1071
       21
1005
D5E
1005
D60
1005
D5B
1005
D5C
1005
D61
1005
D46
1005
D53
1005
D44
1005
D59
1005
D56
1005
D58
1005
D57
1005
D45
1005
D4B
1005
CF6
1005
CFA
1005
CF7
1005
D5A
1005
D55
1005
D54
1005
D5F
1071
        7
1070
     1
1070
     1
1071
        9
1040
116.19314081319391
1040
17.28637227261407
1040
0.0
1040
127.2345352189994
1040
17.28637227261407
1040
0.0
1040
127.2345352189994
1040
40.740104065808097
1040
-0.4142135623730953
1040
135.23453521899941
1040
48.740104065808111
1040
0.0
1040
136.6041529029215
1040
48.740104065808111
1040
0.0
1040
136.6041529029215
1040
57.207648031108022
1040
0.2674368359602446
1040
127.2345352189994
1040
53.086533694841222
1040
0.0
1040
127.2345352189994
1040
57.207648031108022
1040
0.0
1040
116.19314081319391
1040
57.207648031108022
1040
0.0
1071
        9
1005
D4C
1005
D50
1005
D4F
1005
D49
1005
D4A
1005
D48
1005
D4D
1005
D52
1005
D51
1071
        7
1070
     1
1070
     1
1071
       18
1040
111.2523129779601
1040
45.06060729124669
1040
0.4142135623730951
1040
99.252312977960173
1040
57.06060729124669
1040
0.0
1040
93.440258950509346
1040
57.06060729124669
1040
0.3935971290544443
1040
81.470405744524527
1040
45.910674481046733
1040
0.0
1040
92.485087876393209
1040
45.910674481046733
1040
0.0
1040
92.485087876393209
1040
47.313129977668268
1040
-1.0
1040
100.2074865211779
1040
47.313129977668268
1040
0.0
1040
100.207486521178
1040
42.948196427274922
1040
0.0
1040
93.358174068518778
1040
42.948196427274922
1040
0.3803366342075343
1040
81.440258950509346
1040
32.349374231810209
1040
0.0
1040
81.440258950509346
1040
27.861637324670479
1040
0.212203934851876
1040
85.398663329684837
1040
18.95474449545469
1040
0.2715779457989354
1040
94.991749269489972
1040
17.839408458597308
1040
0.2212147422997974
1040
102.1211660476033
1040
23.542010892025001
1040
0.0
1040
102.1211660476033
1040
21.102600968374279
1040
0.048558820350044
1040
102.6710305977499
1040
17.89352120355198
1040
0.0
1040
111.8021775281067
1040
17.893521203552009
1040
-0.0850534761391249
1040
111.2523129779601
1040
23.54201089202471
1040
0.0
1071
       18
1005
CFB
1005
D22
1005
D04
1005
D23
1005
D24
1005
D21
1005
D25
1005
D20
1005
D02
1005
D18
1005
D03
1005
CF5
1005
D14
1005
D1C
1005
D1B
1005
D1A
1005
D1D
1005
D13
1071
       22
1070
     1
1070
     1
1071
        6
1040
101.5095597489034
1040
37.384730871555568
1040
0.0
1040
101.5095597489034
1040
29.984856014372749
1040
-0.4101584254678068
1040
95.863486513980718
1040
23.758749615986972
1040
-0.4142135623730822
1040
92.002287191588479
1040
27.619948938379359
1040
0.0
1040
92.002287191588479
1040
33.041326503689838
1040
-0.3592987923427892
1040
97.969021393668683
1040
37.384730871555568
1040
0.0
1071
        6
1005
D1E
1005
D16
1005
D19
1005
D17
1005
D15
1005
D1F
1071
        7
1070
     1
1070
     1
1071
       14
1040
74.280536421539182
1040
35.629722934820848
1040
0.0
1040
74.280536421539182
1040
45.06060729124669
1040
0.4142135623730951
1040
62.280536421539182
1040
57.06060729124669
1040
0.0
1040
56.468482394088369
1040
57.06060729124669
1040
0.4142135623730892
1040
44.468482394088362
1040
45.060607291246939
1040
0.0348231985322411
1040
44.468482394088362
1040
27.861637324670291
1040
0.4142135623730907
1040
56.468482394088369
1040
15.861637324670481
1040
0.0
1040
62.280536421539182
1040
15.861637324670481
1040
0.4142135623730951
1040
74.280536421539182
1040
27.861637324670479
1040
0.0
1040
74.280536421539196
1040
30.816887788353831
1040
0.0
1040
63.235709964757
1040
30.81688778835381
1040
0.0
1040
63.235709964757007
1040
27.61994893837937
1040
-1.0
1040
55.513311319972217
1040
27.61994893837937
1040
0.0
1040
55.513311319972232
1040
35.629722934820848
1040
0.0
1071
       14
1005
D0C
1005
D11
1005
CCB
1005
CDF
1005
CCA
1005
CF9
1005
CF8
1005
D0B
1005
D06
1005
D08
1005
D0A
1005
D09
1005
D07
1005
D05
1071
       22
1070
     1
1070
     1
1071
        4
1040
63.235709964756971
1040
41.923431282527652
1040
0.0
1040
55.51331131997221
1040
41.923431282527638
1040
0.0
1040
55.513311319972217
1040
46.690614073903141
1040
-1.0
1040
63.235709964757007
1040
46.690614073903127
1040
0.0
1071
        4
1005
D0D
1005
D0F
1005
D0E
1005
D10
1071
        7
1070
     1
1070
     1
1071
       15
1040
37.639779947293832
1040
57.06060729124669
1040
0.0
1040
27.267121908897028
1040
57.06060729124669
1040
0.0
1040
27.267121908897021
1040
51.255838552818979
1040
0.3392741364964821
1040
18.58303542025671
1040
58.127888502333931
1040
0.3975671648689696
1040
7.030577403887583
1040
46.170226698962978
1040
0.0322586733839356
1040
7.0565934473582743
1040
30.23514359210488
1040
0.381674351628262
1040
18.58303542025671
1040
18.945146626805109
1040
0.3392741364964824
1040
27.267121908897021
1040
25.817196576320061
1040
0.0
1040
27.267121908897021
1040
13.51984597021351
1040
-1.0
1040
19.544723264112228
1040
13.51984597021351
1040
0.0
1040
19.544723264112239
1040
14.846027306936771
1040
0.0
1040
7.7279273094568479
1040
14.846027306936771
1040
0.435111756420548
1040
18.100585347853119
1040
3.392610111620797
1040
0.0
1040
25.69916102541525
1040
3.392610111620797
1040
0.3589835117613411
1040
37.639779947293839
1040
13.760967175618781
1040
0.0
1071
       15
1005
CE5
1005
CE9
1005
CE8
1005
CDC
1005
CDE
1005
CD0
1005
CE4
1005
CD1
1005
CD7
1005
CD8
1005
CD3
1005
CD4
1005
CD6
1005
CD5
1005
CD2
1071
       22
1070
     1
1070
     1
1071
        6
1040
27.387732575171409
1040
32.086434320449378
1040
-0.3635850888704513
1040
22.683854862926161
1040
25.455509253088579
1040
-0.4081657147783189
1040
17.256300807526252
1040
30.5191262631974
1040
0.0
1040
17.256300807526252
1040
46.312783983787632
1040
-0.4081657147783226
1040
22.683854862926282
1040
51.376400993896397
1040
-0.3635850888704468
1040
27.387732575171409
1040
44.745475926535612
1040
0.0
1071
        6
1005
CE3
1005
CE2
1005
CE1
1005
CE6
1005
CE7
1005
CE0
1070
     0
1070
     1
1040
0.2228598800114194
1071
       17
1040
17.63743802729277
1040
76.626905651017751
1040
0.0
1040
33.91754890401171
1040
77.741205688022092
1040
0.0
1040
33.91754890401171
1040
77.741205688022092
1040
0.0
1040
69.153945982282949
1040
79.301225382558854
1040
0.0
1040
91.455465417142008
1040
80.861243290751887
1040
0.0
1040
91.455465417142008
1040
80.861243290751887
1040
0.0
1040
120.67045393727309
1040
80.861243290751887
1040
0.0
1040
151.44655150816561
1040
79.746945040091759
1040
0.0
1040
157.69097519808881
1040
82.198402263350317
1040
0.0
1040
149.43941532211869
1040
47.209401108474808
1040
0.0
1040
122.2315629880345
1040
49.21514046054449
1040
0.0
1040
107.73557316557979
1040
43.19792419067948
1040
0.0
1040
107.73557316557979
1040
43.19792419067948
1040
0.0
1040
69.376961114066034
1040
40.30074552354403
1040
0.0
1040
69.376961114066034
1040
40.30074552354403
1040
0.0
1040
30.572318798986078
1040
42.306483089269697
1040
0.0
1040
30.572318798986078
1040
42.306483089269697
1040
0.0
1002
}
  0
ARC
  5
CCA
  8
DRG
 62
     7
 10
56.468482394088369
 20
27.861637324670479
 30
0.0
 40
12.0
 50
180.0
 51
270.0
  0
ARC
  5
CCB
  8
DRG
 62
     7
 10
56.468482394088369
 20
45.06060729124669
 30
0.0
 40
12.0
 50
90.0
 51
180.0
  0
ARC
  5
CCC
  8
DRG
 62
     7
 10
47.650196927116667
 20
72.89733173546756
 30
0.0
 40
12.0
 50
270.0
 51
0.0
  0
ARC
  5
CCD
  8
DRG
 62
     7
 10
47.650196927116667
 20
90.096301702043775
 30
0.0
 40
12.0
 50
0.0
 51
90.0
  0
ARC
  5
CCE
  8
DRG
 62
     7
 10
44.74417114794209
 20
72.655643349176444
 30
0.0
 40
3.8611993223923942
 50
180.0
 51
0.0
  0
ARC
  5
CCF
  8
DRG
 62
     7
 10
44.74417114794209
 20
90.337990088334877
 30
0.0
 40
3.8611993223923942
 50
0.0
 51
180.0
  0
ARC
  5
CD0
  8
DRG
 62
     7
 10
19.137584483414571
 20
31.0402274344309
 30
0.0
 40
12.107786932649869
 50
183.81258486583951
 51
267.37487616930952
  0
LINE
  5
CD1
  8
DRG
 62
     7
 10
27.267121908897021
 20
13.51984597021351
 30
0.0
 11
27.267121908897021
 21
25.817196576319979
 31
0.0
  0
LINE
  5
CD2
  8
DRG
 62
     7
 10
37.639779947293839
 20
13.760967175618591
 30
0.0
 11
37.639779947293839
 21
57.06060729124669
 31
0.0
  0
LINE
  5
CD3
  8
DRG
 62
     7
 10
7.7279273094568453
 20
14.846027306936771
 30
0.0
 11
19.544723264112228
 21
14.846027306936771
 31
0.0
  0
ARC
  5
CD4
  8
DRG
 62
     7
 10
18.249110221157022
 20
13.95076893658401
 30
0.0
 40
10.559203445863639
 50
175.13635846835899
 51
269.19405577571678
  0
ARC
  5
CD5
  8
DRG
 62
     7
 10
25.379351800633462
 20
15.82074347040526
 30
0.0
 40
12.432247452652581
 50
271.47404887186468
 51
350.4632534986161
  0
LINE
  5
CD6
  8
DRG
 62
     7
 10
18.100585347854121
 20
3.392610111620797
 30
0.0
 11
25.699161025414639
 21
3.392610111620797
 31
0.0
  0
ARC
  5
CD7
  8
DRG
 62
     7
 10
23.40592258650463
 20
13.51984597021351
 30
0.0
 40
3.8611993223923942
 50
180.0
 51
0.0
  0
LINE
  5
CD8
  8
DRG
 62
     7
 10
19.544723264112228
 20
13.51984597021351
 30
0.0
 11
19.544723264112228
 21
14.846027306936771
 31
0.0
  0
LINE
  5
CD9
  8
DRG
 62
     7
 10
18.821661727211438
 20
62.115696081838678
 30
0.0
 11
18.821661727211438
 21
85.569427875032716
 31
0.0
  0
ARC
  5
CDA
  8
DRG
 62
     7
 10
41.838142899665847
 20
72.89733173546756
 30
0.0
 40
12.0
 50
180.0
 51
270.0
  0
LINE
  5
CDB
  8
DRG
 62
     7
 10
7.7802673214059723
 20
102.0369718403326
 30
0.0
 11
7.7802673214059723
 21
62.115696081838678
 31
0.0
  0
ARC
  5
CDC
  8
DRG
 62
     7
 10
19.137584483414571
 20
46.032807694708133
 30
0.0
 40
12.107786932649869
 50
92.625123830690427
 51
179.34969965531249
  0
LINE
  5
CDD
  8
DRG
 62
     7
 10
7.7802673214059723
 20
62.115696081838678
 30
0.0
 11
18.821661727211438
 21
62.115696081838678
 31
0.0
  0
ARC
  5
CDE
  8
DRG
 62
     7
 10
130.4096373956734
 20
38.404095866101891
 30
0.0
 40
123.62323904739679
 50
176.39825231050591
 51
183.7888327716102
  0
ARC
  5
CDF
  8
DRG
 62
     7
 10
167.7922598686371
 20
36.46112230795859
 30
0.0
 40
123.62323904739679
 50
176.01116722839041
 51
183.98883277160959
  0
LINE
  5
CE0
  8
DRG
 62
     7
 10
27.387732575171409
 20
32.086434320449371
 30
0.0
 11
27.387732575171409
 21
44.745475926535619
 31
0.0
  0
LINE
  5
CE1
  8
DRG
 62
     7
 10
17.256300807526252
 20
30.519126263197901
 30
0.0
 11
17.256300807526252
 21
46.312783983787199
 31
0.0
  0
ARC
  5
CE2
  8
DRG
 62
     7
 10
22.554825927420261
 20
30.757839296791811
 30
0.0
 40
5.3038997311936118
 50
182.57958705316651
 51
271.39398239048438
  0
ARC
  5
CE3
  8
DRG
 62
     7
 10
21.079116203706629
 20
31.577778829510549
 30
0.0
 40
6.3290892655085571
 50
284.68766481341447
 51
4.6097118352224014
  0
ARC
  5
CE4
  8
DRG
 62
     7
 10
18.444167318675341
 20
28.04361904615444
 30
0.0
 40
9.0995321151857773
 50
270.87442572940842
 51
345.83740798549388
  0
LINE
  5
CE5
  8
DRG
 62
     7
 10
37.639779947293839
 20
57.06060729124669
 30
0.0
 11
27.267121908897021
 21
57.06060729124669
 31
0.0
  0
ARC
  5
CE6
  8
DRG
 62
     7
 10
22.554825927420261
 20
46.074070950193168
 30
0.0
 40
5.3038997311936118
 50
88.606017609515575
 51
177.42041294683341
  0
ARC
  5
CE7
  8
DRG
 62
     7
 10
21.079116203706629
 20
45.254131417474468
 30
0.0
 40
6.3290892655085571
 50
355.39028816477759
 51
75.312335186585557
  0
ARC
  5
CE8
  8
DRG
 62
     7
 10
18.444167318675341
 20
49.029416082984589
 30
0.0
 40
9.0995321151857773
 50
14.16259201450603
 51
89.125574270591571
  0
LINE
  5
CE9
  8
DRG
 62
     7
 10
27.267121908897021
 20
51.255838552819107
 30
0.0
 11
27.267121908897021
 21
57.06060729124669
 31
0.0
  0
LINE
  5
CEA
  8
DRG
 62
     7
 10
41.838142899665847
 20
60.89733173546756
 30
0.0
 11
47.650196927116667
 21
60.89733173546756
 31
0.0
  0
LINE
  5
CEB
  8
DRG
 62
     7
 10
7.7802673214059723
 20
102.0369718403326
 30
0.0
 11
18.821661727211438
 21
102.0369718403326
 31
0.0
  0
ARC
  5
CEC
  8
DRG
 62
     7
 10
26.821661727211438
 20
85.569427875032716
 30
0.0
 40
8.0
 50
90.0
 51
180.0
  0
ARC
  5
CED
  8
DRG
 62
     7
 10
218.4362314981995
 20
81.496816718755667
 30
0.0
 40
177.77324423808651
 50
177.14934059322539
 51
182.85065940677461
  0
ARC
  5
CEE
  8
DRG
 62
     7
 10
153.16192037421459
 20
81.496816718755667
 30
0.0
 40
123.62323904739679
 50
176.01116722839041
 51
183.98883277160959
  0
ARC
  5
CEF
  8
DRG
 62
     7
 10
41.838142899665847
 20
90.096301702043775
 30
0.0
 40
12.0
 50
90.0
 51
180.0
  0
LINE
  5
CF0
  8
DRG
 62
     7
 10
18.821661727211438
 20
97.915857504065912
 30
0.0
 11
18.821661727211438
 21
102.0369718403326
 31
0.0
  0
ARC
  5
CF1
  8
DRG
 62
     7
 10
27.083354510939952
 20
91.844139685506846
 30
0.0
 40
10.2528691067876
 50
83.7965056449153
 51
143.68693404466879
  0
LINE
  5
CF2
  8
DRG
 62
     7
 10
28.191279411133561
 20
102.0369718403326
 30
0.0
 11
28.191279411133561
 21
93.569427875032716
 31
0.0
  0
LINE
  5
CF3
  8
DRG
 62
     7
 10
28.191279411133561
 20
93.569427875032716
 30
0.0
 11
26.821661727211438
 21
93.569427875032716
 31
0.0
  0
LINE
  5
CF4
  8
DRG
 62
     7
 10
41.838142899665847
 20
102.0963017020437
 30
0.0
 11
47.650196927116667
 21
102.0963017020437
 31
0.0
  0
ARC
  5
CF5
  8
DRG
 62
     7
 10
91.146199293645054
 20
26.576636016635941
 30
0.0
 40
9.5460672539884595
 50
232.98068850611
 51
293.75592135571679
  0
ARC
  5
CF6
  8
DRG
 62
     7
 10
153.28023066635379
 20
27.861637324670479
 30
0.0
 40
12.0
 50
180.0
 51
270.0
  0
ARC
  5
CF7
  8
DRG
 62
     7
 10
159.0922846938046
 20
27.861637324670479
 30
0.0
 40
12.0
 50
270.0
 51
0.0
  0
ARC
  5
CF8
  8
DRG
 62
     7
 10
62.280536421539182
 20
27.861637324670479
 30
0.0
 40
12.0
 50
270.0
 51
0.0
  0
LINE
  5
CF9
  8
DRG
 62
     7
 10
56.468482394088369
 20
15.861637324670481
 30
0.0
 11
62.280536421539182
 21
15.861637324670481
 31
0.0
  0
LINE
  5
CFA
  8
DRG
 62
     7
 10
153.28023066635379
 20
15.861637324670481
 30
0.0
 11
159.0922846938046
 21
15.861637324670481
 31
0.0
  0
ARC
  5
CFB
  8
DRG
 62
     7
 10
99.252312977960173
 20
45.06060729124669
 30
0.0
 40
12.0
 50
0.0
 51
90.0
  0
ARC
  5
CFC
  8
DRG
 62
     7
 10
103.66183676415081
 20
72.89733173546756
 30
0.0
 40
12.0
 50
270.0
 51
0.0
  0
ARC
  5
CFD
  8
DRG
 62
     7
 10
103.66183676415081
 20
90.096301702043775
 30
0.0
 40
12.0
 50
0.0
 51
90.0
  0
ARC
  5
CFE
  8
DRG
 62
     7
 10
75.331191210151701
 20
68.89733173546756
 30
0.0
 40
8.0
 50
180.0
 51
270.0
  0
LINE
  5
CFF
  8
DRG
 62
     7
 10
84.501142256151084
 20
62.072518178885268
 30
0.0
 11
84.501142256151084
 21
70.214764581409213
 31
0.0
  0
ARC
  5
D00
  8
DRG
 62
     7
 10
97.849782736700035
 20
72.89733173546756
 30
0.0
 40
12.0
 50
180.0
 51
270.0
  0
ARC
  5
D01
  8
DRG
 62
     7
 10
80.604973725058926
 20
67.941395133310024
 30
0.0
 40
7.044419488421358
 50
270.57609896713558
 51
303.5789717876612
  0
ARC
  5
D02
  8
DRG
 62
     7
 10
93.358174068518778
 20
30.948196427274919
 30
0.0
 40
12.0
 50
90.0
 51
173.29457252003729
  0
ARC
  5
D03
  8
DRG
 62
     7
 10
93.44025895050936
 20
27.861637324670479
 30
0.0
 40
12.0
 50
180.0
 51
227.9226718038604
  0
ARC
  5
D04
  8
DRG
 62
     7
 10
93.44025895050936
 20
45.06060729124669
 30
0.0
 40
12.0
 50
90.0
 51
175.93782586434531
  0
LINE
  5
D05
  8
DRG
 62
     7
 10
74.280536421539182
 20
45.06060729124669
 30
0.0
 11
74.280536421539182
 21
35.629722934820848
 31
0.0
  0
LINE
  5
D06
  8
DRG
 62
     7
 10
63.235709964757007
 20
30.816887788353821
 30
0.0
 11
74.280536421539182
 21
30.816887788353821
 31
0.0
  0
LINE
  5
D07
  8
DRG
 62
     7
 10
55.513311319972217
 20
35.629722934820848
 30
0.0
 11
74.280536421539182
 21
35.629722934820848
 31
0.0
  0
LINE
  5
D08
  8
DRG
 62
     7
 10
63.235709964757007
 20
30.816887788353821
 30
0.0
 11
63.235709964757007
 21
27.619948938379359
 31
0.0
  0
LINE
  5
D09
  8
DRG
 62
     7
 10
55.513311319972217
 20
35.629722934820848
 30
0.0
 11
55.513311319972217
 21
27.619948938379359
 31
0.0
  0
ARC
  5
D0A
  8
DRG
 62
     7
 10
59.374510642364612
 20
27.619948938379359
 30
0.0
 40
3.8611993223923942
 50
180.0
 51
0.0
  0
LINE
  5
D0B
  8
DRG
 62
     7
 10
74.280536421539182
 20
30.816887788353821
 30
0.0
 11
74.280536421539182
 21
27.861637324670479
 31
0.0
  0
ARC
  5
D0C
  8
DRG
 62
     7
 10
62.280536421539182
 20
45.06060729124669
 30
0.0
 40
12.0
 50
0.0
 51
90.0
  0
LINE
  5
D0D
  8
DRG
 62
     7
 10
55.513311319972217
 20
41.923431282527652
 30
0.0
 11
63.235709964757007
 21
41.923431282527652
 31
0.0
  0
ARC
  5
D0E
  8
DRG
 62
     7
 10
59.374510642364612
 20
46.690614073903127
 30
0.0
 40
3.8611993223923942
 50
0.0
 51
180.0
  0
LINE
  5
D0F
  8
DRG
 62
     7
 10
55.513311319972217
 20
46.690614073903127
 30
0.0
 11
55.513311319972217
 21
41.923431282527652
 31
0.0
  0
LINE
  5
D10
  8
DRG
 62
     7
 10
63.235709964757007
 20
46.690614073903127
 30
0.0
 11
63.235709964757007
 21
41.923431282527652
 31
0.0
  0
LINE
  5
D11
  8
DRG
 62
     7
 10
56.468482394088369
 20
57.06060729124669
 30
0.0
 11
62.280536421539182
 21
57.06060729124669
 31
0.0
  0
LINE
  5
D12
  8
DRG
 62
     7
 10
75.331191210151701
 20
60.89733173546756
 30
0.0
 11
80.675802928264815
 21
60.89733173546756
 31
0.0
  0
LINE
  5
D13
  8
DRG
 62
     7
 10
111.2523129779601
 20
45.06060729124669
 30
0.0
 11
111.2523129779601
 21
21.10260096837424
 31
0.0
  0
ARC
  5
D14
  8
DRG
 62
     7
 10
92.427187023305351
 20
28.353548776339029
 30
0.0
 40
10.822390038051561
 50
283.70766965543032
 51
333.6028219757398
  0
ARC
  5
D15
  8
DRG
 62
     7
 10
97.617648860406234
 20
31.597336783954741
 30
0.0
 40
5.7980507916306081
 50
86.525641605078704
 51
165.57884810514051
  0
ARC
  5
D16
  8
DRG
 62
     7
 10
95.530005668639475
 20
29.734254501986349
 30
0.0
 40
5.9848030975807349
 50
273.19424815916329
 51
2.3998464036014582
  0
LINE
  5
D17
  8
DRG
 62
     7
 10
92.002287191588479
 20
27.619948938379359
 30
0.0
 11
92.002287191588479
 21
33.041326503689788
 31
0.0
  0
LINE
  5
D18
  8
DRG
 62
     7
 10
81.440258950509346
 20
32.349374231809861
 30
0.0
 11
81.440258950509346
 21
27.861637324670479
 31
0.0
  0
ARC
  5
D19
  8
DRG
 62
     7
 10
95.863486513980874
 20
27.619948938379359
 30
0.0
 40
3.8611993223923942
 50
180.0
 51
270.0
  0
LINE
  5
D1A
  8
DRG
 62
     7
 10
102.6710305977499
 20
17.89352120355198
 30
0.0
 11
111.8021775281067
 21
17.893521203552009
 31
0.0
  0
ARC
  5
D1B
  8
DRG
 62
     7
 10
118.87875205644769
 20
22.322305930199491
 30
0.0
 40
16.801915635954131
 50
175.83705377070211
 51
195.28307330703629
  0
LINE
  5
D1C
  8
DRG
 62
     7
 10
102.1211660476033
 20
23.542010892025068
 30
0.0
 11
102.1211660476033
 21
21.102600968374329
 31
0.0
  0
ARC
  5
D1D
  8
DRG
 62
     7
 10
128.00989898680459
 20
22.322305930199519
 30
0.0
 40
16.801915635954131
 50
175.83705377070211
 51
195.28307330703629
  0
LINE
  5
D1E
  8
DRG
 62
     7
 10
101.5095597489034
 20
37.384730871555568
 30
0.0
 11
101.5095597489034
 21
29.483652989600269
 31
0.0
  0
LINE
  5
D1F
  8
DRG
 62
     7
 10
101.5095597489034
 20
37.384730871555568
 30
0.0
 11
97.266276327143615
 21
37.384730871555568
 31
0.0
  0
LINE
  5
D20
  8
DRG
 62
     7
 10
100.2074865211779
 20
42.948196427274922
 30
0.0
 11
93.358174068518778
 21
42.948196427274922
 31
0.0
  0
ARC
  5
D21
  8
DRG
 62
     7
 10
96.346287198785603
 20
47.313129977668268
 30
0.0
 40
3.8611993223923942
 50
0.0
 51
180.0
  0
LINE
  5
D22
  8
DRG
 62
     7
 10
93.44025895050936
 20
57.06060729124669
 30
0.0
 11
99.252312977960173
 21
57.06060729124669
 31
0.0
  0
LINE
  5
D23
  8
DRG
 62
     7
 10
92.485087876393209
 20
45.910674481046733
 30
0.0
 11
81.470405744524555
 21
45.910674481046733
 31
0.0
  0
LINE
  5
D24
  8
DRG
 62
     7
 10
92.485087876393209
 20
47.313129977668268
 30
0.0
 11
92.485087876393209
 21
45.910674481046733
 31
0.0
  0
LINE
  5
D25
  8
DRG
 62
     7
 10
100.2074865211779
 20
47.313129977668268
 30
0.0
 11
100.2074865211779
 21
42.948196427274922
 31
0.0
  0
LINE
  5
D26
  8
DRG
 62
     7
 10
97.849782736700035
 20
60.89733173546756
 30
0.0
 11
103.66183676415081
 21
60.89733173546756
 31
0.0
  0
LINE
  5
D27
  8
DRG
 62
     7
 10
80.482556033578916
 20
69.876055965300111
 30
0.0
 11
83.501142256151056
 21
69.876055965300111
 31
0.0
  0
LINE
  5
D28
  8
DRG
 62
     7
 10
77.482556033578931
 20
94.593352860836134
 30
0.0
 11
84.553623006881026
 21
94.593352860836134
 31
0.0
  0
LINE
  5
D29
  8
DRG
 62
     7
 10
77.482556033578931
 20
101.9948050433795
 30
0.0
 11
84.553623006881026
 21
101.9948050433795
 31
0.0
  0
ARC
  5
D2A
  8
DRG
 62
     7
 10
-128.9478892023152
 20
81.496816718755667
 30
0.0
 40
177.77324423808651
 50
357.1493405932253
 51
2.8506594067746178
  0
ARC
  5
D2B
  8
DRG
 62
     7
 10
-63.673578078330422
 20
81.496816718755667
 30
0.0
 40
123.62323904739679
 50
356.01116722839038
 51
3.9888327716095779
  0
LINE
  5
D2C
  8
DRG
 62
     7
 10
67.331191210151701
 20
94.593352860836134
 30
0.0
 11
67.331191210151701
 21
68.89733173546756
 31
0.0
  0
LINE
  5
D2D
  8
DRG
 62
     7
 10
77.482556033578931
 20
94.593352860836134
 30
0.0
 11
77.482556033578931
 21
72.876055965300111
 31
0.0
  0
ARC
  5
D2E
  8
DRG
 62
     7
 10
80.482556033578916
 20
72.876055965300111
 30
0.0
 40
3.0
 50
180.0
 51
270.0
  0
LINE
  5
D2F
  8
DRG
 62
     7
 10
62.478989637268569
 20
101.9948050433795
 30
0.0
 11
67.331191210151701
 21
101.9948050433795
 31
0.0
  0
LINE
  5
D30
  8
DRG
 62
     7
 10
62.478989637268569
 20
94.593352860836134
 30
0.0
 11
67.331191210151701
 21
94.593352860836134
 31
0.0
  0
LINE
  5
D31
  8
DRG
 62
     7
 10
62.478989637268569
 20
94.593352860836134
 30
0.0
 11
62.478989637268569
 21
101.9948050433795
 31
0.0
  0
LINE
  5
D32
  8
DRG
 62
     7
 10
67.331191210151701
 20
107.1280725498991
 30
0.0
 11
77.482556033578931
 21
107.1280725498991
 31
0.0
  0
LINE
  5
D33
  8
DRG
 62
     7
 10
67.331191210151701
 20
107.1280725498991
 30
0.0
 11
67.331191210151701
 21
101.9948050433795
 31
0.0
  0
LINE
  5
D34
  8
DRG
 62
     7
 10
77.482556033578931
 20
101.9948050433795
 30
0.0
 11
77.482556033578931
 21
107.1280725498991
 31
0.0
  0
ARC
  5
D35
  8
DRG
 62
     7
 10
-72.936249365281071
 20
81.496816718755667
 30
0.0
 40
177.77324423808651
 50
357.1493405932253
 51
2.8506594067746178
  0
ARC
  5
D36
  8
DRG
 62
     7
 10
274.44787133523357
 20
81.496816718755667
 30
0.0
 40
177.77324423808651
 50
177.14934059322539
 51
182.85065940677461
  0
ARC
  5
D37
  8
DRG
 62
     7
 10
209.1735602112488
 20
81.496816718755667
 30
0.0
 40
123.62323904739679
 50
176.01116722839041
 51
183.98883277160959
  0
ARC
  5
D38
  8
DRG
 62
     7
 10
100.75581098497619
 20
72.655643349176444
 30
0.0
 40
3.8611993223923942
 50
180.0
 51
0.0
  0
ARC
  5
D39
  8
DRG
 62
     7
 10
82.991751330883176
 20
73.025526152493626
 30
0.0
 40
3.1903983410800212
 50
279.18737892597682
 51
298.2359877234839
  0
ARC
  5
D3A
  8
DRG
 62
     7
 10
100.75581098497619
 20
90.337990088334877
 30
0.0
 40
3.8611993223923942
 50
0.0
 51
180.0
  0
ARC
  5
D3B
  8
DRG
 62
     7
 10
97.849782736700035
 20
90.096301702043775
 30
0.0
 40
12.0
 50
90.0
 51
180.0
  0
LINE
  5
D3C
  8
DRG
 62
     7
 10
84.553623006881026
 20
101.9948050433795
 30
0.0
 11
84.553623006881026
 21
94.593352860836134
 31
0.0
  0
LINE
  5
D3D
  8
DRG
 62
     7
 10
97.849782736700035
 20
102.0963017020437
 30
0.0
 11
103.66183676415081
 21
102.0963017020437
 31
0.0
  0
LINE
  5
D3E
  8
DRG
 62
     7
 10
130.05101171535759
 20
62.115696081838678
 30
0.0
 11
130.05101171535759
 21
85.569427875032716
 31
0.0
  0
LINE
  5
D3F
  8
DRG
 62
     7
 10
119.0096173095521
 20
102.0369718403326
 30
0.0
 11
119.0096173095521
 21
62.115696081838678
 31
0.0
  0
LINE
  5
D40
  8
DRG
 62
     7
 10
165.4162645291251
 20
78.31140447718235
 30
0.0
 11
171.78072804963571
 21
62.115696081838678
 31
0.0
  0
LINE
  5
D41
  8
DRG
 62
     7
 10
153.2899770207527
 20
82.583583780839604
 30
0.0
 11
161.3332883364622
 21
62.115696081838678
 31
0.0
  0
LINE
  5
D42
  8
DRG
 62
     7
 10
153.2899770207527
 20
102.0369718403326
 30
0.0
 11
153.2899770207527
 21
62.115696081838678
 31
0.0
  0
LINE
  5
D43
  8
DRG
 62
     7
 10
142.11987082690661
 20
102.0369718403326
 30
0.0
 11
142.11987082690661
 21
62.115696081838678
 31
0.0
  0
ARC
  5
D44
  8
DRG
 62
     7
 10
160.28928843394391
 20
53.283870983727013
 30
0.0
 40
20.648450998997479
 50
209.50344874889601
 51
257.2400493880096
  0
LINE
  5
D45
  8
DRG
 62
     7
 10
141.28023066635379
 20
29.95929893143898
 30
0.0
 11
152.32505959223769
 21
29.95929893143898
 31
0.0
  0
ARC
  5
D46
  8
DRG
 62
     7
 10
153.28023066635379
 20
45.06060729124669
 30
0.0
 40
12.0
 50
90.0
 51
161.62913043773071
  0
LINE
  5
D47
  8
DRG
 62
     7
 10
153.2899770207527
 20
62.115696081838678
 30
0.0
 11
142.11987082690661
 21
62.115696081838678
 31
0.0
  0
LINE
  5
D48
  8
DRG
 62
     7
 10
127.2345352189994
 20
17.28637227261407
 30
0.0
 11
127.2345352189994
 21
40.740104065808111
 31
0.0
  0
LINE
  5
D49
  8
DRG
 62
     7
 10
116.19314081319391
 20
57.207648031108022
 30
0.0
 11
116.19314081319391
 21
17.28637227261407
 31
0.0
  0
LINE
  5
D4A
  8
DRG
 62
     7
 10
116.19314081319391
 20
17.28637227261407
 30
0.0
 11
127.2345352189994
 21
17.28637227261407
 31
0.0
  0
LINE
  5
D4B
  8
DRG
 62
     7
 10
141.28023066635379
 20
29.95929893143898
 30
0.0
 11
141.28023066635379
 21
27.861637324670479
 31
0.0
  0
ARC
  5
D4C
  8
DRG
 62
     7
 10
135.496228002728
 20
47.014815876282221
 30
0.0
 40
10.2528691067876
 50
83.7965056449153
 51
143.68693404466879
  0
ARC
  5
D4D
  8
DRG
 62
     7
 10
135.23453521899941
 20
40.740104065808111
 30
0.0
 40
8.0
 50
90.0
 51
180.0
  0
LINE
  5
D4E
  8
DRG
 62
     7
 10
119.0096173095521
 20
62.115696081838678
 30
0.0
 11
130.05101171535759
 21
62.115696081838678
 31
0.0
  0
LINE
  5
D4F
  8
DRG
 62
     7
 10
116.19314081319391
 20
57.207648031108022
 30
0.0
 11
127.2345352189994
 21
57.207648031108022
 31
0.0
  0
LINE
  5
D50
  8
DRG
 62
     7
 10
127.2345352189994
 20
53.0865336948413
 30
0.0
 11
127.2345352189994
 21
57.207648031108079
 31
0.0
  0
LINE
  5
D51
  8
DRG
 62
     7
 10
136.6041529029215
 20
57.207648031108022
 30
0.0
 11
136.6041529029215
 21
48.740104065808111
 31
0.0
  0
LINE
  5
D52
  8
DRG
 62
     7
 10
136.6041529029215
 20
48.740104065808111
 30
0.0
 11
135.23453521899941
 21
48.740104065808111
 31
0.0
  0
ARC
  5
D53
  8
DRG
 62
     7
 10
149.15275272984229
 20
46.50373678022958
 30
0.0
 40
7.6283568598071962
 50
162.14543119997589
 51
216.29372603558031
  0
ARC
  5
D54
  8
DRG
 62
     7
 10
164.68224204875119
 20
54.775095406185869
 30
0.0
 40
15.14236331012172
 50
222.29150451995909
 51
257.53093545652467
  0
ARC
  5
D55
  8
DRG
 62
     7
 10
159.223234097084
 20
28.191351553125511
 30
0.0
 40
12.0
 50
8.4721667757414814
 51
79.486612768212169
  0
LINE
  5
D56
  8
DRG
 62
     7
 10
160.04745823702251
 20
29.300230626583438
 30
0.0
 11
160.04745823702251
 21
27.619948938379359
 31
0.0
  0
LINE
  5
D57
  8
DRG
 62
     7
 10
152.32505959223769
 20
27.619948938379359
 30
0.0
 11
152.32505959223769
 21
29.95929893143898
 31
0.0
  0
ARC
  5
D58
  8
DRG
 62
     7
 10
156.18625891463009
 20
27.619948938379359
 30
0.0
 40
3.8611993223923942
 50
180.0
 51
0.0
  0
ARC
  5
D59
  8
DRG
 62
     7
 10
153.8611380906755
 20
26.699836406787622
 30
0.0
 40
6.7106338785129491
 50
22.799249772319211
 51
73.841024038773142
  0
LINE
  5
D5A
  8
DRG
 62
     7
 10
171.0922846938046
 20
29.95929893143915
 30
0.0
 11
171.0922846938046
 21
27.861637324670479
 31
0.0
  0
LINE
  5
D5B
  8
DRG
 62
     7
 10
171.0912486890569
 20
45.21828747592599
 30
0.0
 11
160.04745823702251
 21
45.21828747592599
 31
0.0
  0
ARC
  5
D5C
  8
DRG
 62
     7
 10
159.0922846938046
 20
45.06060729124669
 30
0.0
 40
12.0
 50
0.7528890912800703
 51
90.0
  0
LINE
  5
D5D
  8
DRG
 62
     7
 10
161.3332883364622
 20
62.115696081838678
 30
0.0
 11
171.78072804963571
 21
62.115696081838678
 31
0.0
  0
ARC
  5
D5E
  8
DRG
 62
     7
 10
156.18625891463009
 20
46.421288526219307
 30
0.0
 40
3.8611993223923942
 50
0.0
 51
161.4735686305323
  0
ARC
  5
D5F
  8
DRG
 62
     7
 10
155.35373214152469
 20
46.850626662257177
 30
0.0
 40
2.938857360854815
 50
164.25399710017811
 51
230.4135202949499
  0
LINE
  5
D60
  8
DRG
 62
     7
 10
160.04745823702251
 20
46.421288526219307
 30
0.0
 11
160.04745823702251
 21
45.21828747592599
 31
0.0
  0
LINE
  5
D61
  8
DRG
 62
     7
 10
153.28023066635379
 20
57.06060729124669
 30
0.0
 11
159.0922846938046
 21
57.06060729124669
 31
0.0
  0
LINE
  5
D62
  8
DRG
 62
     7
 10
142.11987082690661
 20
102.0369718403326
 30
0.0
 11
153.2899770207527
 21
102.0369718403326
 31
0.0
  0
ARC
  5
D63
  8
DRG
 62
     7
 10
138.05101171535759
 20
85.569427875032716
 30
0.0
 40
8.0
 50
90.0
 51
180.0
  0
ARC
  5
D64
  8
DRG
 62
     7
 10
-7.66193824129624
 20
81.496816718755667
 30
0.0
 40
123.62323904739679
 50
356.01116722839038
 51
3.9888327716095779
  0
ARC
  5
D65
  8
DRG
 62
     7
 10
138.3127044990861
 20
91.844139685506775
 30
0.0
 40
10.2528691067876
 50
83.7965056449153
 51
143.68693404466879
  0
LINE
  5
D66
  8
DRG
 62
     7
 10
119.0096173095521
 20
102.0369718403326
 30
0.0
 11
130.05101171535759
 21
102.0369718403326
 31
0.0
  0
LINE
  5
D67
  8
DRG
 62
     7
 10
130.05101171535759
 20
97.915857504065855
 30
0.0
 11
130.05101171535759
 21
102.0369718403326
 31
0.0
  0
LINE
  5
D68
  8
DRG
 62
     7
 10
139.4206293992797
 20
102.0369718403326
 30
0.0
 11
139.4206293992797
 21
93.569427875032716
 31
0.0
  0
LINE
  5
D69
  8
DRG
 62
     7
 10
139.4206293992797
 20
93.569427875032716
 30
0.0
 11
138.05101171535759
 21
93.569427875032716
 31
0.0
  0
LINE
  5
D6A
  8
DRG
 62
     7
 10
153.2899770207527
 20
82.583583780839604
 30
0.0
 11
160.9346181585602
 21
102.0369718403326
 31
0.0
  0
LINE
  5
D6B
  8
DRG
 62
     7
 10
176.9709164189357
 20
78.31140447718235
 30
0.0
 11
176.9709164189357
 21
86.855763084496857
 31
0.0
  0
LINE
  5
D6C
  8
DRG
 62
     7
 10
176.9709164189357
 20
78.31140447718235
 30
0.0
 11
165.4162645291251
 21
78.31140447718235
 31
0.0
  0
LINE
  5
D6D
  8
DRG
 62
     7
 10
160.9346181585602
 20
102.0369718403326
 30
0.0
 11
171.38205787173379
 21
102.0369718403326
 31
0.0
  0
LINE
  5
D6E
  8
DRG
 62
     7
 10
165.4162645291251
 20
86.855763084496857
 30
0.0
 11
171.38205787173379
 21
102.0369718403326
 31
0.0
  0
LINE
  5
D6F
  8
DRG
 62
     7
 10
176.9709164189357
 20
86.855763084496857
 30
0.0
 11
165.4162645291251
 21
86.855763084496857
 31
0.0
  0
ENDBLK
  5
D71
  8
0
  0
BLOCK
  8
0
  2
ROTORK_GEARS_LOGO
 70
     0
 10
0.0
 20
0.0
 30
0.0
  3
ROTORK_GEARS_LOGO
  1

  0
INSERT
  5
D73
  8
0
  2
LOGO
 10
16.592937132437999
 20
3.1720898939720419
 30
0.0
  0
ENDBLK
  5
D75
  8
0
  0
BLOCK
  8
0
  2
*U8
 70
     1
 10
0.0
 20
0.0
 30
0.0
  3
*U8
  1

  0
SOLID
  5
E4C
  8
DRG
  6
CONTINUOUS
 62
     7
 10
27.591723902900771
 20
3.5869302298372978
 30
0.0
 11
18.100585347853119
 21
3.392610111620797
 31
0.0
 12
25.69916102541524
 22
3.392610111620797
 32
0.0
 13
25.69916102541524
 23
3.392610111620797
 33
0.0
210
0.0
220
0.0
230
1.0
  0
SOLID
  5
E4D
  8
DRG
  6
CONTINUOUS
 62
     7
 10
16.187882817280752
 20
3.5947021638827041
 30
0.0
 11
18.100585347853119
 21
3.392610111620797
 31
0.0
 12
27.591723902900771
 22
3.5869302298372978
 32
0.0
 13
27.591723902900771
 23
3.5869302298372978
 33
0.0
210
0.0
220
0.0
230
1.0
  0
SOLID
  5
E4E
  8
DRG
  6
CONTINUOUS
 62
     7
 10
29.43247673073007
 20
4.067745766627044
 30
0.0
 11
16.187882817280752
 21
3.5947021638827041
 31
0.0
 12
27.591723902900771
 22
3.5869302298372978
 32
0.0
 13
27.591723902900771
 23
3.5869302298372978
 33
0.0
210
0.0
220
0.0
230
1.0
  0
SOLID
  5
E4F
  8
DRG
  6
CONTINUOUS
 62
     7
 10
14.34356828270448
 20
4.1403907798498434
 30
0.0
 11
16.187882817280752
 21
3.5947021638827041
 31
0.0
 12
29.43247673073007
 22
4.067745766627044
 32
0.0
 13
29.43247673073007
 23
4.067745766627044
 33
0.0
210
0.0
220
0.0
230
1.0
  0
SOLID
  5
E50
  8
DRG
  6
CONTINUOUS
 62
     7
 10
31.178312160316999
 20
4.823796827322667
 30
0.0
 11
14.34356828270448
 21
4.1403907798498434
 31
0.0
 12
29.43247673073007
 22
4.067745766627044
 32
0.0
 13
29.43247673073007
 23
4.067745766627044
 33
0.0
  0
SOLID
  5
E51
  8
DRG
  6
CONTINUOUS
 62
     7
 10
12.628832942518519
 20
5.011570945580659
 30
0.0
 11
14.34356828270448
 21
4.1403907798498434
 31
0.0
 12
31.178312160316999
 22
4.823796827322667
 32
0.0
 13
31.178312160316999
 23
4.823796827322667
 33
0.0
210
0.0
220
0.0
230
1.0
  0
SOLID
  5
E52
  8
DRG
  6
CONTINUOUS
 62
     7
 10
32.788345649587569
 20
5.83737796221381
 30
0.0
 11
12.628832942518519
 21
5.011570945580659
 31
0.0
 12
31.178312160316999
 22
4.823796827322667
 32
0.0
 13
31.178312160316999
 23
4.823796827322667
 33
0.0
210
0.0
220
0.0
230
1.0
  0
SOLID
  5
E53
  8
DRG
  6
CONTINUOUS
 62
     7
 10
11.10056877931466
 20
6.1793383948239633
 30
0.0
 11
12.628832942518519
 21
5.011570945580659
 31
0.0
 12
32.788345649587569
 22
5.83737796221381
 32
0.0
 13
32.788345649587569
 23
5.83737796221381
 33
0.0
210
0.0
220
0.0
230
1.0
  0
SOLID
  5
E54
  8
DRG
  6
CONTINUOUS
 62
     7
 10
34.22487291048742
 20
7.084752798528684
 30
0.0
 11
11.10056877931466
 21
6.1793383948239633
 31
0.0
 12
32.788345649587569
 22
5.83737796221381
 32
0.0
 13
32.788345649587569
 23
5.83737796221381
 33
0.0
210
0.0
220
0.0
230
1.0
  0
SOLID
  5
E55
  8
DRG
  6
CONTINUOUS
 62
     7
 10
9.8094809813111574
 20
7.6049486030828204
 30
0.0
 11
11.10056877931466
 21
6.1793383948239633
 31
0.0
 12
34.22487291048742
 22
7.084752798528684
 32
0.0
 13
34.22487291048742
 23
7.084752798528684
 33
0.0
  0
SOLID
  5
E56
  8
DRG
  6
CONTINUOUS
 62
     7
 10
35.454252880266083
 20
8.5367099065339396
 30
0.0
 11
9.8094809813111574
 21
7.6049486030828204
 31
0.0
 12
34.22487291048742
 22
7.084752798528684
 32
0.0
 13
34.22487291048742
 23
7.084752798528684
 33
0.0
210
0.0
220
0.0
230
1.0
  0
SOLID
  5
E57
  8
DRG
  6
CONTINUOUS
 62
     7
 10
8.7984056310258474
 20
9.2411022645984033
 30
0.0
 11
9.8094809813111574
 21
7.6049486030828204
 31
0.0
 12
35.454252880266083
 22
8.5367099065339396
 32
0.0
 13
35.454252880266083
 23
8.5367099065339396
 33
0.0
210
0.0
220
0.0
230
1.0
  0
SOLID
  5
E58
  8
DRG
  6
CONTINUOUS
 62
     7
 10
23.40592258650463
 20
9.658646647821115
 30
0.0
 11
8.7984056310258474
 21
9.2411022645984033
 31
0.0
 12
35.454252880266083
 22
8.5367099065339396
 32
0.0
 13
35.454252880266083
 23
8.5367099065339396
 33
0.0
210
0.0
220
0.0
230
1.0
  0
SOLID
  5
E59
  8
DRG
  6
CONTINUOUS
 62
     7
 10
22.406570664932531
 20
9.7902138242648444
 30
0.0
 11
8.7984056310258474
 21
9.2411022645984033
 31
0.0
 12
23.40592258650463
 22
9.658646647821115
 32
0.0
 13
23.40592258650463
 23
9.658646647821115
 33
0.0
  0
SOLID
  5
E5A
  8
DRG
  6
CONTINUOUS
 62
     7
 10
24.405274508076729
 20
9.7902138242648462
 30
0.0
 11
23.40592258650463
 21
9.658646647821115
 31
0.0
 12
35.454252880266083
 22
8.5367099065339396
 32
0.0
 13
35.454252880266083
 23
8.5367099065339396
 33
0.0
210
0.0
220
0.0
230
1.0
  0
SOLID
  5
E5B
  8
DRG
  6
CONTINUOUS
 62
     7
 10
36.447695538829151
 20
10.1592468822997
 30
0.0
 11
24.405274508076729
 21
9.7902138242648462
 31
0.0
 12
35.454252880266083
 22
8.5367099065339396
 32
0.0
 13
35.454252880266083
 23
8.5367099065339396
 33
0.0
210
0.0
220
0.0
230
1.0
  0
SOLID
  5
E5C
  8
DRG
  6
CONTINUOUS
 62
     7
 10
21.475322925308429
 20
10.175949267946431
 30
0.0
 11
8.7984056310258474
 21
9.2411022645984033
 31
0.0
 12
22.406570664932531
 22
9.7902138242648444
 32
0.0
 13
22.406570664932531
 23
9.7902138242648444
 33
0.0
210
0.0
220
0.0
230
1.0
  0
SOLID
  5
E5D
  8
DRG
  6
CONTINUOUS
 62
     7
 10
25.336522247700831
 20
10.175949267946431
 30
0.0
 11
24.405274508076729
 21
9.7902138242648462
 31
0.0
 12
36.447695538829151
 22
10.1592468822997
 32
0.0
 13
36.447695538829151
 23
10.1592468822997
 33
0.0
210
0.0
220
0.0
230
1.0
  0
SOLID
  5
E5E
  8
DRG
  6
CONTINUOUS
 62
     7
 10
20.675642362128059
 20
10.78956574583694
 30
0.0
 11
8.7984056310258474
 21
9.2411022645984033
 31
0.0
 12
21.475322925308429
 22
10.175949267946431
 32
0.0
 13
21.475322925308429
 23
10.175949267946431
 33
0.0
210
0.0
220
0.0
230
1.0
  0
SOLID
  5
E5F
  8
DRG
  6
CONTINUOUS
 62
     7
 10
26.136202810881191
 20
10.78956574583694
 30
0.0
 11
25.336522247700831
 21
10.175949267946431
 31
0.0
 12
36.447695538829151
 22
10.1592468822997
 32
0.0
 13
36.447695538829151
 23
10.1592468822997
 33
0.0
210
0.0
220
0.0
230
1.0
  0
SOLID
  5
E60
  8
DRG
  6
CONTINUOUS
 62
     7
 10
8.10088847740281
 20
11.033514602328481
 30
0.0
 11
8.7984056310258474
 21
9.2411022645984033
 31
0.0
 12
20.675642362128059
 22
10.78956574583694
 32
0.0
 13
20.675642362128059
 23
10.78956574583694
 33
0.0
  0
SOLID
  5
E61
  8
DRG
  6
CONTINUOUS
 62
     7
 10
20.062025884237549
 20
11.5892463090173
 30
0.0
 11
8.10088847740281
 21
11.033514602328481
 31
0.0
 12
20.675642362128059
 22
10.78956574583694
 32
0.0
 13
20.675642362128059
 23
10.78956574583694
 33
0.0
210
0.0
220
0.0
230
1.0
  0
SOLID
  5
E62
  8
DRG
  6
CONTINUOUS
 62
     7
 10
26.7498192887717
 20
11.589246309017311
 30
0.0
 11
26.136202810881191
 21
10.78956574583694
 31
0.0
 12
36.447695538829151
 22
10.1592468822997
 32
0.0
 13
36.447695538829151
 23
10.1592468822997
 33
0.0
210
0.0
220
0.0
230
1.0
  0
SOLID
  5
E63
  8
DRG
  6
CONTINUOUS
 62
     7
 10
37.18193612279525
 20
11.914366627057049
 30
0.0
 11
26.7498192887717
 21
11.589246309017311
 31
0.0
 12
36.447695538829151
 22
10.1592468822997
 32
0.0
 13
36.447695538829151
 23
10.1592468822997
 33
0.0
  0
SOLID
  5
E64
  8
DRG
  6
CONTINUOUS
 62
     7
 10
19.67629044055596
 20
12.5204940486414
 30
0.0
 11
8.10088847740281
 21
11.033514602328481
 31
0.0
 12
20.062025884237549
 22
11.5892463090173
 32
0.0
 13
20.062025884237549
 23
11.5892463090173
 33
0.0
210
0.0
220
0.0
230
1.0
  0
SOLID
  5
E65
  8
DRG
  6
CONTINUOUS
 62
     7
 10
27.13555473245329
 20
12.52049404864141
 30
0.0
 11
26.7498192887717
 21
11.589246309017311
 31
0.0
 12
37.18193612279525
 22
11.914366627057049
 32
0.0
 13
37.18193612279525
 23
11.914366627057049
 33
0.0
210
0.0
220
0.0
230
1.0
  0
SOLID
  5
E66
  8
DRG
  6
CONTINUOUS
 62
     7
 10
7.7400719452999134
 20
12.9227164439025
 30
0.0
 11
8.10088847740281
 21
11.033514602328481
 31
0.0
 12
19.67629044055596
 22
12.5204940486414
 32
0.0
 13
19.67629044055596
 23
12.5204940486414
 33
0.0
210
0.0
220
0.0
230
1.0
  0
SOLID
  5
E67
  8
DRG
  6
CONTINUOUS
 62
     7
 10
19.544723264112228
 20
13.51984597021351
 30
0.0
 11
7.7400719452999134
 21
12.9227164439025
 31
0.0
 12
19.67629044055596
 22
12.5204940486414
 32
0.0
 13
19.67629044055596
 23
12.5204940486414
 33
0.0
210
0.0
220
0.0
230
1.0
  0
SOLID
  5
E68
  8
DRG
  6
CONTINUOUS
 62
     7
 10
27.267121908897021
 20
13.51984597021351
 30
0.0
 11
27.13555473245329
 21
12.52049404864141
 31
0.0
 12
37.18193612279525
 22
11.914366627057049
 32
0.0
 13
37.18193612279525
 23
11.914366627057049
 33
0.0
210
0.0
220
0.0
230
1.0
  0
SOLID
  5
E69
  8
DRG
  6
CONTINUOUS
 62
     7
 10
37.639779947293839
 20
13.760967175618781
 30
0.0
 11
27.267121908897021
 21
13.51984597021351
 31
0.0
 12
37.18193612279525
 22
11.914366627057049
 32
0.0
 13
37.18193612279525
 23
11.914366627057049
 33
0.0
210
0.0
220
0.0
230
1.0
  0
SOLID
  5
E6A
  8
DRG
  6
CONTINUOUS
 62
     7
 10
19.544723264112228
 20
13.51984597021351
 30
0.0
 11
19.544723264112239
 21
14.846027306936771
 31
0.0
 12
7.7279273094568479
 22
14.846027306936771
 32
0.0
 13
7.7279273094568479
 23
14.846027306936771
 33
0.0
210
0.0
220
0.0
230
1.0
  0
SOLID
  5
E6B
  8
DRG
  6
CONTINUOUS
 62
     7
 10
7.7279273094568479
 20
14.846027306936771
 30
0.0
 11
7.7400719452999134
 21
12.9227164439025
 31
0.0
 12
19.544723264112228
 22
13.51984597021351
 32
0.0
 13
19.544723264112228
 23
13.51984597021351
 33
0.0
  0
SOLID
  5
E6C
  8
DRG
  6
CONTINUOUS
 62
     7
 10
151.40301708587111
 20
16.00937723752882
 30
0.0
 11
153.28023066635379
 21
15.861637324670481
 31
0.0
 12
159.0922846938046
 22
15.861637324670481
 32
0.0
 13
159.0922846938046
 23
15.861637324670481
 33
0.0
  0
SOLID
  5
E6D
  8
DRG
  6
CONTINUOUS
 62
     7
 10
54.591268813605609
 20
16.00937723752882
 30
0.0
 11
56.468482394088369
 21
15.861637324670481
 31
0.0
 12
62.280536421539182
 22
15.861637324670481
 32
0.0
 13
62.280536421539182
 23
15.861637324670481
 33
0.0
210
0.0
220
0.0
230
1.0
  0
SOLID
  5
E6E
  8
DRG
  6
CONTINUOUS
 62
     7
 10
160.96949827428739
 20
16.009377237528831
 30
0.0
 11
151.40301708587111
 21
16.00937723752882
 31
0.0
 12
159.0922846938046
 22
15.861637324670481
 32
0.0
 13
159.0922846938046
 23
15.861637324670481
 33
0.0
210
0.0
220
0.0
230
1.0
  0
SOLID
  5
E6F
  8
DRG
  6
CONTINUOUS
 62
     7
 10
64.157750002021956
 20
16.009377237528831
 30
0.0
 11
54.591268813605609
 21
16.00937723752882
 31
0.0
 12
62.280536421539182
 22
15.861637324670481
 32
0.0
 13
62.280536421539182
 23
15.861637324670481
 33
0.0
210
0.0
220
0.0
230
1.0
  0
SOLID
  5
E70
  8
DRG
  6
CONTINUOUS
 62
     7
 10
52.760278461589031
 20
16.448959129128621
 30
0.0
 11
54.591268813605609
 21
16.00937723752882
 31
0.0
 12
64.157750002021956
 22
16.009377237528831
 32
0.0
 13
64.157750002021956
 23
16.009377237528831
 33
0.0
210
0.0
220
0.0
230
1.0
  0
SOLID
  5
E71
  8
DRG
  6
CONTINUOUS
 62
     7
 10
162.800488626304
 20
16.448959129128632
 30
0.0
 11
151.40301708587111
 21
16.00937723752882
 31
0.0
 12
160.96949827428739
 22
16.009377237528831
 32
0.0
 13
160.96949827428739
 23
16.009377237528831
 33
0.0
  0
SOLID
  5
E72
  8
DRG
  6
CONTINUOUS
 62
     7
 10
65.988740354038555
 20
16.448959129128632
 30
0.0
 11
52.760278461589031
 21
16.448959129128621
 31
0.0
 12
64.157750002021956
 22
16.009377237528831
 32
0.0
 13
64.157750002021956
 23
16.009377237528831
 33
0.0
  0
SOLID
  5
E73
  8
DRG
  6
CONTINUOUS
 62
     7
 10
149.5720267338545
 20
16.448959129128632
 30
0.0
 11
151.40301708587111
 21
16.00937723752882
 31
0.0
 12
162.800488626304
 22
16.448959129128632
 32
0.0
 13
162.800488626304
 23
16.448959129128632
 33
0.0
210
0.0
220
0.0
230
1.0
  0
SOLID
  5
E74
  8
DRG
  6
CONTINUOUS
 62
     7
 10
51.020596397213851
 20
17.169559034410039
 30
0.0
 11
52.760278461589031
 21
16.448959129128621
 31
0.0
 12
65.988740354038555
 22
16.448959129128632
 32
0.0
 13
65.988740354038555
 23
16.448959129128632
 33
0.0
210
0.0
220
0.0
230
1.0
  0
SOLID
  5
E75
  8
DRG
  6
CONTINUOUS
 62
     7
 10
67.728422418413743
 20
17.16955903441006
 30
0.0
 11
51.020596397213851
 21
17.169559034410039
 31
0.0
 12
65.988740354038555
 22
16.448959129128632
 32
0.0
 13
65.988740354038555
 23
16.448959129128632
 33
0.0
  0
SOLID
  5
E76
  8
DRG
  6
CONTINUOUS
 62
     7
 10
164.54017069067919
 20
17.16955903441006
 30
0.0
 11
149.5720267338545
 21
16.448959129128632
 31
0.0
 12
162.800488626304
 22
16.448959129128632
 32
0.0
 13
162.800488626304
 23
16.448959129128632
 33
0.0
210
0.0
220
0.0
230
1.0
  0
SOLID
  5
E77
  8
DRG
  6
CONTINUOUS
 62
     7
 10
147.83234466947931
 20
17.16955903441006
 30
0.0
 11
149.5720267338545
 21
16.448959129128632
 31
0.0
 12
164.54017069067919
 22
17.16955903441006
 32
0.0
 13
164.54017069067919
 23
17.16955903441006
 33
0.0
210
0.0
220
0.0
230
1.0
  0
SOLID
  5
E78
  8
DRG
  6
CONTINUOUS
 62
     7
 10
93.395207810878105
 20
17.299278596169501
 30
0.0
 11
90.043755964704772
 21
17.09444119032354
 31
0.0
 12
91.728558738884544
 22
17.048348788901301
 32
0.0
 13
91.728558738884544
 23
17.048348788901301
 33
0.0
  0
SOLID
  5
E79
  8
DRG
  6
CONTINUOUS
 62
     7
 10
88.393319299007203
 20
17.436118976949761
 30
0.0
 11
90.043755964704772
 21
17.09444119032354
 31
0.0
 12
93.395207810878105
 22
17.299278596169501
 32
0.0
 13
93.395207810878105
 23
17.299278596169501
 33
0.0
210
0.0
220
0.0
230
1.0
  0
SOLID
  5
E7A
  8
DRG
  6
CONTINUOUS
 62
     7
 10
94.991749269489972
 20
17.839408458597301
 30
0.0
 11
88.393319299007203
 21
17.436118976949761
 31
0.0
 12
93.395207810878105
 22
17.299278596169501
 32
0.0
 13
93.395207810878105
 23
17.299278596169501
 33
0.0
210
0.0
220
0.0
230
1.0
  0
SOLID
  5
E7B
  8
DRG
  6
CONTINUOUS
 62
     7
 10
86.828697268901934
 20
18.062731137909029
 30
0.0
 11
88.393319299007203
 21
17.436118976949761
 31
0.0
 12
94.991749269489972
 22
17.839408458597301
 32
0.0
 13
94.991749269489972
 23
17.839408458597301
 33
0.0
  0
SOLID
  5
E7C
  8
DRG
  6
CONTINUOUS
 62
     7
 10
49.415059366578753
 20
18.15343339217106
 30
0.0
 11
51.020596397213851
 21
17.169559034410039
 31
0.0
 12
67.728422418413743
 22
17.16955903441006
 32
0.0
 13
67.728422418413743
 23
17.16955903441006
 33
0.0
210
0.0
220
0.0
230
1.0
  0
SOLID
  5
E7D
  8
DRG
  6
CONTINUOUS
 62
     7
 10
166.1457077213143
 20
18.153433392171099
 30
0.0
 11
147.83234466947931
 21
17.16955903441006
 31
0.0
 12
164.54017069067919
 22
17.16955903441006
 32
0.0
 13
164.54017069067919
 23
17.16955903441006
 33
0.0
210
0.0
220
0.0
230
1.0
  0
SOLID
  5
E7E
  8
DRG
  6
CONTINUOUS
 62
     7
 10
69.333959449048862
 20
18.153433392171099
 30
0.0
 11
49.415059366578753
 21
18.15343339217106
 31
0.0
 12
67.728422418413743
 22
17.16955903441006
 32
0.0
 13
67.728422418413743
 23
17.16955903441006
 33
0.0
210
0.0
220
0.0
230
1.0
  0
SOLID
  5
E7F
  8
DRG
  6
CONTINUOUS
 62
     7
 10
146.22680763884421
 20
18.153433392171099
 30
0.0
 11
147.83234466947931
 21
17.16955903441006
 31
0.0
 12
166.1457077213143
 22
18.153433392171099
 32
0.0
 13
166.1457077213143
 23
18.153433392171099
 33
0.0
210
0.0
220
0.0
230
1.0
  0
SOLID
  5
E80
  8
DRG
  6
CONTINUOUS
 62
     7
 10
96.774922223832405
 20
18.44288155552006
 30
0.0
 11
86.828697268901934
 21
18.062731137909029
 31
0.0
 12
94.991749269489972
 22
17.839408458597301
 32
0.0
 13
94.991749269489972
 23
17.839408458597301
 33
0.0
  0
SOLID
  5
E81
  8
DRG
  6
CONTINUOUS
 62
     7
 10
85.398663329684837
 20
18.95474449545469
 30
0.0
 11
86.828697268901934
 21
18.062731137909029
 31
0.0
 12
96.774922223832405
 22
18.44288155552006
 32
0.0
 13
96.774922223832405
 23
18.44288155552006
 33
0.0
210
0.0
220
0.0
230
1.0
  0
SOLID
  5
E82
  8
DRG
  6
CONTINUOUS
 62
     7
 10
16.63887701418912
 20
19.193077338746122
 30
0.0
 11
18.58303542025671
 21
18.945146626805109
 31
0.0
 12
20.271303339863209
 22
19.129413603414459
 32
0.0
 13
20.271303339863209
 23
19.129413603414459
 33
0.0
210
0.0
220
0.0
230
1.0
  0
SOLID
  5
E83
  8
DRG
  6
CONTINUOUS
 62
     7
 10
98.426543494326594
 20
19.34622686195554
 30
0.0
 11
85.398663329684837
 21
18.95474449545469
 31
0.0
 12
96.774922223832405
 22
18.44288155552006
 32
0.0
 13
96.774922223832405
 23
18.44288155552006
 33
0.0
210
0.0
220
0.0
230
1.0
  0
SOLID
  5
E84
  8
DRG
  6
CONTINUOUS
 62
     7
 10
47.983201019849858
 20
19.37635595043184
 30
0.0
 11
49.415059366578753
 21
18.15343339217106
 31
0.0
 12
69.333959449048862
 22
18.153433392171099
 32
0.0
 13
69.333959449048862
 23
18.153433392171099
 33
0.0
  0
SOLID
  5
E85
  8
DRG
  6
CONTINUOUS
 62
     7
 10
70.76581779577775
 20
19.376355950431901
 30
0.0
 11
47.983201019849858
 21
19.37635595043184
 31
0.0
 12
69.333959449048862
 22
18.153433392171099
 32
0.0
 13
69.333959449048862
 23
18.153433392171099
 33
0.0
210
0.0
220
0.0
230
1.0
  0
SOLID
  5
E86
  8
DRG
  6
CONTINUOUS
 62
     7
 10
167.57756606804321
 20
19.376355950431901
 30
0.0
 11
146.22680763884421
 21
18.153433392171099
 31
0.0
 12
166.1457077213143
 22
18.153433392171099
 32
0.0
 13
166.1457077213143
 23
18.153433392171099
 33
0.0
210
0.0
220
0.0
230
1.0
  0
SOLID
  5
E87
  8
DRG
  6
CONTINUOUS
 62
     7
 10
144.79494929211521
 20
19.376355950431911
 30
0.0
 11
146.22680763884421
 21
18.153433392171099
 31
0.0
 12
167.57756606804321
 22
19.376355950431901
 32
0.0
 13
167.57756606804321
 23
19.376355950431901
 33
0.0
210
0.0
220
0.0
230
1.0
  0
SOLID
  5
E88
  8
DRG
  6
CONTINUOUS
 62
     7
 10
102.3181837587821
 20
19.484710699009419
 30
0.0
 11
102.6710305977499
 21
17.89352120355198
 31
0.0
 12
111.8021775281067
 22
17.893521203552009
 32
0.0
 13
111.8021775281067
 23
17.893521203552009
 33
0.0
210
0.0
220
0.0
230
1.0
  0
SOLID
  5
E89
  8
DRG
  6
CONTINUOUS
 62
     7
 10
21.895927098915749
 20
19.624186812635841
 30
0.0
 11
16.63887701418912
 21
19.193077338746122
 31
0.0
 12
20.271303339863209
 22
19.129413603414459
 32
0.0
 13
20.271303339863209
 23
19.129413603414459
 33
0.0
210
0.0
220
0.0
230
1.0
  0
SOLID
  5
E8A
  8
DRG
  6
CONTINUOUS
 62
     7
 10
14.76019055141534
 20
19.751430918834409
 30
0.0
 11
16.63887701418912
 21
19.193077338746122
 31
0.0
 12
21.895927098915749
 22
19.624186812635841
 32
0.0
 13
21.895927098915749
 23
19.624186812635841
 33
0.0
210
0.0
220
0.0
230
1.0
  0
SOLID
  5
E8B
  8
DRG
  6
CONTINUOUS
 62
     7
 10
23.40031659456379
 20
20.41223194613077
 30
0.0
 11
14.76019055141534
 21
19.751430918834409
 31
0.0
 12
21.895927098915749
 22
19.624186812635841
 32
0.0
 13
21.895927098915749
 23
19.624186812635841
 33
0.0
210
0.0
220
0.0
230
1.0
  0
SOLID
  5
E8C
  8
DRG
  6
CONTINUOUS
 62
     7
 10
84.027895067150837
 20
20.41802219979682
 30
0.0
 11
85.398663329684837
 21
18.95474449545469
 31
0.0
 12
98.426543494326594
 22
19.34622686195554
 32
0.0
 13
98.426543494326594
 23
19.34622686195554
 33
0.0
210
0.0
220
0.0
230
1.0
  0
SOLID
  5
E8D
  8
DRG
  6
CONTINUOUS
 62
     7
 10
99.896639117703884
 20
20.522111389421919
 30
0.0
 11
84.027895067150837
 21
20.41802219979682
 31
0.0
 12
98.426543494326594
 22
19.34622686195554
 32
0.0
 13
98.426543494326594
 23
19.34622686195554
 33
0.0
210
0.0
220
0.0
230
1.0
  0
SOLID
  5
E8E
  8
DRG
  6
CONTINUOUS
 62
     7
 10
12.996201983781489
 20
20.605577205523009
 30
0.0
 11
14.76019055141534
 21
19.751430918834409
 31
0.0
 12
23.40031659456379
 22
20.41223194613077
 32
0.0
 13
23.40031659456379
 23
20.41223194613077
 33
0.0
210
0.0
220
0.0
230
1.0
  0
SOLID
  5
E8F
  8
DRG
  6
CONTINUOUS
 62
     7
 10
111.2870334115631
 20
20.69438210209054
 30
0.0
 11
102.3181837587821
 21
19.484710699009419
 31
0.0
 12
111.8021775281067
 22
17.893521203552009
 32
0.0
 13
111.8021775281067
 23
17.893521203552009
 33
0.0
210
0.0
220
0.0
230
1.0
  0
SOLID
  5
E90
  8
DRG
  6
CONTINUOUS
 62
     7
 10
46.76027846158906
 20
20.80821429716071
 30
0.0
 11
47.983201019849858
 21
19.37635595043184
 31
0.0
 12
70.76581779577775
 22
19.376355950431901
 32
0.0
 13
70.76581779577775
 23
19.376355950431901
 33
0.0
  0
SOLID
  5
E91
  8
DRG
  6
CONTINUOUS
 62
     7
 10
168.800488626304
 20
20.808214297160799
 30
0.0
 11
144.79494929211521
 21
19.376355950431911
 31
0.0
 12
167.57756606804321
 22
19.376355950431901
 32
0.0
 13
167.57756606804321
 23
19.376355950431901
 33
0.0
210
0.0
220
0.0
230
1.0
  0
SOLID
  5
E92
  8
DRG
  6
CONTINUOUS
 62
     7
 10
71.988740354038555
 20
20.808214297160799
 30
0.0
 11
46.76027846158906
 21
20.80821429716071
 31
0.0
 12
70.76581779577775
 22
19.376355950431901
 32
0.0
 13
70.76581779577775
 23
19.376355950431901
 33
0.0
  0
SOLID
  5
E93
  8
DRG
  6
CONTINUOUS
 62
     7
 10
143.57202673385439
 20
20.808214297160799
 30
0.0
 11
144.79494929211521
 21
19.376355950431911
 31
0.0
 12
168.800488626304
 22
20.808214297160799
 32
0.0
 13
168.800488626304
 23
20.808214297160799
 33
0.0
210
0.0
220
0.0
230
1.0
  0
SOLID
  5
E94
  8
DRG
  6
CONTINUOUS
 62
     7
 10
102.1211660476033
 20
21.102600968374279
 30
0.0
 11
102.3181837587821
 21
19.484710699009419
 31
0.0
 12
111.2870334115631
 22
20.69438210209054
 32
0.0
 13
111.2870334115631
 23
20.69438210209054
 33
0.0
210
0.0
220
0.0
230
1.0
  0
SOLID
  5
E95
  8
DRG
  6
CONTINUOUS
 62
     7
 10
24.732069813226289
 20
21.466099229816571
 30
0.0
 11
12.996201983781489
 21
20.605577205523009
 31
0.0
 12
23.40031659456379
 22
20.41223194613077
 32
0.0
 13
23.40031659456379
 23
20.41223194613077
 33
0.0
  0
SOLID
  5
E96
  8
DRG
  6
CONTINUOUS
 62
     7
 10
11.39313191169536
 20
21.733135580858232
 30
0.0
 11
12.996201983781489
 21
20.605577205523009
 31
0.0
 12
24.732069813226289
 22
21.466099229816571
 32
0.0
 13
24.732069813226289
 23
21.466099229816571
 33
0.0
210
0.0
220
0.0
230
1.0
  0
SOLID
  5
E97
  8
DRG
  6
CONTINUOUS
 62
     7
 10
101.14072764655459
 20
21.93495578856496
 30
0.0
 11
84.027895067150837
 21
20.41802219979682
 31
0.0
 12
99.896639117703884
 22
20.522111389421919
 32
0.0
 13
99.896639117703884
 23
20.522111389421919
 33
0.0
210
0.0
220
0.0
230
1.0
  0
SOLID
  5
E98
  8
DRG
  6
CONTINUOUS
 62
     7
 10
82.919900870315985
 20
22.089110506672171
 30
0.0
 11
84.027895067150837
 21
20.41802219979682
 31
0.0
 12
101.14072764655459
 22
21.93495578856496
 32
0.0
 13
101.14072764655459
 23
21.93495578856496
 33
0.0
  0
SOLID
  5
E99
  8
DRG
  6
CONTINUOUS
 62
     7
 10
45.776404103828007
 20
22.413751327795801
 30
0.0
 11
46.76027846158906
 21
20.80821429716071
 31
0.0
 12
71.988740354038555
 22
20.808214297160799
 32
0.0
 13
71.988740354038555
 23
20.808214297160799
 33
0.0
210
0.0
220
0.0
230
1.0
  0
SOLID
  5
E9A
  8
DRG
  6
CONTINUOUS
 62
     7
 10
72.972614711799594
 20
22.413751327795911
 30
0.0
 11
45.776404103828007
 21
22.413751327795801
 31
0.0
 12
71.988740354038555
 22
20.808214297160799
 32
0.0
 13
71.988740354038555
 23
20.808214297160799
 33
0.0
210
0.0
220
0.0
230
1.0
  0
SOLID
  5
E9B
  8
DRG
  6
CONTINUOUS
 62
     7
 10
169.78436298406501
 20
22.413751327795911
 30
0.0
 11
143.57202673385439
 21
20.808214297160799
 31
0.0
 12
168.800488626304
 22
20.808214297160799
 32
0.0
 13
168.800488626304
 23
20.808214297160799
 33
0.0
210
0.0
220
0.0
230
1.0
  0
SOLID
  5
E9C
  8
DRG
  6
CONTINUOUS
 62
     7
 10
142.5881523760934
 20
22.413751327795921
 30
0.0
 11
143.57202673385439
 21
20.808214297160799
 31
0.0
 12
169.78436298406501
 22
22.413751327795911
 32
0.0
 13
169.78436298406501
 23
22.413751327795911
 33
0.0
210
0.0
220
0.0
230
1.0
  0
SOLID
  5
E9D
  8
DRG
  6
CONTINUOUS
 62
     7
 10
25.844798136495001
 20
22.74907957480897
 30
0.0
 11
11.39313191169536
 21
21.733135580858232
 31
0.0
 12
24.732069813226289
 22
21.466099229816571
 32
0.0
 13
24.732069813226289
 23
21.466099229816571
 33
0.0
210
0.0
220
0.0
230
1.0
  0
SOLID
  5
E9E
  8
DRG
  6
CONTINUOUS
 62
     7
 10
9.9929844969679333
 20
23.104561394688101
 30
0.0
 11
11.39313191169536
 21
21.733135580858232
 31
0.0
 12
25.844798136495001
 22
22.74907957480897
 32
0.0
 13
25.844798136495001
 23
22.74907957480897
 33
0.0
210
0.0
220
0.0
230
1.0
  0
SOLID
  5
E9F
  8
DRG
  6
CONTINUOUS
 62
     7
 10
111.2523129779601
 20
23.54201089202471
 30
0.0
 11
102.1211660476033
 21
21.102600968374279
 31
0.0
 12
111.2870334115631
 22
20.69438210209054
 32
0.0
 13
111.2870334115631
 23
20.69438210209054
 33
0.0
210
0.0
220
0.0
230
1.0
  0
SOLID
  5
EA0
  8
DRG
  6
CONTINUOUS
 62
     7
 10
102.1211660476033
 20
23.542010892025001
 30
0.0
 11
82.919900870315985
 21
22.089110506672171
 31
0.0
 12
101.14072764655459
 22
21.93495578856496
 32
0.0
 13
101.14072764655459
 23
21.93495578856496
 33
0.0
210
0.0
220
0.0
230
1.0
  0
SOLID
  5
EA1
  8
DRG
  6
CONTINUOUS
 62
     7
 10
102.1211660476033
 20
23.542010892025001
 30
0.0
 11
102.1211660476033
 21
21.102600968374279
 31
0.0
 12
111.2523129779601
 22
23.54201089202471
 32
0.0
 13
111.2523129779601
 23
23.54201089202471
 33
0.0
210
0.0
220
0.0
230
1.0
  0
SOLID
  5
EA2
  8
DRG
  6
CONTINUOUS
 62
     7
 10
95.863486513980718
 20
23.758749615986972
 30
0.0
 11
102.1211660476033
 21
23.542010892025001
 31
0.0
 12
111.2523129779601
 22
23.54201089202471
 32
0.0
 13
111.2523129779601
 23
23.54201089202471
 33
0.0
210
0.0
220
0.0
230
1.0
  0
SOLID
  5
EA3
  8
DRG
  6
CONTINUOUS
 62
     7
 10
95.863486513980718
 20
23.758749615986972
 30
0.0
 11
82.919900870315985
 21
22.089110506672171
 31
0.0
 12
102.1211660476033
 22
23.542010892025001
 32
0.0
 13
102.1211660476033
 23
23.542010892025001
 33
0.0
210
0.0
220
0.0
230
1.0
  0
SOLID
  5
EA4
  8
DRG
  6
CONTINUOUS
 62
     7
 10
156.18625891463009
 20
23.758749615986972
 30
0.0
 11
142.5881523760934
 21
22.413751327795921
 31
0.0
 12
169.78436298406501
 22
22.413751327795911
 32
0.0
 13
169.78436298406501
 23
22.413751327795911
 33
0.0
210
0.0
220
0.0
230
1.0
  0
SOLID
  5
EA5
  8
DRG
  6
CONTINUOUS
 62
     7
 10
59.374510642364612
 20
23.758749615986979
 30
0.0
 11
45.776404103828007
 21
22.413751327795801
 31
0.0
 12
72.972614711799594
 22
22.413751327795911
 32
0.0
 13
72.972614711799594
 23
22.413751327795911
 33
0.0
210
0.0
220
0.0
230
1.0
  0
SOLID
  5
EA6
  8
DRG
  6
CONTINUOUS
 62
     7
 10
155.18690699305799
 20
23.890316792430699
 30
0.0
 11
142.5881523760934
 21
22.413751327795921
 31
0.0
 12
156.18625891463009
 22
23.758749615986972
 32
0.0
 13
156.18625891463009
 23
23.758749615986972
 33
0.0
210
0.0
220
0.0
230
1.0
  0
SOLID
  5
EA7
  8
DRG
  6
CONTINUOUS
 62
     7
 10
157.18561083620219
 20
23.890316792430699
 30
0.0
 11
156.18625891463009
 21
23.758749615986972
 31
0.0
 12
169.78436298406501
 22
22.413751327795911
 32
0.0
 13
169.78436298406501
 23
22.413751327795911
 33
0.0
210
0.0
220
0.0
230
1.0
  0
SOLID
  5
EA8
  8
DRG
  6
CONTINUOUS
 62
     7
 10
58.375158720792513
 20
23.89031679243071
 30
0.0
 11
45.776404103828007
 21
22.413751327795801
 31
0.0
 12
59.374510642364612
 22
23.758749615986979
 32
0.0
 13
59.374510642364612
 23
23.758749615986979
 33
0.0
210
0.0
220
0.0
230
1.0
  0
SOLID
  5
EA9
  8
DRG
  6
CONTINUOUS
 62
     7
 10
60.373862563936711
 20
23.89031679243071
 30
0.0
 11
59.374510642364612
 21
23.758749615986979
 31
0.0
 12
72.972614711799594
 22
22.413751327795911
 32
0.0
 13
72.972614711799594
 23
22.413751327795911
 33
0.0
210
0.0
220
0.0
230
1.0
  0
SOLID
  5
EAA
  8
DRG
  6
CONTINUOUS
 62
     7
 10
94.864134592408647
 20
23.890316792430731
 30
0.0
 11
82.919900870315985
 21
22.089110506672171
 31
0.0
 12
95.863486513980718
 22
23.758749615986972
 32
0.0
 13
95.863486513980718
 23
23.758749615986972
 33
0.0
210
0.0
220
0.0
230
1.0
  0
SOLID
  5
EAB
  8
DRG
  6
CONTINUOUS
 62
     7
 10
82.105613684769864
 20
23.921356027624689
 30
0.0
 11
82.919900870315985
 21
22.089110506672171
 31
0.0
 12
94.864134592408647
 22
23.890316792430731
 32
0.0
 13
94.864134592408647
 23
23.890316792430731
 33
0.0
210
0.0
220
0.0
230
1.0
  0
SOLID
  5
EAC
  8
DRG
  6
CONTINUOUS
 62
     7
 10
97.173405164404457
 20
23.979508094530029
 30
0.0
 11
95.863486513980718
 21
23.758749615986972
 31
0.0
 12
111.2523129779601
 22
23.54201089202471
 32
0.0
 13
111.2523129779601
 23
23.54201089202471
 33
0.0
210
0.0
220
0.0
230
1.0
  0
SOLID
  5
EAD
  8
DRG
  6
CONTINUOUS
 62
     7
 10
45.055804198546561
 20
24.153433392170971
 30
0.0
 11
45.776404103828007
 21
22.413751327795801
 31
0.0
 12
58.375158720792513
 22
23.89031679243071
 32
0.0
 13
58.375158720792513
 23
23.89031679243071
 33
0.0
  0
SOLID
  5
EAE
  8
DRG
  6
CONTINUOUS
 62
     7
 10
73.693214617081026
 20
24.15343339217111
 30
0.0
 11
60.373862563936711
 21
23.89031679243071
 31
0.0
 12
72.972614711799594
 22
22.413751327795911
 32
0.0
 13
72.972614711799594
 23
22.413751327795911
 33
0.0
210
0.0
220
0.0
230
1.0
  0
SOLID
  5
EAF
  8
DRG
  6
CONTINUOUS
 62
     7
 10
170.5049628893465
 20
24.15343339217111
 30
0.0
 11
157.18561083620219
 21
23.890316792430699
 31
0.0
 12
169.78436298406501
 22
22.413751327795911
 32
0.0
 13
169.78436298406501
 23
22.413751327795911
 33
0.0
210
0.0
220
0.0
230
1.0
  0
SOLID
  5
EB0
  8
DRG
  6
CONTINUOUS
 62
     7
 10
141.867552470812
 20
24.15343339217111
 30
0.0
 11
142.5881523760934
 21
22.413751327795921
 31
0.0
 12
155.18690699305799
 22
23.890316792430699
 32
0.0
 13
155.18690699305799
 23
23.890316792430699
 33
0.0
210
0.0
220
0.0
230
1.0
  0
SOLID
  5
EB1
  8
DRG
  6
CONTINUOUS
 62
     7
 10
26.699742183985649
 20
24.216483255703061
 30
0.0
 11
9.9929844969679333
 21
23.104561394688101
 31
0.0
 12
25.844798136495001
 22
22.74907957480897
 32
0.0
 13
25.844798136495001
 23
22.74907957480897
 33
0.0
210
0.0
220
0.0
230
1.0
  0
SOLID
  5
EB2
  8
DRG
  6
CONTINUOUS
 62
     7
 10
154.25565925343389
 20
24.276052236112282
 30
0.0
 11
141.867552470812
 21
24.15343339217111
 31
0.0
 12
155.18690699305799
 22
23.890316792430699
 32
0.0
 13
155.18690699305799
 23
23.890316792430699
 33
0.0
210
0.0
220
0.0
230
1.0
  0
SOLID
  5
EB3
  8
DRG
  6
CONTINUOUS
 62
     7
 10
158.11685857582631
 20
24.276052236112289
 30
0.0
 11
157.18561083620219
 21
23.890316792430699
 31
0.0
 12
170.5049628893465
 22
24.15343339217111
 32
0.0
 13
170.5049628893465
 23
24.15343339217111
 33
0.0
210
0.0
220
0.0
230
1.0
  0
SOLID
  5
EB4
  8
DRG
  6
CONTINUOUS
 62
     7
 10
57.443910981168422
 20
24.276052236112289
 30
0.0
 11
45.055804198546561
 21
24.153433392170971
 31
0.0
 12
58.375158720792513
 22
23.89031679243071
 32
0.0
 13
58.375158720792513
 23
23.89031679243071
 33
0.0
210
0.0
220
0.0
230
1.0
  0
SOLID
  5
EB5
  8
DRG
  6
CONTINUOUS
 62
     7
 10
61.305110303560809
 20
24.276052236112299
 30
0.0
 11
60.373862563936711
 21
23.89031679243071
 31
0.0
 12
73.693214617081026
 22
24.15343339217111
 32
0.0
 13
73.693214617081026
 23
24.15343339217111
 33
0.0
210
0.0
220
0.0
230
1.0
  0
SOLID
  5
EB6
  8
DRG
  6
CONTINUOUS
 62
     7
 10
93.932886852784591
 20
24.276052236112349
 30
0.0
 11
82.105613684769864
 21
23.921356027624689
 31
0.0
 12
94.864134592408647
 22
23.890316792430731
 32
0.0
 13
94.864134592408647
 23
23.890316792430731
 33
0.0
210
0.0
220
0.0
230
1.0
  0
SOLID
  5
EB7
  8
DRG
  6
CONTINUOUS
 62
     7
 10
98.402359265448993
 20
24.483782815394029
 30
0.0
 11
97.173405164404457
 21
23.979508094530029
 31
0.0
 12
111.2523129779601
 22
23.54201089202471
 32
0.0
 13
111.2523129779601
 23
23.54201089202471
 33
0.0
210
0.0
220
0.0
230
1.0
  0
SOLID
  5
EB8
  8
DRG
  6
CONTINUOUS
 62
     7
 10
8.8324468561460723
 20
24.6839201031652
 30
0.0
 11
9.9929844969679333
 21
23.104561394688101
 31
0.0
 12
26.699742183985649
 22
24.216483255703061
 32
0.0
 13
26.699742183985649
 23
24.216483255703061
 33
0.0
  0
SOLID
  5
EB9
  8
DRG
  6
CONTINUOUS
 62
     7
 10
153.45597869025349
 20
24.889668714002791
 30
0.0
 11
141.867552470812
 21
24.15343339217111
 31
0.0
 12
154.25565925343389
 22
24.276052236112282
 32
0.0
 13
154.25565925343389
 23
24.276052236112282
 33
0.0
210
0.0
220
0.0
230
1.0
  0
SOLID
  5
EBA
  8
DRG
  6
CONTINUOUS
 62
     7
 10
158.9165391390066
 20
24.889668714002799
 30
0.0
 11
158.11685857582631
 21
24.276052236112289
 31
0.0
 12
170.5049628893465
 22
24.15343339217111
 32
0.0
 13
170.5049628893465
 23
24.15343339217111
 33
0.0
  0
SOLID
  5
EBB
  8
DRG
  6
CONTINUOUS
 62
     7
 10
56.644230417988048
 20
24.889668714002799
 30
0.0
 11
45.055804198546561
 21
24.153433392170971
 31
0.0
 12
57.443910981168422
 22
24.276052236112289
 32
0.0
 13
57.443910981168422
 23
24.276052236112289
 33
0.0
  0
SOLID
  5
EBC
  8
DRG
  6
CONTINUOUS
 62
     7
 10
62.104790866741169
 20
24.889668714002809
 30
0.0
 11
61.305110303560809
 21
24.276052236112299
 31
0.0
 12
73.693214617081026
 22
24.15343339217111
 32
0.0
 13
73.693214617081026
 23
24.15343339217111
 33
0.0
210
0.0
220
0.0
230
1.0
  0
SOLID
  5
EBD
  8
DRG
  6
CONTINUOUS
 62
     7
 10
93.13320628960426
 20
24.889668714002859
 30
0.0
 11
82.105613684769864
 21
23.921356027624689
 31
0.0
 12
93.932886852784591
 22
24.276052236112349
 32
0.0
 13
93.932886852784591
 23
24.276052236112349
 33
0.0
210
0.0
220
0.0
230
1.0
  0
SOLID
  5
EBE
  8
DRG
  6
CONTINUOUS
 62
     7
 10
99.489802543822094
 20
25.246729925551559
 30
0.0
 11
98.402359265448993
 21
24.483782815394029
 31
0.0
 12
111.2523129779601
 22
23.54201089202471
 32
0.0
 13
111.2523129779601
 23
23.54201089202471
 33
0.0
210
0.0
220
0.0
230
1.0
  0
SOLID
  5
EBF
  8
DRG
  6
CONTINUOUS
 62
     7
 10
22.683854862926161
 20
25.455509253088579
 30
0.0
 11
8.8324468561460723
 21
24.6839201031652
 31
0.0
 12
26.699742183985649
 22
24.216483255703061
 32
0.0
 13
26.699742183985649
 23
24.216483255703061
 33
0.0
210
0.0
220
0.0
230
1.0
  0
SOLID
  5
EC0
  8
DRG
  6
CONTINUOUS
 62
     7
 10
21.324900358829058
 20
25.598514200010129
 30
0.0
 11
8.8324468561460723
 21
24.6839201031652
 31
0.0
 12
22.683854862926161
 22
25.455509253088579
 32
0.0
 13
22.683854862926161
 23
25.455509253088579
 33
0.0
210
0.0
220
0.0
230
1.0
  0
SOLID
  5
EC1
  8
DRG
  6
CONTINUOUS
 62
     7
 10
152.84236221236301
 20
25.689349277183162
 30
0.0
 11
141.867552470812
 21
24.15343339217111
 31
0.0
 12
153.45597869025349
 22
24.889668714002791
 32
0.0
 13
153.45597869025349
 23
24.889668714002791
 33
0.0
210
0.0
220
0.0
230
1.0
  0
SOLID
  5
EC2
  8
DRG
  6
CONTINUOUS
 62
     7
 10
159.5301556168971
 20
25.689349277183162
 30
0.0
 11
158.9165391390066
 21
24.889668714002799
 31
0.0
 12
170.5049628893465
 22
24.15343339217111
 32
0.0
 13
170.5049628893465
 23
24.15343339217111
 33
0.0
210
0.0
220
0.0
230
1.0
  0
SOLID
  5
EC3
  8
DRG
  6
CONTINUOUS
 62
     7
 10
56.030613940097538
 20
25.689349277183169
 30
0.0
 11
45.055804198546561
 21
24.153433392170971
 31
0.0
 12
56.644230417988048
 22
24.889668714002799
 32
0.0
 13
56.644230417988048
 23
24.889668714002799
 33
0.0
210
0.0
220
0.0
230
1.0
  0
SOLID
  5
EC4
  8
DRG
  6
CONTINUOUS
 62
     7
 10
62.718407344631679
 20
25.689349277183169
 30
0.0
 11
62.104790866741169
 21
24.889668714002809
 31
0.0
 12
73.693214617081026
 22
24.15343339217111
 32
0.0
 13
73.693214617081026
 23
24.15343339217111
 33
0.0
210
0.0
220
0.0
230
1.0
  0
SOLID
  5
EC5
  8
DRG
  6
CONTINUOUS
 62
     7
 10
92.519589811713786
 20
25.689349277183219
 30
0.0
 11
82.105613684769864
 21
23.921356027624689
 31
0.0
 12
93.13320628960426
 22
24.889668714002859
 32
0.0
 13
93.13320628960426
 23
24.889668714002859
 33
0.0
210
0.0
220
0.0
230
1.0
  0
SOLID
  5
EC6
  8
DRG
  6
CONTINUOUS
 62
     7
 10
27.267121908897021
 20
25.817196576320061
 30
0.0
 11
22.683854862926161
 21
25.455509253088579
 31
0.0
 12
26.699742183985649
 22
24.216483255703061
 32
0.0
 13
26.699742183985649
 23
24.216483255703061
 33
0.0
210
0.0
220
0.0
230
1.0
  0
SOLID
  5
EC7
  8
DRG
  6
CONTINUOUS
 62
     7
 10
27.267121908897021
 20
25.817196576320061
 30
0.0
 11
27.267121908897021
 21
13.51984597021351
 31
0.0
 12
37.639779947293839
 22
13.760967175618781
 32
0.0
 13
37.639779947293839
 23
13.760967175618781
 33
0.0
  0
SOLID
  5
EC8
  8
DRG
  6
CONTINUOUS
 62
     7
 10
81.607766753409166
 20
25.863606192389771
 30
0.0
 11
82.105613684769864
 21
23.921356027624689
 31
0.0
 12
92.519589811713786
 22
25.689349277183219
 32
0.0
 13
92.519589811713786
 23
25.689349277183219
 33
0.0
210
0.0
220
0.0
230
1.0
  0
SOLID
  5
EC9
  8
DRG
  6
CONTINUOUS
 62
     7
 10
44.616222306946739
 20
25.984423744187549
 30
0.0
 11
45.055804198546561
 21
24.153433392170971
 31
0.0
 12
56.030613940097538
 22
25.689349277183169
 32
0.0
 13
56.030613940097538
 23
25.689349277183169
 33
0.0
210
0.0
220
0.0
230
1.0
  0
SOLID
  5
ECA
  8
DRG
  6
CONTINUOUS
 62
     7
 10
74.13279650868084
 20
25.984423744187708
 30
0.0
 11
62.718407344631679
 21
25.689349277183169
 31
0.0
 12
73.693214617081026
 22
24.15343339217111
 32
0.0
 13
73.693214617081026
 23
24.15343339217111
 33
0.0
210
0.0
220
0.0
230
1.0
  0
SOLID
  5
ECB
  8
DRG
  6
CONTINUOUS
 62
     7
 10
170.9445447809463
 20
25.984423744187708
 30
0.0
 11
159.5301556168971
 21
25.689349277183162
 31
0.0
 12
170.5049628893465
 22
24.15343339217111
 32
0.0
 13
170.5049628893465
 23
24.15343339217111
 33
0.0
210
0.0
220
0.0
230
1.0
  0
SOLID
  5
ECC
  8
DRG
  6
CONTINUOUS
 62
     7
 10
141.4279705792122
 20
25.984423744187708
 30
0.0
 11
141.867552470812
 21
24.15343339217111
 31
0.0
 12
152.84236221236301
 22
25.689349277183162
 32
0.0
 13
152.84236221236301
 23
25.689349277183162
 33
0.0
210
0.0
220
0.0
230
1.0
  0
SOLID
  5
ECD
  8
DRG
  6
CONTINUOUS
 62
     7
 10
24.051224454271221
 20
25.98993993797998
 30
0.0
 11
22.683854862926161
 21
25.455509253088579
 31
0.0
 12
27.267121908897021
 22
25.817196576320061
 32
0.0
 13
27.267121908897021
 23
25.817196576320061
 33
0.0
210
0.0
220
0.0
230
1.0
  0
SOLID
  5
ECE
  8
DRG
  6
CONTINUOUS
 62
     7
 10
20.047581694184561
 20
26.08396737797953
 30
0.0
 11
8.8324468561460723
 21
24.6839201031652
 31
0.0
 12
21.324900358829058
 22
25.598514200010129
 32
0.0
 13
21.324900358829058
 23
25.598514200010129
 33
0.0
210
0.0
220
0.0
230
1.0
  0
SOLID
  5
ECF
  8
DRG
  6
CONTINUOUS
 62
     7
 10
100.382160469876
 20
26.230761687429851
 30
0.0
 11
99.489802543822094
 21
25.246729925551559
 31
0.0
 12
111.2523129779601
 22
23.54201089202471
 32
0.0
 13
111.2523129779601
 23
23.54201089202471
 33
0.0
210
0.0
220
0.0
230
1.0
  0
SOLID
  5
ED0
  8
DRG
  6
CONTINUOUS
 62
     7
 10
7.9419277727893016
 20
26.429828837316059
 30
0.0
 11
8.8324468561460723
 21
24.6839201031652
 31
0.0
 12
20.047581694184561
 22
26.08396737797953
 32
0.0
 13
20.047581694184561
 23
26.08396737797953
 33
0.0
  0
SOLID
  5
ED1
  8
DRG
  6
CONTINUOUS
 62
     7
 10
152.45662676868139
 20
26.62059701680726
 30
0.0
 11
141.4279705792122
 21
25.984423744187708
 31
0.0
 12
152.84236221236301
 22
25.689349277183162
 32
0.0
 13
152.84236221236301
 23
25.689349277183162
 33
0.0
210
0.0
220
0.0
230
1.0
  0
SOLID
  5
ED2
  8
DRG
  6
CONTINUOUS
 62
     7
 10
159.91589106057879
 20
26.62059701680727
 30
0.0
 11
159.5301556168971
 21
25.689349277183162
 31
0.0
 12
170.9445447809463
 22
25.984423744187708
 32
0.0
 13
170.9445447809463
 23
25.984423744187708
 33
0.0
210
0.0
220
0.0
230
1.0
  0
SOLID
  5
ED3
  8
DRG
  6
CONTINUOUS
 62
     7
 10
55.644878496415949
 20
26.62059701680727
 30
0.0
 11
44.616222306946739
 21
25.984423744187549
 31
0.0
 12
56.030613940097538
 22
25.689349277183169
 32
0.0
 13
56.030613940097538
 23
25.689349277183169
 33
0.0
210
0.0
220
0.0
230
1.0
  0
SOLID
  5
ED4
  8
DRG
  6
CONTINUOUS
 62
     7
 10
63.104142788313268
 20
26.62059701680727
 30
0.0
 11
62.718407344631679
 21
25.689349277183169
 31
0.0
 12
74.13279650868084
 22
25.984423744187708
 32
0.0
 13
74.13279650868084
 23
25.984423744187708
 33
0.0
210
0.0
220
0.0
230
1.0
  0
SOLID
  5
ED5
  8
DRG
  6
CONTINUOUS
 62
     7
 10
92.133854368032203
 20
26.620597016807292
 30
0.0
 11
81.607766753409166
 21
25.863606192389771
 31
0.0
 12
92.519589811713786
 22
25.689349277183219
 32
0.0
 13
92.519589811713786
 23
25.689349277183219
 33
0.0
210
0.0
220
0.0
230
1.0
  0
SOLID
  5
ED6
  8
DRG
  6
CONTINUOUS
 62
     7
 10
25.258677615930779
 20
26.825028327725018
 30
0.0
 11
24.051224454271221
 21
25.98993993797998
 31
0.0
 12
27.267121908897021
 22
25.817196576320061
 32
0.0
 13
27.267121908897021
 23
25.817196576320061
 33
0.0
210
0.0
220
0.0
230
1.0
  0
SOLID
  5
ED7
  8
DRG
  6
CONTINUOUS
 62
     7
 10
18.936680407078839
 20
26.879647017882871
 30
0.0
 11
7.9419277727893016
 21
26.429828837316059
 31
0.0
 12
20.047581694184561
 22
26.08396737797953
 32
0.0
 13
20.047581694184561
 23
26.08396737797953
 33
0.0
210
0.0
220
0.0
230
1.0
  0
SOLID
  5
ED8
  8
DRG
  6
CONTINUOUS
 62
     7
 10
101.0354696874371
 20
27.38739829536954
 30
0.0
 11
100.382160469876
 21
26.230761687429851
 31
0.0
 12
111.2523129779601
 22
23.54201089202471
 32
0.0
 13
111.2523129779601
 23
23.54201089202471
 33
0.0
210
0.0
220
0.0
230
1.0
  0
SOLID
  5
ED9
  8
DRG
  6
CONTINUOUS
 62
     7
 10
92.002287191588479
 20
27.619948938379359
 30
0.0
 11
81.607766753409166
 21
25.863606192389771
 31
0.0
 12
92.133854368032203
 22
26.620597016807292
 32
0.0
 13
92.133854368032203
 23
26.620597016807292
 33
0.0
210
0.0
220
0.0
230
1.0
  0
SOLID
  5
EDA
  8
DRG
  6
CONTINUOUS
 62
     7
 10
152.32505959223769
 20
27.619948938379359
 30
0.0
 11
141.4279705792122
 21
25.984423744187708
 31
0.0
 12
152.45662676868139
 22
26.62059701680726
 32
0.0
 13
152.45662676868139
 23
26.62059701680726
 33
0.0
210
0.0
220
0.0
230
1.0
  0
SOLID
  5
EDB
  8
DRG
  6
CONTINUOUS
 62
     7
 10
160.04745823702251
 20
27.619948938379359
 30
0.0
 11
159.91589106057879
 21
26.62059701680727
 31
0.0
 12
170.9445447809463
 22
25.984423744187708
 32
0.0
 13
170.9445447809463
 23
25.984423744187708
 33
0.0
210
0.0
220
0.0
230
1.0
  0
SOLID
  5
EDC
  8
DRG
  6
CONTINUOUS
 62
     7
 10
55.513311319972217
 20
27.61994893837937
 30
0.0
 11
44.616222306946739
 21
25.984423744187549
 31
0.0
 12
55.644878496415949
 22
26.62059701680727
 32
0.0
 13
55.644878496415949
 23
26.62059701680727
 33
0.0
  0
SOLID
  5
EDD
  8
DRG
  6
CONTINUOUS
 62
     7
 10
63.235709964757007
 20
27.61994893837937
 30
0.0
 11
63.104142788313268
 21
26.62059701680727
 31
0.0
 12
74.13279650868084
 22
25.984423744187708
 32
0.0
 13
74.13279650868084
 23
25.984423744187708
 33
0.0
  0
SOLID
  5
EDE
  8
DRG
  6
CONTINUOUS
 62
     7
 10
44.468482394088362
 20
27.861637324670291
 30
0.0
 11
44.616222306946739
 21
25.984423744187549
 31
0.0
 12
55.513311319972217
 22
27.61994893837937
 32
0.0
 13
55.513311319972217
 23
27.61994893837937
 33
0.0
  0
SOLID
  5
EDF
  8
DRG
  6
CONTINUOUS
 62
     7
 10
74.280536421539182
 20
27.861637324670479
 30
0.0
 11
63.235709964757007
 21
27.61994893837937
 31
0.0
 12
74.13279650868084
 22
25.984423744187708
 32
0.0
 13
74.13279650868084
 23
25.984423744187708
 33
0.0
210
0.0
220
0.0
230
1.0
  0
SOLID
  5
EE0
  8
DRG
  6
CONTINUOUS
 62
     7
 10
171.0922846938046
 20
27.861637324670479
 30
0.0
 11
160.04745823702251
 21
27.619948938379359
 31
0.0
 12
170.9445447809463
 22
25.984423744187708
 32
0.0
 13
170.9445447809463
 23
25.984423744187708
 33
0.0
210
0.0
220
0.0
230
1.0
  0
SOLID
  5
EE1
  8
DRG
  6
CONTINUOUS
 62
     7
 10
81.440258950509346
 20
27.861637324670479
 30
0.0
 11
81.607766753409166
 21
25.863606192389771
 31
0.0
 12
92.002287191588479
 22
27.619948938379359
 32
0.0
 13
92.002287191588479
 23
27.619948938379359
 33
0.0
210
0.0
220
0.0
230
1.0
  0
SOLID
  5
EE2
  8
DRG
  6
CONTINUOUS
 62
     7
 10
141.28023066635379
 20
27.861637324670479
 30
0.0
 11
141.4279705792122
 21
25.984423744187708
 31
0.0
 12
152.32505959223769
 22
27.619948938379359
 32
0.0
 13
152.32505959223769
 23
27.619948938379359
 33
0.0
  0
SOLID
  5
EE3
  8
DRG
  6
CONTINUOUS
 62
     7
 10
26.241246459003619
 20
27.915841888747771
 30
0.0
 11
25.258677615930779
 21
26.825028327725018
 31
0.0
 12
27.267121908897021
 22
25.817196576320061
 32
0.0
 13
27.267121908897021
 23
25.817196576320061
 33
0.0
210
0.0
220
0.0
230
1.0
  0
SOLID
  5
EE4
  8
DRG
  6
CONTINUOUS
 62
     7
 10
26.241246459003619
 20
27.915841888747771
 30
0.0
 11
27.267121908897021
 21
25.817196576320061
 31
0.0
 12
37.639779947293839
 22
13.760967175618781
 32
0.0
 13
37.639779947293839
 23
13.760967175618781
 33
0.0
210
0.0
220
0.0
230
1.0
  0
SOLID
  5
EE5
  8
DRG
  6
CONTINUOUS
 62
     7
 10
18.065932145780231
 20
27.932740187785338
 30
0.0
 11
7.9419277727893016
 21
26.429828837316059
 31
0.0
 12
18.936680407078839
 22
26.879647017882871
 32
0.0
 13
18.936680407078839
 23
26.879647017882871
 33
0.0
210
0.0
220
0.0
230
1.0
  0
SOLID
  5
EE6
  8
DRG
  6
CONTINUOUS
 62
     7
 10
7.3447609166631631
 20
28.296540730392032
 30
0.0
 11
7.9419277727893016
 21
26.429828837316059
 31
0.0
 12
18.065932145780231
 22
27.932740187785338
 32
0.0
 13
18.065932145780231
 23
27.932740187785338
 33
0.0
210
0.0
220
0.0
230
1.0
  0
SOLID
  5
EE7
  8
DRG
  6
CONTINUOUS
 62
     7
 10
101.4175439347101
 20
28.659656306209889
 30
0.0
 11
101.0354696874371
 21
27.38739829536954
 31
0.0
 12
111.2523129779601
 22
23.54201089202471
 32
0.0
 13
111.2523129779601
 23
23.54201089202471
 33
0.0
210
0.0
220
0.0
230
1.0
  0
SOLID
  5
EE8
  8
DRG
  6
CONTINUOUS
 62
     7
 10
17.493132493272189
 20
29.17334823109978
 30
0.0
 11
7.3447609166631631
 21
28.296540730392032
 31
0.0
 12
18.065932145780231
 22
27.932740187785338
 32
0.0
 13
18.065932145780231
 23
27.932740187785338
 33
0.0
210
0.0
220
0.0
230
1.0
  0
SOLID
  5
EE9
  8
DRG
  6
CONTINUOUS
 62
     7
 10
26.946063157671311
 20
29.203688610049579
 30
0.0
 11
26.241246459003619
 21
27.915841888747771
 31
0.0
 12
37.639779947293839
 22
13.760967175618781
 32
0.0
 13
37.639779947293839
 23
13.760967175618781
 33
0.0
210
0.0
220
0.0
230
1.0
  0
SOLID
  5
EEA
  8
DRG
  6
CONTINUOUS
 62
     7
 10
160.04745823702251
 20
29.300230626583549
 30
0.0
 11
160.04745823702251
 21
27.619948938379359
 31
0.0
 12
171.0922846938046
 22
27.861637324670479
 32
0.0
 13
171.0922846938046
 23
27.861637324670479
 33
0.0
210
0.0
220
0.0
230
1.0
  0
SOLID
  5
EEB
  8
DRG
  6
CONTINUOUS
 62
     7
 10
152.32505959223769
 20
29.959298931438969
 30
0.0
 11
141.28023066635379
 21
27.861637324670479
 31
0.0
 12
152.32505959223769
 22
27.619948938379359
 32
0.0
 13
152.32505959223769
 23
27.619948938379359
 33
0.0
210
0.0
220
0.0
230
1.0
  0
SOLID
  5
EEC
  8
DRG
  6
CONTINUOUS
 62
     7
 10
141.28023066635379
 20
29.95929893143898
 30
0.0
 11
141.28023066635379
 21
27.861637324670479
 31
0.0
 12
152.32505959223769
 22
29.959298931438969
 32
0.0
 13
152.32505959223769
 23
29.959298931438969
 33
0.0
210
0.0
220
0.0
230
1.0
  0
SOLID
  5
EED
  8
DRG
  6
CONTINUOUS
 62
     7
 10
171.0922846938046
 20
29.95929893143904
 30
0.0
 11
160.04745823702251
 21
29.300230626583549
 31
0.0
 12
171.0922846938046
 22
27.861637324670479
 32
0.0
 13
171.0922846938046
 23
27.861637324670479
 33
0.0
210
0.0
220
0.0
230
1.0
  0
SOLID
  5
EEE
  8
DRG
  6
CONTINUOUS
 62
     7
 10
101.5095597489034
 20
29.984856014372749
 30
0.0
 11
101.4175439347101
 21
28.659656306209889
 31
0.0
 12
111.2523129779601
 22
23.54201089202471
 32
0.0
 13
111.2523129779601
 23
23.54201089202471
 33
0.0
  0
SOLID
  5
EEF
  8
DRG
  6
CONTINUOUS
 62
     7
 10
7.0565934473582743
 20
30.23514359210488
 30
0.0
 11
7.3447609166631631
 21
28.296540730392032
 31
0.0
 12
17.493132493272189
 22
29.17334823109978
 32
0.0
 13
17.493132493272189
 23
29.17334823109978
 33
0.0
  0
SOLID
  5
EF0
  8
DRG
  6
CONTINUOUS
 62
     7
 10
17.256300807526252
 20
30.5191262631974
 30
0.0
 11
7.0565934473582743
 21
30.23514359210488
 31
0.0
 12
17.493132493272189
 22
29.17334823109978
 32
0.0
 13
17.493132493272189
 23
29.17334823109978
 33
0.0
210
0.0
220
0.0
230
1.0
  0
SOLID
  5
EF1
  8
DRG
  6
CONTINUOUS
 62
     7
 10
159.3203063536362
 20
30.602411060542401
 30
0.0
 11
160.04745823702251
 21
29.300230626583549
 31
0.0
 12
171.0922846938046
 22
29.95929893143904
 32
0.0
 13
171.0922846938046
 23
29.95929893143904
 33
0.0
210
0.0
220
0.0
230
1.0
  0
SOLID
  5
EF2
  8
DRG
  6
CONTINUOUS
 62
     7
 10
27.335204540726242
 20
30.619274969224719
 30
0.0
 11
26.946063157671311
 21
29.203688610049579
 31
0.0
 12
37.639779947293839
 22
13.760967175618781
 32
0.0
 13
37.639779947293839
 23
13.760967175618781
 33
0.0
210
0.0
220
0.0
230
1.0
  0
SOLID
  5
EF3
  8
DRG
  6
CONTINUOUS
 62
     7
 10
63.235709964757
 20
30.81688778835381
 30
0.0
 11
63.235709964757007
 21
27.61994893837937
 31
0.0
 12
74.280536421539182
 22
27.861637324670479
 32
0.0
 13
74.280536421539182
 23
27.861637324670479
 33
0.0
210
0.0
220
0.0
230
1.0
  0
SOLID
  5
EF4
  8
DRG
  6
CONTINUOUS
 62
     7
 10
74.280536421539196
 20
30.816887788353831
 30
0.0
 11
63.235709964757
 21
30.81688778835381
 31
0.0
 12
74.280536421539182
 22
27.861637324670479
 32
0.0
 13
74.280536421539182
 23
27.861637324670479
 33
0.0
210
0.0
220
0.0
230
1.0
  0
SOLID
  5
EF5
  8
DRG
  6
CONTINUOUS
 62
     7
 10
158.32349423287391
 20
31.711820516063149
 30
0.0
 11
159.3203063536362
 21
30.602411060542401
 31
0.0
 12
171.0922846938046
 22
29.95929893143904
 32
0.0
 13
171.0922846938046
 23
29.95929893143904
 33
0.0
210
0.0
220
0.0
230
1.0
  0
SOLID
  5
EF6
  8
DRG
  6
CONTINUOUS
 62
     7
 10
170.6773093972524
 20
31.7696415103639
 30
0.0
 11
158.32349423287391
 21
31.711820516063149
 31
0.0
 12
171.0922846938046
 22
29.95929893143904
 32
0.0
 13
171.0922846938046
 23
29.95929893143904
 33
0.0
210
0.0
220
0.0
230
1.0
  0
SOLID
  5
EF7
  8
DRG
  6
CONTINUOUS
 62
     7
 10
27.387732575171409
 20
32.086434320449378
 30
0.0
 11
27.335204540726242
 21
30.619274969224719
 31
0.0
 12
37.639779947293839
 22
13.760967175618781
 32
0.0
 13
37.639779947293839
 23
13.760967175618781
 33
0.0
210
0.0
220
0.0
230
1.0
  0
SOLID
  5
EF8
  8
DRG
  6
CONTINUOUS
 62
     7
 10
81.440258950509346
 20
32.349374231810209
 30
0.0
 11
81.440258950509346
 21
27.861637324670479
 31
0.0
 12
92.002287191588479
 22
27.619948938379359
 32
0.0
 13
92.002287191588479
 23
27.619948938379359
 33
0.0
210
0.0
220
0.0
230
1.0
  0
SOLID
  5
EF9
  8
DRG
  6
CONTINUOUS
 62
     7
 10
157.10626025321309
 20
32.573658774007562
 30
0.0
 11
158.32349423287391
 21
31.711820516063149
 31
0.0
 12
170.6773093972524
 22
31.7696415103639
 32
0.0
 13
170.6773093972524
 23
31.7696415103639
 33
0.0
210
0.0
220
0.0
230
1.0
  0
SOLID
  5
EFA
  8
DRG
  6
CONTINUOUS
 62
     7
 10
92.002287191588479
 20
33.041326503689838
 30
0.0
 11
81.440258950509346
 21
32.349374231810209
 31
0.0
 12
92.002287191588479
 22
27.619948938379359
 32
0.0
 13
92.002287191588479
 23
27.619948938379359
 33
0.0
210
0.0
220
0.0
230
1.0
  0
SOLID
  5
EFB
  8
DRG
  6
CONTINUOUS
 62
     7
 10
155.72873071743231
 20
33.145354604103439
 30
0.0
 11
157.10626025321309
 21
32.573658774007562
 31
0.0
 12
170.6773093972524
 22
31.7696415103639
 32
0.0
 13
170.6773093972524
 23
31.7696415103639
 33
0.0
210
0.0
220
0.0
230
1.0
  0
SOLID
  5
EFC
  8
DRG
  6
CONTINUOUS
 62
     7
 10
169.98794975822989
 20
33.494265538349083
 30
0.0
 11
155.72873071743231
 21
33.145354604103439
 31
0.0
 12
170.6773093972524
 22
31.7696415103639
 32
0.0
 13
170.6773093972524
 23
31.7696415103639
 33
0.0
210
0.0
220
0.0
230
1.0
  0
SOLID
  5
EFD
  8
DRG
  6
CONTINUOUS
 62
     7
 10
44.202306277704807
 20
33.59256797502097
 30
0.0
 11
44.468482394088362
 21
27.861637324670291
 31
0.0
 12
55.513311319972217
 22
27.61994893837937
 32
0.0
 13
55.513311319972217
 23
27.61994893837937
 33
0.0
210
0.0
220
0.0
230
1.0
  0
SOLID
  5
EFE
  8
DRG
  6
CONTINUOUS
 62
     7
 10
153.369705253798
 20
33.829362578962773
 30
0.0
 11
155.72873071743231
 21
33.145354604103439
 31
0.0
 12
169.98794975822989
 22
33.494265538349083
 32
0.0
 13
169.98794975822989
 23
33.494265538349083
 33
0.0
210
0.0
220
0.0
230
1.0
  0
SOLID
  5
EFF
  8
DRG
  6
CONTINUOUS
 62
     7
 10
81.820749237344913
 20
34.247867360112373
 30
0.0
 11
81.440258950509346
 21
32.349374231810209
 31
0.0
 12
92.002287191588479
 22
33.041326503689838
 32
0.0
 13
92.002287191588479
 23
33.041326503689838
 33
0.0
210
0.0
220
0.0
230
1.0
  0
SOLID
  5
F00
  8
DRG
  6
CONTINUOUS
 62
     7
 10
92.479240148315725
 20
34.283253552925949
 30
0.0
 11
81.820749237344913
 21
34.247867360112373
 31
0.0
 12
92.002287191588479
 22
33.041326503689838
 32
0.0
 13
92.002287191588479
 23
33.041326503689838
 33
0.0
210
0.0
220
0.0
230
1.0
  0
SOLID
  5
F01
  8
DRG
  6
CONTINUOUS
 62
     7
 10
151.10859018591131
 20
34.788647050598478
 30
0.0
 11
153.369705253798
 21
33.829362578962773
 31
0.0
 12
169.98794975822989
 22
33.494265538349083
 32
0.0
 13
169.98794975822989
 23
33.494265538349083
 33
0.0
210
0.0
220
0.0
230
1.0
  0
SOLID
  5
F02
  8
DRG
  6
CONTINUOUS
 62
     7
 10
169.04071950537289
 20
35.091857350386633
 30
0.0
 11
151.10859018591131
 21
34.788647050598478
 31
0.0
 12
169.98794975822989
 22
33.494265538349083
 32
0.0
 13
169.98794975822989
 23
33.494265538349083
 33
0.0
210
0.0
220
0.0
230
1.0
  0
SOLID
  5
F03
  8
DRG
  6
CONTINUOUS
 62
     7
 10
93.226716747323209
 20
35.383774180852313
 30
0.0
 11
81.820749237344913
 21
34.247867360112373
 31
0.0
 12
92.479240148315725
 22
34.283253552925949
 32
0.0
 13
92.479240148315725
 23
34.283253552925949
 33
0.0
210
0.0
220
0.0
230
1.0
  0
SOLID
  5
F04
  8
DRG
  6
CONTINUOUS
 62
     7
 10
55.513311319972232
 20
35.629722934820848
 30
0.0
 11
44.202306277704807
 21
33.59256797502097
 31
0.0
 12
55.513311319972217
 22
27.61994893837937
 32
0.0
 13
55.513311319972217
 23
27.61994893837937
 33
0.0
210
0.0
220
0.0
230
1.0
  0
SOLID
  5
F05
  8
DRG
  6
CONTINUOUS
 62
     7
 10
148.97737973443
 20
36.009634380280168
 30
0.0
 11
151.10859018591131
 21
34.788647050598478
 31
0.0
 12
169.04071950537289
 22
35.091857350386633
 32
0.0
 13
169.04071950537289
 23
35.091857350386633
 33
0.0
210
0.0
220
0.0
230
1.0
  0
SOLID
  5
F06
  8
DRG
  6
CONTINUOUS
 62
     7
 10
82.501617102078072
 20
36.060453349068602
 30
0.0
 11
81.820749237344913
 21
34.247867360112373
 31
0.0
 12
93.226716747323209
 22
35.383774180852313
 32
0.0
 13
93.226716747323209
 23
35.383774180852313
 33
0.0
210
0.0
220
0.0
230
1.0
  0
SOLID
  5
F07
  8
DRG
  6
CONTINUOUS
 62
     7
 10
94.205364320613299
 20
36.284948884141627
 30
0.0
 11
82.501617102078072
 21
36.060453349068602
 31
0.0
 12
93.226716747323209
 22
35.383774180852313
 32
0.0
 13
93.226716747323209
 23
35.383774180852313
 33
0.0
210
0.0
220
0.0
230
1.0
  0
SOLID
  5
F08
  8
DRG
  6
CONTINUOUS
 62
     7
 10
167.85830970219251
 20
36.524146360035118
 30
0.0
 11
148.97737973443
 21
36.009634380280168
 31
0.0
 12
169.04071950537289
 22
35.091857350386633
 32
0.0
 13
169.04071950537289
 23
35.091857350386633
 33
0.0
210
0.0
220
0.0
230
1.0
  0
SOLID
  5
F09
  8
DRG
  6
CONTINUOUS
 62
     7
 10
95.363659659179305
 20
36.939333195698268
 30
0.0
 11
82.501617102078072
 21
36.060453349068602
 31
0.0
 12
94.205364320613299
 22
36.284948884141627
 32
0.0
 13
94.205364320613299
 23
36.284948884141627
 33
0.0
210
0.0
220
0.0
230
1.0
  0
SOLID
  5
F0A
  8
DRG
  6
CONTINUOUS
 62
     7
 10
96.640621573827801
 20
37.312475510495823
 30
0.0
 11
82.501617102078072
 21
36.060453349068602
 31
0.0
 12
95.363659659179305
 22
36.939333195698268
 32
0.0
 13
95.363659659179305
 23
36.939333195698268
 33
0.0
210
0.0
220
0.0
230
1.0
  0
SOLID
  5
F0B
  8
DRG
  6
CONTINUOUS
 62
     7
 10
101.5095597489034
 20
37.384730871555568
 30
0.0
 11
101.5095597489034
 21
29.984856014372749
 31
0.0
 12
111.2523129779601
 22
23.54201089202471
 32
0.0
 13
111.2523129779601
 23
23.54201089202471
 33
0.0
210
0.0
220
0.0
230
1.0
  0
SOLID
  5
F0C
  8
DRG
  6
CONTINUOUS
 62
     7
 10
147.0062300017226
 20
37.475047898367571
 30
0.0
 11
148.97737973443
 21
36.009634380280168
 31
0.0
 12
167.85830970219251
 22
36.524146360035118
 32
0.0
 13
167.85830970219251
 23
36.524146360035118
 33
0.0
210
0.0
220
0.0
230
1.0
  0
SOLID
  5
F0D
  8
DRG
  6
CONTINUOUS
 62
     7
 10
83.465136107217845
 20
37.739941408961009
 30
0.0
 11
96.640621573827801
 21
37.312475510495823
 31
0.0
 12
97.969021393668683
 22
37.384730871555568
 32
0.0
 13
97.969021393668683
 23
37.384730871555568
 33
0.0
210
0.0
220
0.0
230
1.0
  0
SOLID
  5
F0E
  8
DRG
  6
CONTINUOUS
 62
     7
 10
83.465136107217845
 20
37.739941408961009
 30
0.0
 11
82.501617102078072
 21
36.060453349068602
 31
0.0
 12
96.640621573827801
 22
37.312475510495823
 32
0.0
 13
96.640621573827801
 23
37.312475510495823
 33
0.0
210
0.0
220
0.0
230
1.0
  0
SOLID
  5
F0F
  8
DRG
  6
CONTINUOUS
 62
     7
 10
166.4690451787491
 20
37.756821837895572
 30
0.0
 11
147.0062300017226
 21
37.475047898367571
 31
0.0
 12
167.85830970219251
 22
36.524146360035118
 32
0.0
 13
167.85830970219251
 23
36.524146360035118
 33
0.0
210
0.0
220
0.0
230
1.0
  0
SOLID
  5
F10
  8
DRG
  6
CONTINUOUS
 62
     7
 10
6.7865631049779154
 20
38.202265524009427
 30
0.0
 11
7.0565934473582743
 21
30.23514359210488
 31
0.0
 12
17.256300807526252
 22
30.5191262631974
 32
0.0
 13
17.256300807526252
 23
30.5191262631974
 33
0.0
210
0.0
220
0.0
230
1.0
  0
SOLID
  5
F11
  8
DRG
  6
CONTINUOUS
 62
     7
 10
164.90620600547979
 20
38.760354831031322
 30
0.0
 11
147.0062300017226
 21
37.475047898367571
 31
0.0
 12
166.4690451787491
 22
37.756821837895572
 32
0.0
 13
166.4690451787491
 23
37.756821837895572
 33
0.0
  0
SOLID
  5
F12
  8
DRG
  6
CONTINUOUS
 62
     7
 10
145.22303227045461
 20
39.164152364925791
 30
0.0
 11
147.0062300017226
 21
37.475047898367571
 31
0.0
 12
164.90620600547979
 22
38.760354831031322
 32
0.0
 13
164.90620600547979
 23
38.760354831031322
 33
0.0
210
0.0
220
0.0
230
1.0
  0
SOLID
  5
F13
  8
DRG
  6
CONTINUOUS
 62
     7
 10
84.686220975134489
 20
39.242605962988861
 30
0.0
 11
83.465136107217845
 21
37.739941408961009
 31
0.0
 12
97.969021393668683
 22
37.384730871555568
 32
0.0
 13
97.969021393668683
 23
37.384730871555568
 33
0.0
210
0.0
220
0.0
230
1.0
  0
SOLID
  5
F14
  8
DRG
  6
CONTINUOUS
 62
     7
 10
84.686220975134489
 20
39.242605962988861
 30
0.0
 11
97.969021393668683
 21
37.384730871555568
 31
0.0
 12
101.5095597489034
 22
37.384730871555568
 32
0.0
 13
101.5095597489034
 23
37.384730871555568
 33
0.0
210
0.0
220
0.0
230
1.0
  0
SOLID
  5
F15
  8
DRG
  6
CONTINUOUS
 62
     7
 10
44.202306277704807
 20
39.329676640896288
 30
0.0
 11
55.513311319972232
 21
35.629722934820848
 31
0.0
 12
74.280536421539182
 22
35.629722934820848
 32
0.0
 13
74.280536421539182
 23
35.629722934820848
 33
0.0
210
0.0
220
0.0
230
1.0
  0
SOLID
  5
F16
  8
DRG
  6
CONTINUOUS
 62
     7
 10
44.202306277704807
 20
39.329676640896288
 30
0.0
 11
44.202306277704807
 21
33.59256797502097
 31
0.0
 12
55.513311319972232
 22
35.629722934820848
 32
0.0
 13
55.513311319972232
 23
35.629722934820848
 33
0.0
210
0.0
220
0.0
230
1.0
  0
SOLID
  5
F17
  8
DRG
  6
CONTINUOUS
 62
     7
 10
163.20723026339141
 20
39.510705534110834
 30
0.0
 11
145.22303227045461
 21
39.164152364925791
 31
0.0
 12
164.90620600547979
 22
38.760354831031322
 32
0.0
 13
164.90620600547979
 23
38.760354831031322
 33
0.0
210
0.0
220
0.0
230
1.0
  0
SOLID
  5
F18
  8
DRG
  6
CONTINUOUS
 62
     7
 10
161.4128172083947
 20
39.98989916707626
 30
0.0
 11
145.22303227045461
 21
39.164152364925791
 31
0.0
 12
163.20723026339141
 22
39.510705534110834
 32
0.0
 13
163.20723026339141
 23
39.510705534110834
 33
0.0
210
0.0
220
0.0
230
1.0
  0
SOLID
  5
F19
  8
DRG
  6
CONTINUOUS
 62
     7
 10
86.133080684833345
 20
40.529325045398402
 30
0.0
 11
84.686220975134489
 21
39.242605962988861
 31
0.0
 12
101.5095597489034
 22
37.384730871555568
 32
0.0
 13
101.5095597489034
 23
37.384730871555568
 33
0.0
210
0.0
220
0.0
230
1.0
  0
SOLID
  5
F1A
  8
DRG
  6
CONTINUOUS
 62
     7
 10
159.18695030849
 20
40.665065806460063
 30
0.0
 11
145.22303227045461
 21
39.164152364925791
 31
0.0
 12
161.4128172083947
 22
39.98989916707626
 32
0.0
 13
161.4128172083947
 23
39.98989916707626
 33
0.0
210
0.0
220
0.0
230
1.0
  0
SOLID
  5
F1B
  8
DRG
  6
CONTINUOUS
 62
     7
 10
127.2345352189994
 20
40.740104065808097
 30
0.0
 11
116.19314081319391
 21
17.28637227261407
 31
0.0
 12
127.2345352189994
 22
17.28637227261407
 32
0.0
 13
127.2345352189994
 23
17.28637227261407
 33
0.0
210
0.0
220
0.0
230
1.0
  0
SOLID
  5
F1C
  8
DRG
  6
CONTINUOUS
 62
     7
 10
143.65301834881751
 20
41.053047368257502
 30
0.0
 11
145.22303227045461
 21
39.164152364925791
 31
0.0
 12
159.18695030849
 22
40.665065806460063
 32
0.0
 13
159.18695030849
 23
40.665065806460063
 33
0.0
  0
SOLID
  5
F1D
  8
DRG
  6
CONTINUOUS
 62
     7
 10
87.768046153177011
 20
41.566598844310938
 30
0.0
 11
86.133080684833345
 21
40.529325045398402
 31
0.0
 12
101.5095597489034
 22
37.384730871555568
 32
0.0
 13
101.5095597489034
 23
37.384730871555568
 33
0.0
210
0.0
220
0.0
230
1.0
  0
SOLID
  5
F1E
  8
DRG
  6
CONTINUOUS
 62
     7
 10
157.0907498111003
 20
41.67317141688541
 30
0.0
 11
143.65301834881751
 21
41.053047368257502
 31
0.0
 12
159.18695030849
 22
40.665065806460063
 32
0.0
 13
159.18695030849
 23
40.665065806460063
 33
0.0
210
0.0
220
0.0
230
1.0
  0
SOLID
  5
F1F
  8
DRG
  6
CONTINUOUS
 62
     7
 10
55.51331131997221
 20
41.923431282527638
 30
0.0
 11
44.202306277704807
 21
39.329676640896288
 31
0.0
 12
74.280536421539182
 22
35.629722934820848
 32
0.0
 13
74.280536421539182
 23
35.629722934820848
 33
0.0
210
0.0
220
0.0
230
1.0
  0
SOLID
  5
F20
  8
DRG
  6
CONTINUOUS
 62
     7
 10
63.235709964756971
 20
41.923431282527652
 30
0.0
 11
55.51331131997221
 21
41.923431282527638
 31
0.0
 12
74.280536421539182
 22
35.629722934820848
 32
0.0
 13
74.280536421539182
 23
35.629722934820848
 33
0.0
210
0.0
220
0.0
230
1.0
  0
SOLID
  5
F21
  8
DRG
  6
CONTINUOUS
 62
     7
 10
127.3882529757736
 20
42.300826641937121
 30
0.0
 11
116.19314081319391
 21
17.28637227261407
 31
0.0
 12
127.2345352189994
 22
40.740104065808097
 32
0.0
 13
127.2345352189994
 23
40.740104065808097
 33
0.0
210
0.0
220
0.0
230
1.0
  0
SOLID
  5
F22
  8
DRG
  6
CONTINUOUS
 62
     7
 10
89.548550951823515
 20
42.327421871422729
 30
0.0
 11
87.768046153177011
 21
41.566598844310938
 31
0.0
 12
101.5095597489034
 22
37.384730871555568
 32
0.0
 13
101.5095597489034
 23
37.384730871555568
 33
0.0
210
0.0
220
0.0
230
1.0
  0
SOLID
  5
F23
  8
DRG
  6
CONTINUOUS
 62
     7
 10
91.428239526853417
 20
42.791986051583798
 30
0.0
 11
89.548550951823515
 21
42.327421871422729
 31
0.0
 12
101.5095597489034
 22
37.384730871555568
 32
0.0
 13
101.5095597489034
 23
37.384730871555568
 33
0.0
210
0.0
220
0.0
230
1.0
  0
SOLID
  5
F24
  8
DRG
  6
CONTINUOUS
 62
     7
 10
93.358174068518778
 20
42.948196427274922
 30
0.0
 11
91.428239526853417
 21
42.791986051583798
 31
0.0
 12
101.5095597489034
 22
37.384730871555568
 32
0.0
 13
101.5095597489034
 23
37.384730871555568
 33
0.0
210
0.0
220
0.0
230
1.0
  0
SOLID
  5
F25
  8
DRG
  6
CONTINUOUS
 62
     7
 10
101.5095597489034
 20
37.384730871555568
 30
0.0
 11
100.207486521178
 21
42.948196427274922
 31
0.0
 12
93.358174068518778
 22
42.948196427274922
 32
0.0
 13
93.358174068518778
 23
42.948196427274922
 33
0.0
  0
SOLID
  5
F26
  8
DRG
  6
CONTINUOUS
 62
     7
 10
100.207486521178
 20
42.948196427274922
 30
0.0
 11
101.5095597489034
 21
37.384730871555568
 31
0.0
 12
111.2523129779601
 22
23.54201089202471
 32
0.0
 13
111.2523129779601
 23
23.54201089202471
 33
0.0
  0
SOLID
  5
F27
  8
DRG
  6
CONTINUOUS
 62
     7
 10
155.17367747190539
 20
42.990428830347881
 30
0.0
 11
143.65301834881751
 21
41.053047368257502
 31
0.0
 12
157.0907498111003
 22
41.67317141688541
 32
0.0
 13
157.0907498111003
 23
41.67317141688541
 33
0.0
210
0.0
220
0.0
230
1.0
  0
SOLID
  5
F28
  8
DRG
  6
CONTINUOUS
 62
     7
 10
142.3184035466634
 20
43.11500550983493
 30
0.0
 11
143.65301834881751
 21
41.053047368257502
 31
0.0
 12
155.17367747190539
 22
42.990428830347881
 32
0.0
 13
155.17367747190539
 23
42.990428830347881
 33
0.0
  0
SOLID
  5
F29
  8
DRG
  6
CONTINUOUS
 62
     7
 10
127.84349895890909
 20
43.801571524728807
 30
0.0
 11
116.19314081319391
 21
17.28637227261407
 31
0.0
 12
127.3882529757736
 22
42.300826641937121
 32
0.0
 13
127.3882529757736
 23
42.300826641937121
 33
0.0
210
0.0
220
0.0
230
1.0
  0
SOLID
  5
F2A
  8
DRG
  6
CONTINUOUS
 62
     7
 10
141.7953563081854
 20
44.48865706092365
 30
0.0
 11
142.3184035466634
 21
43.11500550983493
 31
0.0
 12
155.17367747190539
 22
42.990428830347881
 32
0.0
 13
155.17367747190539
 23
42.990428830347881
 33
0.0
210
0.0
220
0.0
230
1.0
  0
SOLID
  5
F2B
  8
DRG
  6
CONTINUOUS
 62
     7
 10
153.4809683549079
 20
44.585756161105429
 30
0.0
 11
141.7953563081854
 21
44.48865706092365
 31
0.0
 12
155.17367747190539
 22
42.990428830347881
 32
0.0
 13
155.17367747190539
 23
42.990428830347881
 33
0.0
  0
SOLID
  5
F2C
  8
DRG
  6
CONTINUOUS
 62
     7
 10
27.387732575171409
 20
44.745475926535612
 30
0.0
 11
27.387732575171409
 21
32.086434320449378
 31
0.0
 12
37.639779947293839
 22
13.760967175618781
 32
0.0
 13
37.639779947293839
 23
13.760967175618781
 33
0.0
210
0.0
220
0.0
230
1.0
  0
SOLID
  5
F2D
  8
DRG
  6
CONTINUOUS
 62
     7
 10
111.2523129779601
 20
45.06060729124669
 30
0.0
 11
100.207486521178
 21
42.948196427274922
 31
0.0
 12
111.2523129779601
 22
23.54201089202471
 32
0.0
 13
111.2523129779601
 23
23.54201089202471
 33
0.0
  0
SOLID
  5
F2E
  8
DRG
  6
CONTINUOUS
 62
     7
 10
74.280536421539182
 20
45.06060729124669
 30
0.0
 11
63.235709964756971
 21
41.923431282527652
 31
0.0
 12
74.280536421539182
 22
35.629722934820848
 32
0.0
 13
74.280536421539182
 23
35.629722934820848
 33
0.0
  0
SOLID
  5
F2F
  8
DRG
  6
CONTINUOUS
 62
     7
 10
44.468482394088362
 20
45.06060729124696
 30
0.0
 11
44.202306277704807
 21
39.329676640896288
 31
0.0
 12
55.51331131997221
 22
41.923431282527638
 32
0.0
 13
55.51331131997221
 23
41.923431282527638
 33
0.0
210
0.0
220
0.0
230
1.0
  0
SOLID
  5
F30
  8
DRG
  6
CONTINUOUS
 62
     7
 10
152.91369055756721
 20
45.212615778285837
 30
0.0
 11
141.7953563081854
 21
44.48865706092365
 31
0.0
 12
153.4809683549079
 22
44.585756161105429
 32
0.0
 13
153.4809683549079
 23
44.585756161105429
 33
0.0
210
0.0
220
0.0
230
1.0
  0
SOLID
  5
F31
  8
DRG
  6
CONTINUOUS
 62
     7
 10
141.54546826268481
 20
45.937122787892669
 30
0.0
 11
141.7953563081854
 21
44.48865706092365
 31
0.0
 12
152.91369055756721
 22
45.212615778285837
 32
0.0
 13
152.91369055756721
 23
45.212615778285837
 33
0.0
210
0.0
220
0.0
230
1.0
  0
SOLID
  5
F32
  8
DRG
  6
CONTINUOUS
 62
     7
 10
152.54834175226111
 20
45.975031235545693
 30
0.0
 11
141.54546826268481
 21
45.937122787892669
 31
0.0
 12
152.91369055756721
 22
45.212615778285837
 32
0.0
 13
152.91369055756721
 23
45.212615778285837
 33
0.0
210
0.0
220
0.0
230
1.0
  0
SOLID
  5
F33
  8
DRG
  6
CONTINUOUS
 62
     7
 10
7.0305774038875759
 20
46.17022669896302
 30
0.0
 11
6.7865631049779154
 21
38.202265524009427
 31
0.0
 12
17.256300807526252
 22
30.5191262631974
 32
0.0
 13
17.256300807526252
 23
30.5191262631974
 33
0.0
  0
SOLID
  5
F34
  8
DRG
  6
CONTINUOUS
 62
     7
 10
27.335204540726249
 20
46.212635277760249
 30
0.0
 11
27.387732575171409
 21
44.745475926535612
 31
0.0
 12
37.639779947293839
 22
13.760967175618781
 32
0.0
 13
37.639779947293839
 23
13.760967175618781
 33
0.0
210
0.0
220
0.0
230
1.0
  0
SOLID
  5
F35
  8
DRG
  6
CONTINUOUS
 62
     7
 10
17.256300807526252
 20
46.312783983787632
 30
0.0
 11
7.0305774038875759
 21
46.17022669896302
 31
0.0
 12
17.256300807526252
 22
30.5191262631974
 32
0.0
 13
17.256300807526252
 23
30.5191262631974
 33
0.0
210
0.0
220
0.0
230
1.0
  0
SOLID
  5
F36
  8
DRG
  6
CONTINUOUS
 62
     7
 10
160.04745823702251
 20
46.421288526219293
 30
0.0
 11
160.04745823702251
 21
45.21828747592599
 31
0.0
 12
171.0912486890569
 22
45.21828747592599
 32
0.0
 13
171.0912486890569
 23
45.21828747592599
 33
0.0
210
0.0
220
0.0
230
1.0
  0
SOLID
  5
F37
  8
DRG
  6
CONTINUOUS
 62
     7
 10
63.235709964757007
 20
46.690614073903127
 30
0.0
 11
63.235709964756971
 21
41.923431282527652
 31
0.0
 12
74.280536421539182
 22
45.06060729124669
 32
0.0
 13
74.280536421539182
 23
45.06060729124669
 33
0.0
210
0.0
220
0.0
230
1.0
  0
SOLID
  5
F38
  8
DRG
  6
CONTINUOUS
 62
     7
 10
55.513311319972217
 20
46.690614073903141
 30
0.0
 11
44.468482394088362
 21
45.06060729124696
 31
0.0
 12
55.51331131997221
 22
41.923431282527638
 32
0.0
 13
55.51331131997221
 23
41.923431282527638
 33
0.0
210
0.0
220
0.0
230
1.0
  0
SOLID
  5
F39
  8
DRG
  6
CONTINUOUS
 62
     7
 10
152.41515688108319
 20
46.809907794742699
 30
0.0
 11
141.54546826268481
 21
45.937122787892669
 31
0.0
 12
152.54834175226111
 22
45.975031235545693
 32
0.0
 13
152.54834175226111
 23
45.975031235545693
 33
0.0
  0
SOLID
  5
F3A
  8
DRG
  6
CONTINUOUS
 62
     7
 10
111.1045730651018
 20
46.937820871729471
 30
0.0
 11
100.207486521178
 21
42.948196427274922
 31
0.0
 12
111.2523129779601
 22
45.06060729124669
 32
0.0
 13
111.2523129779601
 23
45.06060729124669
 33
0.0
210
0.0
220
0.0
230
1.0
  0
SOLID
  5
F3B
  8
DRG
  6
CONTINUOUS
 62
     7
 10
74.13279650868084
 20
46.937820871729471
 30
0.0
 11
63.235709964757007
 21
46.690614073903127
 31
0.0
 12
74.280536421539182
 22
45.06060729124669
 32
0.0
 13
74.280536421539182
 23
45.06060729124669
 33
0.0
210
0.0
220
0.0
230
1.0
  0
SOLID
  5
F3C
  8
DRG
  6
CONTINUOUS
 62
     7
 10
44.616222306946753
 20
46.937820871729677
 30
0.0
 11
44.468482394088362
 21
45.06060729124696
 31
0.0
 12
55.513311319972217
 22
46.690614073903141
 32
0.0
 13
55.513311319972217
 23
46.690614073903141
 33
0.0
210
0.0
220
0.0
230
1.0
  0
SOLID
  5
F3D
  8
DRG
  6
CONTINUOUS
 62
     7
 10
170.92151587114179
 20
47.077855355594501
 30
0.0
 11
160.04745823702251
 21
46.421288526219293
 31
0.0
 12
171.0912486890569
 22
45.21828747592599
 32
0.0
 13
171.0912486890569
 23
45.21828747592599
 33
0.0
210
0.0
220
0.0
230
1.0
  0
SOLID
  5
F3E
  8
DRG
  6
CONTINUOUS
 62
     7
 10
92.485087876393209
 20
47.313129977668268
 30
0.0
 11
81.470405744524527
 21
45.910674481046733
 31
0.0
 12
92.485087876393209
 22
45.910674481046733
 32
0.0
 13
92.485087876393209
 23
45.910674481046733
 33
0.0
210
0.0
220
0.0
230
1.0
  0
SOLID
  5
F3F
  8
DRG
  6
CONTINUOUS
 62
     7
 10
100.2074865211779
 20
47.313129977668268
 30
0.0
 11
100.207486521178
 21
42.948196427274922
 31
0.0
 12
111.1045730651018
 22
46.937820871729471
 32
0.0
 13
111.1045730651018
 23
46.937820871729471
 33
0.0
210
0.0
220
0.0
230
1.0
  0
SOLID
  5
F40
  8
DRG
  6
CONTINUOUS
 62
     7
 10
159.92142428177769
 20
47.399756659223272
 30
0.0
 11
160.04745823702251
 21
46.421288526219293
 31
0.0
 12
170.92151587114179
 22
47.077855355594501
 32
0.0
 13
170.92151587114179
 23
47.077855355594501
 33
0.0
210
0.0
220
0.0
230
1.0
  0
SOLID
  5
F41
  8
DRG
  6
CONTINUOUS
 62
     7
 10
141.57801704221129
 20
47.406625280044132
 30
0.0
 11
141.54546826268481
 21
45.937122787892669
 31
0.0
 12
152.41515688108319
 22
46.809907794742699
 32
0.0
 13
152.41515688108319
 23
46.809907794742699
 33
0.0
210
0.0
220
0.0
230
1.0
  0
SOLID
  5
F42
  8
DRG
  6
CONTINUOUS
 62
     7
 10
26.946063157671329
 20
47.628221636935379
 30
0.0
 11
27.335204540726249
 21
46.212635277760249
 31
0.0
 12
37.639779947293839
 22
13.760967175618781
 32
0.0
 13
37.639779947293839
 23
13.760967175618781
 33
0.0
210
0.0
220
0.0
230
1.0
  0
SOLID
  5
F43
  8
DRG
  6
CONTINUOUS
 62
     7
 10
152.52515784094209
 20
47.648154099737518
 30
0.0
 11
141.57801704221129
 21
47.406625280044132
 31
0.0
 12
152.41515688108319
 22
46.809907794742699
 32
0.0
 13
152.41515688108319
 23
46.809907794742699
 33
0.0
210
0.0
220
0.0
230
1.0
  0
SOLID
  5
F44
  8
DRG
  6
CONTINUOUS
 62
     7
 10
17.493132493272199
 20
47.658562015885273
 30
0.0
 11
7.0305774038875759
 21
46.17022669896302
 31
0.0
 12
17.256300807526252
 22
46.312783983787632
 32
0.0
 13
17.256300807526252
 23
46.312783983787632
 33
0.0
210
0.0
220
0.0
230
1.0
  0
SOLID
  5
F45
  8
DRG
  6
CONTINUOUS
 62
     7
 10
81.731819932129795
 20
47.68976224158471
 30
0.0
 11
81.470405744524527
 21
45.910674481046733
 31
0.0
 12
92.485087876393209
 22
47.313129977668268
 32
0.0
 13
92.485087876393209
 23
47.313129977668268
 33
0.0
210
0.0
220
0.0
230
1.0
  0
SOLID
  5
F46
  8
DRG
  6
CONTINUOUS
 62
     7
 10
63.104142788313268
 20
47.689965995475227
 30
0.0
 11
63.235709964757007
 21
46.690614073903127
 31
0.0
 12
74.13279650868084
 22
46.937820871729471
 32
0.0
 13
74.13279650868084
 23
46.937820871729471
 33
0.0
210
0.0
220
0.0
230
1.0
  0
SOLID
  5
F47
  8
DRG
  6
CONTINUOUS
 62
     7
 10
55.644878496415949
 20
47.689965995475241
 30
0.0
 11
44.616222306946753
 21
46.937820871729677
 31
0.0
 12
55.513311319972217
 22
46.690614073903141
 32
0.0
 13
55.513311319972217
 23
46.690614073903141
 33
0.0
210
0.0
220
0.0
230
1.0
  0
SOLID
  5
F48
  8
DRG
  6
CONTINUOUS
 62
     7
 10
7.1897238671107937
 20
47.994218182042239
 30
0.0
 11
7.0305774038875759
 21
46.17022669896302
 31
0.0
 12
17.493132493272199
 22
47.658562015885273
 32
0.0
 13
17.493132493272199
 23
47.658562015885273
 33
0.0
210
0.0
220
0.0
230
1.0
  0
SOLID
  5
F49
  8
DRG
  6
CONTINUOUS
 62
     7
 10
92.616655052836919
 20
48.31248189924036
 30
0.0
 11
81.731819932129795
 21
47.68976224158471
 31
0.0
 12
92.485087876393209
 22
47.313129977668268
 32
0.0
 13
92.485087876393209
 23
47.313129977668268
 33
0.0
210
0.0
220
0.0
230
1.0
  0
SOLID
  5
F4A
  8
DRG
  6
CONTINUOUS
 62
     7
 10
100.0759193447342
 20
48.31248189924036
 30
0.0
 11
100.2074865211779
 21
47.313129977668268
 31
0.0
 12
111.1045730651018
 22
46.937820871729471
 32
0.0
 13
111.1045730651018
 23
46.937820871729471
 33
0.0
210
0.0
220
0.0
230
1.0
  0
SOLID
  5
F4B
  8
DRG
  6
CONTINUOUS
 62
     7
 10
159.55155020049509
 20
48.314348157748292
 30
0.0
 11
159.92142428177769
 21
47.399756659223272
 31
0.0
 12
170.92151587114179
 22
47.077855355594501
 32
0.0
 13
170.92151587114179
 23
47.077855355594501
 33
0.0
  0
SOLID
  5
F4C
  8
DRG
  6
CONTINUOUS
 62
     7
 10
152.9555608782567
 20
48.535868958602258
 30
0.0
 11
141.57801704221129
 21
47.406625280044132
 31
0.0
 12
152.52515784094209
 22
47.648154099737518
 32
0.0
 13
152.52515784094209
 23
47.648154099737518
 33
0.0
210
0.0
220
0.0
230
1.0
  0
SOLID
  5
F4D
  8
DRG
  6
CONTINUOUS
 62
     7
 10
62.718407344631679
 20
48.621213735099332
 30
0.0
 11
63.104142788313268
 21
47.689965995475227
 31
0.0
 12
74.13279650868084
 22
46.937820871729471
 32
0.0
 13
74.13279650868084
 23
46.937820871729471
 33
0.0
  0
SOLID
  5
F4E
  8
DRG
  6
CONTINUOUS
 62
     7
 10
56.030613940097538
 20
48.621213735099339
 30
0.0
 11
44.616222306946753
 21
46.937820871729677
 31
0.0
 12
55.644878496415949
 22
47.689965995475241
 32
0.0
 13
55.644878496415949
 23
47.689965995475241
 33
0.0
210
0.0
220
0.0
230
1.0
  0
SOLID
  5
F4F
  8
DRG
  6
CONTINUOUS
 62
     7
 10
110.664991173502
 20
48.76881122374607
 30
0.0
 11
100.0759193447342
 21
48.31248189924036
 31
0.0
 12
111.1045730651018
 22
46.937820871729471
 32
0.0
 13
111.1045730651018
 23
46.937820871729471
 33
0.0
210
0.0
220
0.0
230
1.0
  0
SOLID
  5
F50
  8
DRG
  6
CONTINUOUS
 62
     7
 10
73.693214617081026
 20
48.76881122374607
 30
0.0
 11
62.718407344631679
 21
48.621213735099332
 31
0.0
 12
74.13279650868084
 22
46.937820871729471
 32
0.0
 13
74.13279650868084
 23
46.937820871729471
 33
0.0
210
0.0
220
0.0
230
1.0
  0
SOLID
  5
F51
  8
DRG
  6
CONTINUOUS
 62
     7
 10
45.055804198546582
 20
48.768811223746262
 30
0.0
 11
44.616222306946753
 21
46.937820871729677
 31
0.0
 12
56.030613940097538
 22
48.621213735099339
 32
0.0
 13
56.030613940097538
 23
48.621213735099339
 33
0.0
210
0.0
220
0.0
230
1.0
  0
SOLID
  5
F52
  8
DRG
  6
CONTINUOUS
 62
     7
 10
141.8917942032017
 20
48.84260609145101
 30
0.0
 11
141.57801704221129
 21
47.406625280044132
 31
0.0
 12
152.9555608782567
 22
48.535868958602258
 32
0.0
 13
152.9555608782567
 23
48.535868958602258
 33
0.0
210
0.0
220
0.0
230
1.0
  0
SOLID
  5
F53
  8
DRG
  6
CONTINUOUS
 62
     7
 10
170.46535120543041
 20
48.888577787754841
 30
0.0
 11
159.55155020049509
 21
48.314348157748292
 31
0.0
 12
170.92151587114179
 22
47.077855355594501
 32
0.0
 13
170.92151587114179
 23
47.077855355594501
 33
0.0
210
0.0
220
0.0
230
1.0
  0
SOLID
  5
F54
  8
DRG
  6
CONTINUOUS
 62
     7
 10
18.06593214578028
 20
48.899170059199712
 30
0.0
 11
7.1897238671107937
 21
47.994218182042239
 31
0.0
 12
17.493132493272199
 22
47.658562015885273
 32
0.0
 13
17.493132493272199
 23
47.658562015885273
 33
0.0
  0
SOLID
  5
F55
  8
DRG
  6
CONTINUOUS
 62
     7
 10
158.96198221796851
 20
49.105356399904181
 30
0.0
 11
159.55155020049509
 21
48.314348157748292
 31
0.0
 12
170.46535120543041
 22
48.888577787754841
 32
0.0
 13
170.46535120543041
 23
48.888577787754841
 33
0.0
210
0.0
220
0.0
230
1.0
  0
SOLID
  5
F56
  8
DRG
  6
CONTINUOUS
 62
     7
 10
93.00239049651853
 20
49.243729638864473
 30
0.0
 11
81.731819932129795
 21
47.68976224158471
 31
0.0
 12
92.616655052836919
 22
48.31248189924036
 32
0.0
 13
92.616655052836919
 23
48.31248189924036
 33
0.0
210
0.0
220
0.0
230
1.0
  0
SOLID
  5
F57
  8
DRG
  6
CONTINUOUS
 62
     7
 10
99.690183901052691
 20
49.243729638864473
 30
0.0
 11
100.0759193447342
 21
48.31248189924036
 31
0.0
 12
110.664991173502
 22
48.76881122374607
 32
0.0
 13
110.664991173502
 23
48.76881122374607
 33
0.0
210
0.0
220
0.0
230
1.0
  0
SOLID
  5
F58
  8
DRG
  6
CONTINUOUS
 62
     7
 10
153.59687126208641
 20
49.28553917727929
 30
0.0
 11
141.8917942032017
 21
48.84260609145101
 31
0.0
 12
152.9555608782567
 22
48.535868958602258
 32
0.0
 13
152.9555608782567
 23
48.535868958602258
 33
0.0
210
0.0
220
0.0
230
1.0
  0
SOLID
  5
F59
  8
DRG
  6
CONTINUOUS
 62
     7
 10
82.256144730442657
 20
49.40981286381988
 30
0.0
 11
81.731819932129795
 21
47.68976224158471
 31
0.0
 12
93.00239049651853
 22
49.243729638864473
 32
0.0
 13
93.00239049651853
 23
49.243729638864473
 33
0.0
210
0.0
220
0.0
230
1.0
  0
SOLID
  5
F5A
  8
DRG
  6
CONTINUOUS
 62
     7
 10
62.104790866741169
 20
49.420894298279691
 30
0.0
 11
62.718407344631679
 21
48.621213735099332
 31
0.0
 12
73.693214617081026
 22
48.76881122374607
 32
0.0
 13
73.693214617081026
 23
48.76881122374607
 33
0.0
210
0.0
220
0.0
230
1.0
  0
SOLID
  5
F5B
  8
DRG
  6
CONTINUOUS
 62
     7
 10
56.644230417988048
 20
49.420894298279698
 30
0.0
 11
45.055804198546582
 21
48.768811223746262
 31
0.0
 12
56.030613940097538
 22
48.621213735099339
 32
0.0
 13
56.030613940097538
 23
48.621213735099339
 33
0.0
210
0.0
220
0.0
230
1.0
  0
SOLID
  5
F5C
  8
DRG
  6
CONTINUOUS
 62
     7
 10
158.19120867863171
 20
49.721142561032508
 30
0.0
 11
158.96198221796851
 21
49.105356399904181
 31
0.0
 12
170.46535120543041
 22
48.888577787754841
 32
0.0
 13
170.46535120543041
 23
48.888577787754841
 33
0.0
210
0.0
220
0.0
230
1.0
  0
SOLID
  5
F5D
  8
DRG
  6
CONTINUOUS
 62
     7
 10
7.6220824279870287
 20
49.773358030940919
 30
0.0
 11
7.1897238671107937
 21
47.994218182042239
 31
0.0
 12
18.06593214578028
 22
48.899170059199712
 32
0.0
 13
18.06593214578028
 23
48.899170059199712
 33
0.0
210
0.0
220
0.0
230
1.0
  0
SOLID
  5
F5E
  8
DRG
  6
CONTINUOUS
 62
     7
 10
154.40722278586409
 20
49.848224571696171
 30
0.0
 11
141.8917942032017
 21
48.84260609145101
 31
0.0
 12
153.59687126208641
 22
49.28553917727929
 32
0.0
 13
153.59687126208641
 23
49.28553917727929
 33
0.0
210
0.0
220
0.0
230
1.0
  0
SOLID
  5
F5F
  8
DRG
  6
CONTINUOUS
 62
     7
 10
18.93668040707891
 20
49.952263229102194
 30
0.0
 11
7.6220824279870287
 21
49.773358030940919
 31
0.0
 12
18.06593214578028
 22
48.899170059199712
 32
0.0
 13
18.06593214578028
 23
48.899170059199712
 33
0.0
210
0.0
220
0.0
230
1.0
  0
SOLID
  5
F60
  8
DRG
  6
CONTINUOUS
 62
     7
 10
57.443910981168422
 20
50.034510776170208
 30
0.0
 11
45.055804198546582
 21
48.768811223746262
 31
0.0
 12
56.644230417988048
 22
49.420894298279698
 32
0.0
 13
56.644230417988048
 23
49.420894298279698
 33
0.0
210
0.0
220
0.0
230
1.0
  0
SOLID
  5
F61
  8
DRG
  6
CONTINUOUS
 62
     7
 10
61.305110303560809
 20
50.034510776170208
 30
0.0
 11
62.104790866741169
 21
49.420894298279691
 31
0.0
 12
73.693214617081026
 22
48.76881122374607
 32
0.0
 13
73.693214617081026
 23
48.76881122374607
 33
0.0
210
0.0
220
0.0
230
1.0
  0
SOLID
  5
F62
  8
DRG
  6
CONTINUOUS
 62
     7
 10
93.616006974409046
 20
50.043410202044832
 30
0.0
 11
82.256144730442657
 21
49.40981286381988
 31
0.0
 12
93.00239049651853
 22
49.243729638864473
 32
0.0
 13
93.00239049651853
 23
49.243729638864473
 33
0.0
210
0.0
220
0.0
230
1.0
  0
SOLID
  5
F63
  8
DRG
  6
CONTINUOUS
 62
     7
 10
99.076567423162174
 20
50.043410202044832
 30
0.0
 11
99.690183901052691
 21
49.243729638864473
 31
0.0
 12
110.664991173502
 22
48.76881122374607
 32
0.0
 13
110.664991173502
 23
48.76881122374607
 33
0.0
210
0.0
220
0.0
230
1.0
  0
SOLID
  5
F64
  8
DRG
  6
CONTINUOUS
 62
     7
 10
157.28954743952829
 20
50.121506714120002
 30
0.0
 11
158.19120867863171
 21
49.721142561032508
 31
0.0
 12
170.46535120543041
 22
48.888577787754841
 32
0.0
 13
170.46535120543041
 23
48.888577787754841
 33
0.0
210
0.0
220
0.0
230
1.0
  0
SOLID
  5
F65
  8
DRG
  6
CONTINUOUS
 62
     7
 10
155.33371385132841
 20
50.187191754169177
 30
0.0
 11
141.8917942032017
 21
48.84260609145101
 31
0.0
 12
154.40722278586409
 22
49.848224571696171
 32
0.0
 13
154.40722278586409
 23
49.848224571696171
 33
0.0
210
0.0
220
0.0
230
1.0
  0
SOLID
  5
F66
  8
DRG
  6
CONTINUOUS
 62
     7
 10
156.3158610056816
 20
50.280312172847857
 30
0.0
 11
157.28954743952829
 21
50.121506714120002
 31
0.0
 12
170.46535120543041
 22
48.888577787754841
 32
0.0
 13
170.46535120543041
 23
48.888577787754841
 33
0.0
210
0.0
220
0.0
230
1.0
  0
SOLID
  5
F67
  8
DRG
  6
CONTINUOUS
 62
     7
 10
58.375158720792513
 20
50.420246219851798
 30
0.0
 11
45.055804198546582
 21
48.768811223746262
 31
0.0
 12
57.443910981168422
 22
50.034510776170208
 32
0.0
 13
57.443910981168422
 23
50.034510776170208
 33
0.0
210
0.0
220
0.0
230
1.0
  0
SOLID
  5
F68
  8
DRG
  6
CONTINUOUS
 62
     7
 10
60.373862563936711
 20
50.420246219851798
 30
0.0
 11
61.305110303560809
 21
50.034510776170208
 31
0.0
 12
73.693214617081026
 22
48.76881122374607
 32
0.0
 13
73.693214617081026
 23
48.76881122374607
 33
0.0
210
0.0
220
0.0
230
1.0
  0
SOLID
  5
F69
  8
DRG
  6
CONTINUOUS
 62
     7
 10
109.9443912682205
 20
50.508493288121258
 30
0.0
 11
99.076567423162174
 21
50.043410202044832
 31
0.0
 12
110.664991173502
 22
48.76881122374607
 32
0.0
 13
110.664991173502
 23
48.76881122374607
 33
0.0
210
0.0
220
0.0
230
1.0
  0
SOLID
  5
F6A
  8
DRG
  6
CONTINUOUS
 62
     7
 10
72.972614711799594
 20
50.508493288121258
 30
0.0
 11
60.373862563936711
 21
50.420246219851798
 31
0.0
 12
73.693214617081026
 22
48.76881122374607
 32
0.0
 13
73.693214617081026
 23
48.76881122374607
 33
0.0
210
0.0
220
0.0
230
1.0
  0
SOLID
  5
F6B
  8
DRG
  6
CONTINUOUS
 62
     7
 10
45.776404103828028
 20
50.508493288121407
 30
0.0
 11
45.055804198546582
 21
48.768811223746262
 31
0.0
 12
58.375158720792513
 22
50.420246219851798
 32
0.0
 13
58.375158720792513
 23
50.420246219851798
 33
0.0
  0
SOLID
  5
F6C
  8
DRG
  6
CONTINUOUS
 62
     7
 10
59.374510642364612
 20
50.551813396295529
 30
0.0
 11
45.776404103828028
 21
50.508493288121407
 31
0.0
 12
58.375158720792513
 22
50.420246219851798
 32
0.0
 13
58.375158720792513
 23
50.420246219851798
 33
0.0
  0
SOLID
  5
F6D
  8
DRG
  6
CONTINUOUS
 62
     7
 10
59.374510642364612
 20
50.551813396295529
 30
0.0
 11
60.373862563936711
 21
50.420246219851798
 31
0.0
 12
72.972614711799594
 22
50.508493288121258
 32
0.0
 13
72.972614711799594
 23
50.508493288121258
 33
0.0
210
0.0
220
0.0
230
1.0
  0
SOLID
  5
F6E
  8
DRG
  6
CONTINUOUS
 62
     7
 10
142.61917934783079
 20
50.568963196943031
 30
0.0
 11
155.33371385132841
 21
50.187191754169177
 31
0.0
 12
156.3158610056816
 22
50.280312172847857
 32
0.0
 13
156.3158610056816
 23
50.280312172847857
 33
0.0
210
0.0
220
0.0
230
1.0
  0
SOLID
  5
F6F
  8
DRG
  6
CONTINUOUS
 62
     7
 10
142.61917934783079
 20
50.568963196943031
 30
0.0
 11
141.8917942032017
 21
48.84260609145101
 31
0.0
 12
155.33371385132841
 22
50.187191754169177
 32
0.0
 13
155.33371385132841
 23
50.187191754169177
 33
0.0
210
0.0
220
0.0
230
1.0
  0
SOLID
  5
F70
  8
DRG
  6
CONTINUOUS
 62
     7
 10
169.73380021856269
 20
50.606610116375307
 30
0.0
 11
142.61917934783079
 21
50.568963196943031
 31
0.0
 12
156.3158610056816
 22
50.280312172847857
 32
0.0
 13
156.3158610056816
 23
50.280312172847857
 33
0.0
210
0.0
220
0.0
230
1.0
  0
SOLID
  5
F71
  8
DRG
  6
CONTINUOUS
 62
     7
 10
169.73380021856269
 20
50.606610116375307
 30
0.0
 11
156.3158610056816
 21
50.280312172847857
 31
0.0
 12
170.46535120543041
 22
48.888577787754841
 32
0.0
 13
170.46535120543041
 23
48.888577787754841
 33
0.0
210
0.0
220
0.0
230
1.0
  0
SOLID
  5
F72
  8
DRG
  6
CONTINUOUS
 62
     7
 10
94.415687537589406
 20
50.657026679935342
 30
0.0
 11
82.256144730442657
 21
49.40981286381988
 31
0.0
 12
93.616006974409046
 22
50.043410202044832
 32
0.0
 13
93.616006974409046
 23
50.043410202044832
 33
0.0
  0
SOLID
  5
F73
  8
DRG
  6
CONTINUOUS
 62
     7
 10
98.276886859981815
 20
50.657026679935342
 30
0.0
 11
99.076567423162174
 21
50.043410202044832
 31
0.0
 12
109.9443912682205
 22
50.508493288121258
 32
0.0
 13
109.9443912682205
 23
50.508493288121258
 33
0.0
210
0.0
220
0.0
230
1.0
  0
SOLID
  5
F74
  8
DRG
  6
CONTINUOUS
 62
     7
 10
20.04758169418465
 20
50.747942869005499
 30
0.0
 11
7.6220824279870287
 21
49.773358030940919
 31
0.0
 12
18.93668040707891
 22
49.952263229102194
 32
0.0
 13
18.93668040707891
 23
49.952263229102194
 33
0.0
210
0.0
220
0.0
230
1.0
  0
SOLID
  5
F75
  8
DRG
  6
CONTINUOUS
 62
     7
 10
83.031606533031265
 20
51.032202961762849
 30
0.0
 11
82.256144730442657
 21
49.40981286381988
 31
0.0
 12
94.415687537589406
 22
50.657026679935342
 32
0.0
 13
94.415687537589406
 23
50.657026679935342
 33
0.0
210
0.0
220
0.0
230
1.0
  0
SOLID
  5
F76
  8
DRG
  6
CONTINUOUS
 62
     7
 10
95.346935277213504
 20
51.042762123616932
 30
0.0
 11
83.031606533031265
 21
51.032202961762849
 31
0.0
 12
94.415687537589406
 22
50.657026679935342
 32
0.0
 13
94.415687537589406
 23
50.657026679935342
 33
0.0
210
0.0
220
0.0
230
1.0
  0
SOLID
  5
F77
  8
DRG
  6
CONTINUOUS
 62
     7
 10
97.345639120357703
 20
51.042762123616932
 30
0.0
 11
98.276886859981815
 21
50.657026679935342
 31
0.0
 12
109.9443912682205
 22
50.508493288121258
 32
0.0
 13
109.9443912682205
 23
50.508493288121258
 33
0.0
210
0.0
220
0.0
230
1.0
  0
SOLID
  5
F78
  8
DRG
  6
CONTINUOUS
 62
     7
 10
96.346287198785603
 20
51.174329300060663
 30
0.0
 11
83.031606533031265
 21
51.032202961762849
 31
0.0
 12
95.346935277213504
 22
51.042762123616932
 32
0.0
 13
95.346935277213504
 23
51.042762123616932
 33
0.0
210
0.0
220
0.0
230
1.0
  0
SOLID
  5
F79
  8
DRG
  6
CONTINUOUS
 62
     7
 10
96.346287198785603
 20
51.174329300060663
 30
0.0
 11
97.345639120357703
 21
51.042762123616932
 31
0.0
 12
109.9443912682205
 22
50.508493288121258
 32
0.0
 13
109.9443912682205
 23
50.508493288121258
 33
0.0
210
0.0
220
0.0
230
1.0
  0
SOLID
  5
F7A
  8
DRG
  6
CONTINUOUS
 62
     7
 10
21.324900358829169
 20
51.233396046974882
 30
0.0
 11
7.6220824279870287
 21
49.773358030940919
 31
0.0
 12
20.04758169418465
 22
50.747942869005499
 32
0.0
 13
20.04758169418465
 23
50.747942869005499
 33
0.0
  0
SOLID
  5
F7B
  8
DRG
  6
CONTINUOUS
 62
     7
 10
27.267121908897021
 20
51.255838552818979
 30
0.0
 11
24.05122445427131
 21
50.841970309004992
 31
0.0
 12
25.258677615930839
 22
50.006881919259932
 32
0.0
 13
25.258677615930839
 23
50.006881919259932
 33
0.0
210
0.0
220
0.0
230
1.0
  0
SOLID
  5
F7C
  8
DRG
  6
CONTINUOUS
 62
     7
 10
27.267121908897021
 20
51.255838552818979
 30
0.0
 11
25.258677615930839
 21
50.006881919259932
 31
0.0
 12
26.241246459003669
 22
48.91606835823719
 32
0.0
 13
26.241246459003669
 23
48.91606835823719
 33
0.0
210
0.0
220
0.0
230
1.0
  0
SOLID
  5
F7D
  8
DRG
  6
CONTINUOUS
 62
     7
 10
27.267121908897021
 20
51.255838552818979
 30
0.0
 11
26.241246459003669
 21
48.91606835823719
 31
0.0
 12
26.946063157671329
 22
47.628221636935379
 32
0.0
 13
26.946063157671329
 23
47.628221636935379
 33
0.0
210
0.0
220
0.0
230
1.0
  0
SOLID
  5
F7E
  8
DRG
  6
CONTINUOUS
 62
     7
 10
27.267121908897021
 20
51.255838552818979
 30
0.0
 11
26.946063157671329
 21
47.628221636935379
 31
0.0
 12
37.639779947293839
 22
13.760967175618781
 32
0.0
 13
37.639779947293839
 23
13.760967175618781
 33
0.0
210
0.0
220
0.0
230
1.0
  0
SOLID
  5
F7F
  8
DRG
  6
CONTINUOUS
 62
     7
 10
22.683854862926282
 20
51.376400993896397
 30
0.0
 11
24.05122445427131
 21
50.841970309004992
 31
0.0
 12
27.267121908897021
 22
51.255838552818979
 32
0.0
 13
27.267121908897021
 23
51.255838552818979
 33
0.0
210
0.0
220
0.0
230
1.0
  0
SOLID
  5
F80
  8
DRG
  6
CONTINUOUS
 62
     7
 10
8.3177663299538551
 20
51.46696259979587
 30
0.0
 11
21.324900358829169
 21
51.233396046974882
 31
0.0
 12
22.683854862926282
 22
51.376400993896397
 32
0.0
 13
22.683854862926282
 23
51.376400993896397
 33
0.0
  0
SOLID
  5
F81
  8
DRG
  6
CONTINUOUS
 62
     7
 10
8.3177663299538551
 20
51.46696259979587
 30
0.0
 11
7.6220824279870287
 21
49.773358030940919
 31
0.0
 12
21.324900358829169
 22
51.233396046974882
 32
0.0
 13
21.324900358829169
 23
51.233396046974882
 33
0.0
210
0.0
220
0.0
230
1.0
  0
SOLID
  5
F82
  8
DRG
  6
CONTINUOUS
 62
     7
 10
108.9605169104595
 20
52.11403031875637
 30
0.0
 11
96.346287198785603
 21
51.174329300060663
 31
0.0
 12
109.9443912682205
 22
50.508493288121258
 32
0.0
 13
109.9443912682205
 23
50.508493288121258
 33
0.0
210
0.0
220
0.0
230
1.0
  0
SOLID
  5
F83
  8
DRG
  6
CONTINUOUS
 62
     7
 10
71.988740354038555
 20
52.11403031875637
 30
0.0
 11
59.374510642364612
 21
50.551813396295529
 31
0.0
 12
72.972614711799594
 22
50.508493288121258
 32
0.0
 13
72.972614711799594
 23
50.508493288121258
 33
0.0
210
0.0
220
0.0
230
1.0
  0
SOLID
  5
F84
  8
DRG
  6
CONTINUOUS
 62
     7
 10
46.760278461589081
 20
52.114030318756498
 30
0.0
 11
59.374510642364612
 21
50.551813396295529
 31
0.0
 12
71.988740354038555
 22
52.11403031875637
 32
0.0
 13
71.988740354038555
 23
52.11403031875637
 33
0.0
210
0.0
220
0.0
230
1.0
  0
SOLID
  5
F85
  8
DRG
  6
CONTINUOUS
 62
     7
 10
46.760278461589081
 20
52.114030318756498
 30
0.0
 11
45.776404103828028
 21
50.508493288121407
 31
0.0
 12
59.374510642364612
 22
50.551813396295529
 32
0.0
 13
59.374510642364612
 23
50.551813396295529
 33
0.0
210
0.0
220
0.0
230
1.0
  0
SOLID
  5
F86
  8
DRG
  6
CONTINUOUS
 62
     7
 10
143.6063830495508
 20
52.161077155056709
 30
0.0
 11
142.61917934783079
 21
50.568963196943031
 31
0.0
 12
169.73380021856269
 22
50.606610116375307
 32
0.0
 13
169.73380021856269
 23
50.606610116375307
 33
0.0
210
0.0
220
0.0
230
1.0
  0
SOLID
  5
F87
  8
DRG
  6
CONTINUOUS
 62
     7
 10
168.74457661464871
 20
52.190352074533777
 30
0.0
 11
143.6063830495508
 21
52.161077155056709
 31
0.0
 12
169.73380021856269
 22
50.606610116375307
 32
0.0
 13
169.73380021856269
 23
50.606610116375307
 33
0.0
210
0.0
220
0.0
230
1.0
  0
SOLID
  5
F88
  8
DRG
  6
CONTINUOUS
 62
     7
 10
84.040792503241747
 20
52.520502096583449
 30
0.0
 11
96.346287198785603
 21
51.174329300060663
 31
0.0
 12
108.9605169104595
 22
52.11403031875637
 32
0.0
 13
108.9605169104595
 23
52.11403031875637
 33
0.0
210
0.0
220
0.0
230
1.0
  0
SOLID
  5
F89
  8
DRG
  6
CONTINUOUS
 62
     7
 10
84.040792503241747
 20
52.520502096583449
 30
0.0
 11
83.031606533031265
 21
51.032202961762849
 31
0.0
 12
96.346287198785603
 22
51.174329300060663
 32
0.0
 13
96.346287198785603
 23
51.174329300060663
 33
0.0
  0
SOLID
  5
F8A
  8
DRG
  6
CONTINUOUS
 62
     7
 10
26.699742183985649
 20
52.856551873435983
 30
0.0
 11
8.3177663299538551
 21
51.46696259979587
 31
0.0
 12
22.683854862926282
 22
51.376400993896397
 32
0.0
 13
22.683854862926282
 23
51.376400993896397
 33
0.0
210
0.0
220
0.0
230
1.0
  0
SOLID
  5
F8B
  8
DRG
  6
CONTINUOUS
 62
     7
 10
26.699742183985649
 20
52.856551873435983
 30
0.0
 11
22.683854862926282
 21
51.376400993896397
 31
0.0
 12
27.267121908897021
 22
51.255838552818979
 32
0.0
 13
27.267121908897021
 23
51.255838552818979
 33
0.0
210
0.0
220
0.0
230
1.0
  0
SOLID
  5
F8C
  8
DRG
  6
CONTINUOUS
 62
     7
 10
9.2608673477428542
 20
53.036304180633991
 30
0.0
 11
8.3177663299538551
 21
51.46696259979587
 31
0.0
 12
26.699742183985649
 22
52.856551873435983
 32
0.0
 13
26.699742183985649
 23
52.856551873435983
 33
0.0
210
0.0
220
0.0
230
1.0
  0
SOLID
  5
F8D
  8
DRG
  6
CONTINUOUS
 62
     7
 10
127.2345352189994
 20
53.086533694841222
 30
0.0
 11
135.23453521899941
 21
48.740104065808111
 31
0.0
 12
136.6041529029215
 22
48.740104065808111
 32
0.0
 13
136.6041529029215
 23
48.740104065808111
 33
0.0
210
0.0
220
0.0
230
1.0
  0
SOLID
  5
F8E
  8
DRG
  6
CONTINUOUS
 62
     7
 10
127.2345352189994
 20
53.086533694841222
 30
0.0
 11
133.67381264287039
 21
48.586386309033962
 31
0.0
 12
135.23453521899941
 22
48.740104065808111
 32
0.0
 13
135.23453521899941
 23
48.740104065808111
 33
0.0
  0
SOLID
  5
F8F
  8
DRG
  6
CONTINUOUS
 62
     7
 10
127.2345352189994
 20
53.086533694841222
 30
0.0
 11
132.17306776007871
 21
48.1311403258984
 31
0.0
 12
133.67381264287039
 22
48.586386309033962
 32
0.0
 13
133.67381264287039
 23
48.586386309033962
 33
0.0
210
0.0
220
0.0
230
1.0
  0
SOLID
  5
F90
  8
DRG
  6
CONTINUOUS
 62
     7
 10
127.2345352189994
 20
53.086533694841222
 30
0.0
 11
130.7899733548426
 21
47.391860964228471
 31
0.0
 12
132.17306776007871
 22
48.1311403258984
 32
0.0
 13
132.17306776007871
 23
48.1311403258984
 33
0.0
210
0.0
220
0.0
230
1.0
  0
SOLID
  5
F91
  8
DRG
  6
CONTINUOUS
 62
     7
 10
127.2345352189994
 20
53.086533694841222
 30
0.0
 11
129.57768096950701
 21
46.396958315300481
 31
0.0
 12
130.7899733548426
 22
47.391860964228471
 32
0.0
 13
130.7899733548426
 23
47.391860964228471
 33
0.0
210
0.0
220
0.0
230
1.0
  0
SOLID
  5
F92
  8
DRG
  6
CONTINUOUS
 62
     7
 10
127.2345352189994
 20
53.086533694841222
 30
0.0
 11
128.582778320579
 21
45.184665929964922
 31
0.0
 12
129.57768096950701
 22
46.396958315300481
 32
0.0
 13
129.57768096950701
 23
46.396958315300481
 33
0.0
210
0.0
220
0.0
230
1.0
  0
SOLID
  5
F93
  8
DRG
  6
CONTINUOUS
 62
     7
 10
127.2345352189994
 20
53.086533694841222
 30
0.0
 11
127.84349895890909
 21
43.801571524728807
 31
0.0
 12
128.582778320579
 22
45.184665929964922
 32
0.0
 13
128.582778320579
 23
45.184665929964922
 33
0.0
210
0.0
220
0.0
230
1.0
  0
SOLID
  5
F94
  8
DRG
  6
CONTINUOUS
 62
     7
 10
127.2345352189994
 20
53.086533694841222
 30
0.0
 11
116.19314081319391
 21
17.28637227261407
 31
0.0
 12
127.84349895890909
 22
43.801571524728807
 32
0.0
 13
127.84349895890909
 23
43.801571524728807
 33
0.0
210
0.0
220
0.0
230
1.0
  0
SOLID
  5
F95
  8
DRG
  6
CONTINUOUS
 62
     7
 10
107.7375943521987
 20
53.545888665485272
 30
0.0
 11
84.040792503241747
 21
52.520502096583449
 31
0.0
 12
108.9605169104595
 22
52.11403031875637
 32
0.0
 13
108.9605169104595
 23
52.11403031875637
 33
0.0
210
0.0
220
0.0
230
1.0
  0
SOLID
  5
F96
  8
DRG
  6
CONTINUOUS
 62
     7
 10
70.76581779577775
 20
53.545888665485272
 30
0.0
 11
46.760278461589081
 21
52.114030318756498
 31
0.0
 12
71.988740354038555
 22
52.11403031875637
 32
0.0
 13
71.988740354038555
 23
52.11403031875637
 33
0.0
210
0.0
220
0.0
230
1.0
  0
SOLID
  5
F97
  8
DRG
  6
CONTINUOUS
 62
     7
 10
47.983201019849879
 20
53.54588866548535
 30
0.0
 11
46.760278461589081
 21
52.114030318756498
 31
0.0
 12
70.76581779577775
 22
53.545888665485272
 32
0.0
 13
70.76581779577775
 23
53.545888665485272
 33
0.0
210
0.0
220
0.0
230
1.0
  0
SOLID
  5
F98
  8
DRG
  6
CONTINUOUS
 62
     7
 10
144.82934634516241
 20
53.580146843936248
 30
0.0
 11
143.6063830495508
 21
52.161077155056709
 31
0.0
 12
168.74457661464871
 22
52.190352074533777
 32
0.0
 13
168.74457661464871
 23
52.190352074533777
 33
0.0
210
0.0
220
0.0
230
1.0
  0
SOLID
  5
F99
  8
DRG
  6
CONTINUOUS
 62
     7
 10
167.52163335736839
 20
53.601455089215932
 30
0.0
 11
144.82934634516241
 21
53.580146843936248
 31
0.0
 12
168.74457661464871
 22
52.190352074533777
 32
0.0
 13
168.74457661464871
 23
52.190352074533777
 33
0.0
210
0.0
220
0.0
230
1.0
  0
SOLID
  5
F9A
  8
DRG
  6
CONTINUOUS
 62
     7
 10
85.261041575894609
 20
53.84129081468609
 30
0.0
 11
84.040792503241747
 21
52.520502096583449
 31
0.0
 12
107.7375943521987
 22
53.545888665485272
 32
0.0
 13
107.7375943521987
 23
53.545888665485272
 33
0.0
210
0.0
220
0.0
230
1.0
  0
SOLID
  5
F9B
  8
DRG
  6
CONTINUOUS
 62
     7
 10
25.844798136495001
 20
54.32395555433007
 30
0.0
 11
9.2608673477428542
 21
53.036304180633991
 31
0.0
 12
26.699742183985649
 22
52.856551873435983
 32
0.0
 13
26.699742183985649
 23
52.856551873435983
 33
0.0
210
0.0
220
0.0
230
1.0
  0
SOLID
  5
F9C
  8
DRG
  6
CONTINUOUS
 62
     7
 10
128.4120288872063
 20
54.426660978047501
 30
0.0
 11
127.2345352189994
 21
53.086533694841222
 31
0.0
 12
136.6041529029215
 22
48.740104065808111
 32
0.0
 13
136.6041529029215
 23
48.740104065808111
 33
0.0
  0
SOLID
  5
F9D
  8
DRG
  6
CONTINUOUS
 62
     7
 10
10.42981956125807
 20
54.445496591066302
 30
0.0
 11
9.2608673477428542
 21
53.036304180633991
 31
0.0
 12
25.844798136495001
 22
54.32395555433007
 32
0.0
 13
25.844798136495001
 23
54.32395555433007
 33
0.0
210
0.0
220
0.0
230
1.0
  0
SOLID
  5
F9E
  8
DRG
  6
CONTINUOUS
 62
     7
 10
69.333959449048862
 20
54.76881122374607
 30
0.0
 11
47.983201019849879
 21
53.54588866548535
 31
0.0
 12
70.76581779577775
 22
53.545888665485272
 32
0.0
 13
70.76581779577775
 23
53.545888665485272
 33
0.0
210
0.0
220
0.0
230
1.0
  0
SOLID
  5
F9F
  8
DRG
  6
CONTINUOUS
 62
     7
 10
106.3057360054698
 20
54.76881122374607
 30
0.0
 11
85.261041575894609
 21
53.84129081468609
 31
0.0
 12
107.7375943521987
 22
53.545888665485272
 32
0.0
 13
107.7375943521987
 23
53.545888665485272
 33
0.0
210
0.0
220
0.0
230
1.0
  0
SOLID
  5
FA0
  8
DRG
  6
CONTINUOUS
 62
     7
 10
49.415059366578767
 20
54.768811223746127
 30
0.0
 11
47.983201019849879
 21
53.54588866548535
 31
0.0
 12
69.333959449048862
 22
54.76881122374607
 32
0.0
 13
69.333959449048862
 23
54.76881122374607
 33
0.0
210
0.0
220
0.0
230
1.0
  0
SOLID
  5
FA1
  8
DRG
  6
CONTINUOUS
 62
     7
 10
146.25826461696471
 20
54.791588372372388
 30
0.0
 11
144.82934634516241
 21
53.580146843936248
 31
0.0
 12
167.52163335736839
 22
53.601455089215932
 32
0.0
 13
167.52163335736839
 23
53.601455089215932
 33
0.0
210
0.0
220
0.0
230
1.0
  0
SOLID
  5
FA2
  8
DRG
  6
CONTINUOUS
 62
     7
 10
166.0945826752498
 20
54.805750849914723
 30
0.0
 11
146.25826461696471
 21
54.791588372372388
 31
0.0
 12
167.52163335736839
 22
53.601455089215932
 32
0.0
 13
167.52163335736839
 23
53.601455089215932
 33
0.0
210
0.0
220
0.0
230
1.0
  0
SOLID
  5
FA3
  8
DRG
  6
CONTINUOUS
 62
     7
 10
86.66495330688258
 20
54.964911074725819
 30
0.0
 11
85.261041575894609
 21
53.84129081468609
 31
0.0
 12
106.3057360054698
 22
54.76881122374607
 32
0.0
 13
106.3057360054698
 23
54.76881122374607
 33
0.0
210
0.0
220
0.0
230
1.0
  0
SOLID
  5
FA4
  8
DRG
  6
CONTINUOUS
 62
     7
 10
129.80398889070241
 20
55.542402804156168
 30
0.0
 11
128.4120288872063
 21
54.426660978047501
 31
0.0
 12
136.6041529029215
 22
48.740104065808111
 32
0.0
 13
136.6041529029215
 23
48.740104065808111
 33
0.0
210
0.0
220
0.0
230
1.0
  0
SOLID
  5
FA5
  8
DRG
  6
CONTINUOUS
 62
     7
 10
24.732069813226278
 20
55.606935899322451
 30
0.0
 11
10.42981956125807
 21
54.445496591066302
 31
0.0
 12
25.844798136495001
 22
54.32395555433007
 32
0.0
 13
25.844798136495001
 23
54.32395555433007
 33
0.0
210
0.0
220
0.0
230
1.0
  0
SOLID
  5
FA6
  8
DRG
  6
CONTINUOUS
 62
     7
 10
11.797892504136779
 20
55.662315784728747
 30
0.0
 11
10.42981956125807
 21
54.445496591066302
 31
0.0
 12
24.732069813226278
 22
55.606935899322451
 32
0.0
 13
24.732069813226278
 23
55.606935899322451
 33
0.0
210
0.0
220
0.0
230
1.0
  0
SOLID
  5
FA7
  8
DRG
  6
CONTINUOUS
 62
     7
 10
67.728422418413743
 20
55.752685581507109
 30
0.0
 11
49.415059366578767
 21
54.768811223746127
 31
0.0
 12
69.333959449048862
 22
54.76881122374607
 32
0.0
 13
69.333959449048862
 23
54.76881122374607
 33
0.0
210
0.0
220
0.0
230
1.0
  0
SOLID
  5
FA8
  8
DRG
  6
CONTINUOUS
 62
     7
 10
104.70019897483471
 20
55.752685581507109
 30
0.0
 11
86.66495330688258
 21
54.964911074725819
 31
0.0
 12
106.3057360054698
 22
54.76881122374607
 32
0.0
 13
106.3057360054698
 23
54.76881122374607
 33
0.0
210
0.0
220
0.0
230
1.0
  0
SOLID
  5
FA9
  8
DRG
  6
CONTINUOUS
 62
     7
 10
51.020596397213872
 20
55.752685581507151
 30
0.0
 11
49.415059366578767
 21
54.768811223746127
 31
0.0
 12
67.728422418413743
 22
55.752685581507109
 32
0.0
 13
67.728422418413743
 23
55.752685581507109
 33
0.0
  0
SOLID
  5
FAA
  8
DRG
  6
CONTINUOUS
 62
     7
 10
147.85831395571171
 20
55.765877917571849
 30
0.0
 11
146.25826461696471
 21
54.791588372372388
 31
0.0
 12
166.0945826752498
 22
54.805750849914723
 32
0.0
 13
166.0945826752498
 23
54.805750849914723
 33
0.0
210
0.0
220
0.0
230
1.0
  0
SOLID
  5
FAB
  8
DRG
  6
CONTINUOUS
 62
     7
 10
164.49797903406079
 20
55.774078656762292
 30
0.0
 11
147.85831395571171
 21
55.765877917571849
 31
0.0
 12
166.0945826752498
 22
54.805750849914723
 32
0.0
 13
166.0945826752498
 23
54.805750849914723
 33
0.0
210
0.0
220
0.0
230
1.0
  0
SOLID
  5
FAC
  8
DRG
  6
CONTINUOUS
 62
     7
 10
88.221003144555837
 20
55.866132212879158
 30
0.0
 11
86.66495330688258
 21
54.964911074725819
 31
0.0
 12
104.70019897483471
 22
55.752685581507109
 32
0.0
 13
104.70019897483471
 23
55.752685581507109
 33
0.0
210
0.0
220
0.0
230
1.0
  0
SOLID
  5
FAD
  8
DRG
  6
CONTINUOUS
 62
     7
 10
131.36827517159969
 20
56.399981316747272
 30
0.0
 11
129.80398889070241
 21
55.542402804156168
 31
0.0
 12
136.6041529029215
 22
48.740104065808111
 32
0.0
 13
136.6041529029215
 23
48.740104065808111
 33
0.0
210
0.0
220
0.0
230
1.0
  0
SOLID
  5
FAE
  8
DRG
  6
CONTINUOUS
 62
     7
 10
102.9605169104595
 20
56.473285486788541
 30
0.0
 11
88.221003144555837
 21
55.866132212879158
 31
0.0
 12
104.70019897483471
 22
55.752685581507109
 32
0.0
 13
104.70019897483471
 23
55.752685581507109
 33
0.0
210
0.0
220
0.0
230
1.0
  0
SOLID
  5
FAF
  8
DRG
  6
CONTINUOUS
 62
     7
 10
65.988740354038555
 20
56.473285486788541
 30
0.0
 11
51.020596397213872
 21
55.752685581507151
 31
0.0
 12
67.728422418413743
 22
55.752685581507109
 32
0.0
 13
67.728422418413743
 23
55.752685581507109
 33
0.0
210
0.0
220
0.0
230
1.0
  0
SOLID
  5
FB0
  8
DRG
  6
CONTINUOUS
 62
     7
 10
52.760278461589039
 20
56.473285486788562
 30
0.0
 11
51.020596397213872
 21
55.752685581507151
 31
0.0
 12
65.988740354038555
 22
56.473285486788541
 32
0.0
 13
65.988740354038555
 23
56.473285486788541
 33
0.0
210
0.0
220
0.0
230
1.0
  0
SOLID
  5
FB1
  8
DRG
  6
CONTINUOUS
 62
     7
 10
149.59049984781899
 20
56.479271244912823
 30
0.0
 11
147.85831395571171
 21
55.765877917571849
 31
0.0
 12
164.49797903406079
 22
55.774078656762292
 32
0.0
 13
164.49797903406079
 23
55.774078656762292
 33
0.0
210
0.0
220
0.0
230
1.0
  0
SOLID
  5
FB2
  8
DRG
  6
CONTINUOUS
 62
     7
 10
162.77048243835179
 20
56.482991514866931
 30
0.0
 11
149.59049984781899
 21
56.479271244912823
 31
0.0
 12
164.49797903406079
 22
55.774078656762292
 32
0.0
 13
164.49797903406079
 23
55.774078656762292
 33
0.0
210
0.0
220
0.0
230
1.0
  0
SOLID
  5
FB3
  8
DRG
  6
CONTINUOUS
 62
     7
 10
89.894250307101217
 20
56.524717492255519
 30
0.0
 11
88.221003144555837
 21
55.866132212879158
 31
0.0
 12
102.9605169104595
 22
56.473285486788541
 32
0.0
 13
102.9605169104595
 23
56.473285486788541
 33
0.0
210
0.0
220
0.0
230
1.0
  0
SOLID
  5
FB4
  8
DRG
  6
CONTINUOUS
 62
     7
 10
13.33380241014922
 20
56.658936719545487
 30
0.0
 11
11.797892504136779
 21
55.662315784728747
 31
0.0
 12
24.732069813226278
 22
55.606935899322451
 32
0.0
 13
24.732069813226278
 23
55.606935899322451
 33
0.0
210
0.0
220
0.0
230
1.0
  0
SOLID
  5
FB5
  8
DRG
  6
CONTINUOUS
 62
     7
 10
23.40031659456379
 20
56.660803183008269
 30
0.0
 11
13.33380241014922
 21
56.658936719545487
 31
0.0
 12
24.732069813226278
 22
55.606935899322451
 32
0.0
 13
24.732069813226278
 23
55.606935899322451
 33
0.0
210
0.0
220
0.0
230
1.0
  0
SOLID
  5
FB6
  8
DRG
  6
CONTINUOUS
 62
     7
 10
101.1295265584429
 20
56.912867378388363
 30
0.0
 11
89.894250307101217
 21
56.524717492255519
 31
0.0
 12
102.9605169104595
 22
56.473285486788541
 32
0.0
 13
102.9605169104595
 23
56.473285486788541
 33
0.0
  0
SOLID
  5
FB7
  8
DRG
  6
CONTINUOUS
 62
     7
 10
64.157750002021956
 20
56.912867378388363
 30
0.0
 11
52.760278461589039
 21
56.473285486788562
 31
0.0
 12
65.988740354038555
 22
56.473285486788541
 32
0.0
 13
65.988740354038555
 23
56.473285486788541
 33
0.0
210
0.0
220
0.0
230
1.0
  0
SOLID
  5
FB8
  8
DRG
  6
CONTINUOUS
 62
     7
 10
54.591268813605623
 20
56.912867378388363
 30
0.0
 11
52.760278461589039
 21
56.473285486788562
 31
0.0
 12
64.157750002021956
 22
56.912867378388363
 32
0.0
 13
64.157750002021956
 23
56.912867378388363
 33
0.0
210
0.0
220
0.0
230
1.0
  0
SOLID
  5
FB9
  8
DRG
  6
CONTINUOUS
 62
     7
 10
151.4126075036138
 20
56.914382374400461
 30
0.0
 11
149.59049984781899
 21
56.479271244912823
 31
0.0
 12
162.77048243835179
 22
56.482991514866931
 32
0.0
 13
162.77048243835179
 23
56.482991514866931
 33
0.0
210
0.0
220
0.0
230
1.0
  0
SOLID
  5
FBA
  8
DRG
  6
CONTINUOUS
 62
     7
 10
160.9539223218834
 20
56.91532387755619
 30
0.0
 11
151.4126075036138
 21
56.914382374400461
 31
0.0
 12
162.77048243835179
 22
56.482991514866931
 32
0.0
 13
162.77048243835179
 23
56.482991514866931
 33
0.0
  0
SOLID
  5
FBB
  8
DRG
  6
CONTINUOUS
 62
     7
 10
91.647122370673046
 20
56.925878514697629
 30
0.0
 11
89.894250307101217
 21
56.524717492255519
 31
0.0
 12
101.1295265584429
 22
56.912867378388363
 32
0.0
 13
101.1295265584429
 23
56.912867378388363
 33
0.0
210
0.0
220
0.0
230
1.0
  0
SOLID
  5
FBC
  8
DRG
  6
CONTINUOUS
 62
     7
 10
133.05753068352811
 20
56.973434269726511
 30
0.0
 11
131.36827517159969
 21
56.399981316747272
 31
0.0
 12
136.6041529029215
 22
48.740104065808111
 32
0.0
 13
136.6041529029215
 23
48.740104065808111
 33
0.0
210
0.0
220
0.0
230
1.0
  0
SOLID
  5
FBD
  8
DRG
  6
CONTINUOUS
 62
     7
 10
27.267121908897021
 20
51.255838552818979
 30
0.0
 11
37.639779947293832
 21
57.06060729124669
 31
0.0
 12
27.267121908897028
 22
57.06060729124669
 32
0.0
 13
27.267121908897028
 23
57.06060729124669
 33
0.0
210
0.0
220
0.0
230
1.0
  0
SOLID
  5
FBE
  8
DRG
  6
CONTINUOUS
 62
     7
 10
37.639779947293832
 20
57.06060729124669
 30
0.0
 11
27.267121908897021
 21
51.255838552818979
 31
0.0
 12
37.639779947293839
 22
13.760967175618781
 32
0.0
 13
37.639779947293839
 23
13.760967175618781
 33
0.0
  0
SOLID
  5
FBF
  8
DRG
  6
CONTINUOUS
 62
     7
 10
54.591268813605623
 20
56.912867378388363
 30
0.0
 11
62.280536421539182
 21
57.06060729124669
 31
0.0
 12
56.468482394088369
 22
57.06060729124669
 32
0.0
 13
56.468482394088369
 23
57.06060729124669
 33
0.0
210
0.0
220
0.0
230
1.0
  0
SOLID
  5
FC0
  8
DRG
  6
CONTINUOUS
 62
     7
 10
62.280536421539182
 20
57.06060729124669
 30
0.0
 11
54.591268813605623
 21
56.912867378388363
 31
0.0
 12
64.157750002021956
 22
56.912867378388363
 32
0.0
 13
64.157750002021956
 23
56.912867378388363
 33
0.0
210
0.0
220
0.0
230
1.0
  0
SOLID
  5
FC1
  8
DRG
  6
CONTINUOUS
 62
     7
 10
91.647122370673046
 20
56.925878514697629
 30
0.0
 11
99.252312977960173
 21
57.06060729124669
 31
0.0
 12
93.440258950509346
 22
57.06060729124669
 32
0.0
 13
93.440258950509346
 23
57.06060729124669
 33
0.0
210
0.0
220
0.0
230
1.0
  0
SOLID
  5
FC2
  8
DRG
  6
CONTINUOUS
 62
     7
 10
99.252312977960173
 20
57.06060729124669
 30
0.0
 11
91.647122370673046
 21
56.925878514697629
 31
0.0
 12
101.1295265584429
 22
56.912867378388363
 32
0.0
 13
101.1295265584429
 23
56.912867378388363
 33
0.0
210
0.0
220
0.0
230
1.0
  0
SOLID
  5
FC3
  8
DRG
  6
CONTINUOUS
 62
     7
 10
160.9539223218834
 20
56.91532387755619
 30
0.0
 11
159.0922846938046
 21
57.06060729124669
 31
0.0
 12
153.28023066635379
 22
57.06060729124669
 32
0.0
 13
153.28023066635379
 23
57.06060729124669
 33
0.0
210
0.0
220
0.0
230
1.0
  0
SOLID
  5
FC4
  8
DRG
  6
CONTINUOUS
 62
     7
 10
153.28023066635379
 20
57.06060729124669
 30
0.0
 11
151.4126075036138
 21
56.914382374400461
 31
0.0
 12
160.9539223218834
 22
56.91532387755619
 32
0.0
 13
160.9539223218834
 23
56.91532387755619
 33
0.0
210
0.0
220
0.0
230
1.0
  0
SOLID
  5
FC5
  8
DRG
  6
CONTINUOUS
 62
     7
 10
127.2345352189994
 20
53.086533694841222
 30
0.0
 11
127.2345352189994
 21
57.207648031108022
 31
0.0
 12
116.19314081319391
 22
57.207648031108022
 32
0.0
 13
116.19314081319391
 23
57.207648031108022
 33
0.0
210
0.0
220
0.0
230
1.0
  0
SOLID
  5
FC6
  8
DRG
  6
CONTINUOUS
 62
     7
 10
116.19314081319391
 20
57.207648031108022
 30
0.0
 11
116.19314081319391
 21
17.28637227261407
 31
0.0
 12
127.2345352189994
 22
53.086533694841222
 32
0.0
 13
127.2345352189994
 23
53.086533694841222
 33
0.0
210
0.0
220
0.0
230
1.0
  0
SOLID
  5
FC7
  8
DRG
  6
CONTINUOUS
 62
     7
 10
136.6041529029215
 20
57.207648031108022
 30
0.0
 11
133.05753068352811
 21
56.973434269726511
 31
0.0
 12
136.6041529029215
 22
48.740104065808111
 32
0.0
 13
136.6041529029215
 23
48.740104065808111
 33
0.0
210
0.0
220
0.0
230
1.0
  0
SOLID
  5
FC8
  8
DRG
  6
CONTINUOUS
 62
     7
 10
134.8206150741201
 20
57.245401005766141
 30
0.0
 11
133.05753068352811
 21
56.973434269726511
 31
0.0
 12
136.6041529029215
 22
57.207648031108022
 32
0.0
 13
136.6041529029215
 23
57.207648031108022
 33
0.0
210
0.0
220
0.0
230
1.0
  0
SOLID
  5
FC9
  8
DRG
  6
CONTINUOUS
 62
     7
 10
15.00242758004698
 20
57.41256963382525
 30
0.0
 11
13.33380241014922
 21
56.658936719545487
 31
0.0
 12
23.40031659456379
 22
56.660803183008269
 32
0.0
 13
23.40031659456379
 23
56.660803183008269
 33
0.0
  0
SOLID
  5
FCA
  8
DRG
  6
CONTINUOUS
 62
     7
 10
21.895927098915749
 20
57.448848316503202
 30
0.0
 11
15.00242758004698
 21
57.41256963382525
 31
0.0
 12
23.40031659456379
 22
56.660803183008269
 32
0.0
 13
23.40031659456379
 23
56.660803183008269
 33
0.0
210
0.0
220
0.0
230
1.0
  0
SOLID
  5
FCB
  8
DRG
  6
CONTINUOUS
 62
     7
 10
16.765611510544261
 20
57.905981180445629
 30
0.0
 11
15.00242758004698
 21
57.41256963382525
 31
0.0
 12
21.895927098915749
 22
57.448848316503202
 32
0.0
 13
21.895927098915749
 23
57.448848316503202
 33
0.0
210
0.0
220
0.0
230
1.0
  0
SOLID
  5
FCC
  8
DRG
  6
CONTINUOUS
 62
     7
 10
20.271303339863209
 20
57.943621525724573
 30
0.0
 11
16.765611510544261
 21
57.905981180445629
 31
0.0
 12
21.895927098915749
 22
57.448848316503202
 32
0.0
 13
21.895927098915749
 23
57.448848316503202
 33
0.0
210
0.0
220
0.0
230
1.0
  0
SOLID
  5
FCD
  8
DRG
  6
CONTINUOUS
 62
     7
 10
18.58303542025671
 20
58.127888502333931
 30
0.0
 11
16.765611510544261
 21
57.905981180445629
 31
0.0
 12
20.271303339863209
 22
57.943621525724573
 32
0.0
 13
20.271303339863209
 23
57.943621525724573
 33
0.0
210
0.0
220
0.0
230
1.0
  0
SOLID
  5
FCE
  8
DRG
  6
CONTINUOUS
 62
     7
 10
82.01868759770089
 20
61.040289496156653
 30
0.0
 11
75.331191210151701
 21
60.89733173546756
 31
0.0
 12
80.675802928262684
 22
60.89733173546756
 32
0.0
 13
80.675802928262684
 23
60.89733173546756
 33
0.0
210
0.0
220
0.0
230
1.0
  0
SOLID
  5
FCF
  8
DRG
  6
CONTINUOUS
 62
     7
 10
105.53904684726351
 20
61.045071094397443
 30
0.0
 11
97.849782736700035
 21
60.89733173546756
 31
0.0
 12
103.66183676415081
 22
60.89733173546756
 32
0.0
 13
103.66183676415081
 23
60.89733173546756
 33
0.0
210
0.0
220
0.0
230
1.0
  0
SOLID
  5
FD0
  8
DRG
  6
CONTINUOUS
 62
     7
 10
49.52740701022941
 20
61.045071094397443
 30
0.0
 11
41.838142899665847
 21
60.89733173546756
 31
0.0
 12
47.650196927116667
 22
60.89733173546756
 32
0.0
 13
47.650196927116667
 23
60.89733173546756
 33
0.0
210
0.0
220
0.0
230
1.0
  0
SOLID
  5
FD1
  8
DRG
  6
CONTINUOUS
 62
     7
 10
95.972569156217247
 20
61.045071648325901
 30
0.0
 11
97.849782736700035
 21
60.89733173546756
 31
0.0
 12
105.53904684726351
 22
61.045071094397443
 32
0.0
 13
105.53904684726351
 23
61.045071094397443
 33
0.0
210
0.0
220
0.0
230
1.0
  0
SOLID
  5
FD2
  8
DRG
  6
CONTINUOUS
 62
     7
 10
39.960929319183123
 20
61.045071648325901
 30
0.0
 11
41.838142899665847
 21
60.89733173546756
 31
0.0
 12
49.52740701022941
 22
61.045071094397443
 32
0.0
 13
49.52740701022941
 23
61.045071094397443
 33
0.0
  0
SOLID
  5
FD3
  8
DRG
  6
CONTINUOUS
 62
     7
 10
73.770468634022663
 20
61.051049492241717
 30
0.0
 11
75.331191210151701
 21
60.89733173546756
 31
0.0
 12
82.01868759770089
 22
61.040289496156653
 32
0.0
 13
82.01868759770089
 23
61.040289496156653
 33
0.0
210
0.0
220
0.0
230
1.0
  0
SOLID
  5
FD4
  8
DRG
  6
CONTINUOUS
 62
     7
 10
83.309615438619744
 20
61.436876770654941
 30
0.0
 11
73.770468634022663
 21
61.051049492241717
 31
0.0
 12
82.01868759770089
 22
61.040289496156653
 32
0.0
 13
82.01868759770089
 23
61.040289496156653
 33
0.0
  0
SOLID
  5
FD5
  8
DRG
  6
CONTINUOUS
 62
     7
 10
51.358394124299522
 20
61.484651351490918
 30
0.0
 11
39.960929319183123
 21
61.045071648325901
 31
0.0
 12
49.52740701022941
 22
61.045071094397443
 32
0.0
 13
49.52740701022941
 23
61.045071094397443
 33
0.0
210
0.0
220
0.0
230
1.0
  0
SOLID
  5
FD6
  8
DRG
  6
CONTINUOUS
 62
     7
 10
107.3700339613337
 20
61.484651351490918
 30
0.0
 11
95.972569156217247
 21
61.045071648325901
 31
0.0
 12
105.53904684726351
 22
61.045071094397443
 32
0.0
 13
105.53904684726351
 23
61.045071094397443
 33
0.0
210
0.0
220
0.0
230
1.0
  0
SOLID
  5
FD7
  8
DRG
  6
CONTINUOUS
 62
     7
 10
38.129938967166559
 20
61.484653539925702
 30
0.0
 11
39.960929319183123
 21
61.045071648325901
 31
0.0
 12
51.358394124299522
 22
61.484651351490918
 32
0.0
 13
51.358394124299522
 23
61.484651351490918
 33
0.0
210
0.0
220
0.0
230
1.0
  0
SOLID
  5
FD8
  8
DRG
  6
CONTINUOUS
 62
     7
 10
94.141578804200677
 20
61.484653539925709
 30
0.0
 11
95.972569156217247
 21
61.045071648325901
 31
0.0
 12
107.3700339613337
 22
61.484651351490918
 32
0.0
 13
107.3700339613337
 23
61.484651351490918
 33
0.0
210
0.0
220
0.0
230
1.0
  0
SOLID
  5
FD9
  8
DRG
  6
CONTINUOUS
 62
     7
 10
72.269723751230984
 20
61.506295475377271
 30
0.0
 11
73.770468634022663
 21
61.051049492241717
 31
0.0
 12
83.309615438619744
 22
61.436876770654941
 32
0.0
 13
83.309615438619744
 23
61.436876770654941
 33
0.0
210
0.0
220
0.0
230
1.0
  0
SOLID
  5
FDA
  8
DRG
  6
CONTINUOUS
 62
     7
 10
84.501142256151084
 20
62.072518178885289
 30
0.0
 11
72.269723751230984
 21
61.506295475377271
 31
0.0
 12
83.309615438619744
 22
61.436876770654941
 32
0.0
 13
83.309615438619744
 23
61.436876770654941
 33
0.0
  0
SOLID
  5
FDB
  8
DRG
  6
CONTINUOUS
 62
     7
 10
53.098073458920069
 20
62.205248622517793
 30
0.0
 11
38.129938967166559
 21
61.484653539925702
 31
0.0
 12
51.358394124299522
 22
61.484651351490918
 32
0.0
 13
51.358394124299522
 23
61.484651351490918
 33
0.0
210
0.0
220
0.0
230
1.0
  0
SOLID
  5
FDC
  8
DRG
  6
CONTINUOUS
 62
     7
 10
109.10971329595419
 20
62.205248622517793
 30
0.0
 11
94.141578804200677
 21
61.484653539925709
 31
0.0
 12
107.3700339613337
 22
61.484651351490918
 32
0.0
 13
107.3700339613337
 23
61.484651351490918
 33
0.0
210
0.0
220
0.0
230
1.0
  0
SOLID
  5
FDD
  8
DRG
  6
CONTINUOUS
 62
     7
 10
36.390256902791393
 20
62.205253445207092
 30
0.0
 11
38.129938967166559
 21
61.484653539925702
 31
0.0
 12
53.098073458920069
 22
62.205248622517793
 32
0.0
 13
53.098073458920069
 23
62.205248622517793
 33
0.0
210
0.0
220
0.0
230
1.0
  0
SOLID
  5
FDE
  8
DRG
  6
CONTINUOUS
 62
     7
 10
92.401896739825474
 20
62.205253445207127
 30
0.0
 11
94.141578804200677
 21
61.484653539925709
 31
0.0
 12
109.10971329595419
 22
62.205248622517793
 32
0.0
 13
109.10971329595419
 23
62.205248622517793
 33
0.0
  0
SOLID
  5
FDF
  8
DRG
  6
CONTINUOUS
 62
     7
 10
70.886629345994876
 20
62.245574837047201
 30
0.0
 11
72.269723751230984
 21
61.506295475377271
 31
0.0
 12
84.501142256151084
 22
62.072518178885289
 32
0.0
 13
84.501142256151084
 23
62.072518178885289
 33
0.0
210
0.0
220
0.0
230
1.0
  0
SOLID
  5
FE0
  8
DRG
  6
CONTINUOUS
 62
     7
 10
110.7152483328518
 20
63.189119477666686
 30
0.0
 11
92.401896739825474
 21
62.205253445207127
 31
0.0
 12
109.10971329595419
 22
62.205248622517793
 32
0.0
 13
109.10971329595419
 23
62.205248622517793
 33
0.0
210
0.0
220
0.0
230
1.0
  0
SOLID
  5
FE1
  8
DRG
  6
CONTINUOUS
 62
     7
 10
54.703608495817662
 20
63.189119477666686
 30
0.0
 11
36.390256902791393
 21
62.205253445207092
 31
0.0
 12
53.098073458920069
 22
62.205248622517793
 32
0.0
 13
53.098073458920069
 23
62.205248622517793
 33
0.0
210
0.0
220
0.0
230
1.0
  0
SOLID
  5
FE2
  8
DRG
  6
CONTINUOUS
 62
     7
 10
34.784719872156288
 20
63.189127802968102
 30
0.0
 11
36.390256902791393
 21
62.205253445207092
 31
0.0
 12
54.703608495817662
 22
63.189119477666686
 32
0.0
 13
54.703608495817662
 23
63.189119477666686
 33
0.0
210
0.0
220
0.0
230
1.0
  0
SOLID
  5
FE3
  8
DRG
  6
CONTINUOUS
 62
     7
 10
90.796359709190384
 20
63.189127802968173
 30
0.0
 11
92.401896739825474
 21
62.205253445207127
 31
0.0
 12
110.7152483328518
 22
63.189119477666686
 32
0.0
 13
110.7152483328518
 23
63.189119477666686
 33
0.0
210
0.0
220
0.0
230
1.0
  0
SOLID
  5
FE4
  8
DRG
  6
CONTINUOUS
 62
     7
 10
69.674336960659303
 20
63.240477485975177
 30
0.0
 11
70.886629345994876
 21
62.245574837047201
 31
0.0
 12
84.501142256151084
 22
62.072518178885289
 32
0.0
 13
84.501142256151084
 23
62.072518178885289
 33
0.0
210
0.0
220
0.0
230
1.0
  0
SOLID
  5
FE5
  8
DRG
  6
CONTINUOUS
 62
     7
 10
112.14710561917801
 20
64.412037842036057
 30
0.0
 11
90.796359709190384
 21
63.189127802968173
 31
0.0
 12
110.7152483328518
 22
63.189119477666686
 32
0.0
 13
110.7152483328518
 23
63.189119477666686
 33
0.0
210
0.0
220
0.0
230
1.0
  0
SOLID
  5
FE6
  8
DRG
  6
CONTINUOUS
 62
     7
 10
56.135465782143832
 20
64.412037842036057
 30
0.0
 11
34.784719872156288
 21
63.189127802968102
 31
0.0
 12
54.703608495817662
 22
63.189119477666686
 32
0.0
 13
54.703608495817662
 23
63.189119477666686
 33
0.0
210
0.0
220
0.0
230
1.0
  0
SOLID
  5
FE7
  8
DRG
  6
CONTINUOUS
 62
     7
 10
33.352861525427407
 20
64.412050361228864
 30
0.0
 11
34.784719872156288
 21
63.189127802968102
 31
0.0
 12
56.135465782143832
 22
64.412037842036057
 32
0.0
 13
56.135465782143832
 23
64.412037842036057
 33
0.0
  0
SOLID
  5
FE8
  8
DRG
  6
CONTINUOUS
 62
     7
 10
89.364501362461496
 20
64.412050361228964
 30
0.0
 11
90.796359709190384
 21
63.189127802968173
 31
0.0
 12
112.14710561917801
 22
64.412037842036057
 32
0.0
 13
112.14710561917801
 23
64.412037842036057
 33
0.0
210
0.0
220
0.0
230
1.0
  0
SOLID
  5
FE9
  8
DRG
  6
CONTINUOUS
 62
     7
 10
68.679434311731342
 20
64.45276987131075
 30
0.0
 11
69.674336960659303
 21
63.240477485975177
 31
0.0
 12
84.501142256151084
 22
62.072518178885289
 32
0.0
 13
84.501142256151084
 23
62.072518178885289
 33
0.0
210
0.0
220
0.0
230
1.0
  0
SOLID
  5
FEA
  8
DRG
  6
CONTINUOUS
 62
     7
 10
67.940154950061412
 20
65.835864276546843
 30
0.0
 11
68.679434311731342
 21
64.45276987131075
 31
0.0
 12
84.501142256151084
 22
62.072518178885289
 32
0.0
 13
84.501142256151084
 23
62.072518178885289
 33
0.0
210
0.0
220
0.0
230
1.0
  0
SOLID
  5
FEB
  8
DRG
  6
CONTINUOUS
 62
     7
 10
57.358388371638434
 20
65.843891519763289
 30
0.0
 11
33.352861525427407
 21
64.412050361228864
 31
0.0
 12
56.135465782143832
 22
64.412037842036057
 32
0.0
 13
56.135465782143832
 23
64.412037842036057
 33
0.0
  0
SOLID
  5
FEC
  8
DRG
  6
CONTINUOUS
 62
     7
 10
113.37002820867259
 20
65.843891519763289
 30
0.0
 11
89.364501362461496
 21
64.412050361228964
 31
0.0
 12
112.14710561917801
 22
64.412037842036057
 32
0.0
 13
112.14710561917801
 23
64.412037842036057
 33
0.0
210
0.0
220
0.0
230
1.0
  0
SOLID
  5
FED
  8
DRG
  6
CONTINUOUS
 62
     7
 10
32.129938967166609
 20
65.843908707957709
 30
0.0
 11
33.352861525427407
 21
64.412050361228864
 31
0.0
 12
57.358388371638434
 22
65.843891519763289
 32
0.0
 13
57.358388371638434
 23
65.843891519763289
 33
0.0
210
0.0
220
0.0
230
1.0
  0
SOLID
  5
FEE
  8
DRG
  6
CONTINUOUS
 62
     7
 10
88.141578804200691
 20
65.843908707957823
 30
0.0
 11
89.364501362461496
 21
64.412050361228964
 31
0.0
 12
113.37002820867259
 22
65.843891519763289
 32
0.0
 13
113.37002820867259
 23
65.843891519763289
 33
0.0
210
0.0
220
0.0
230
1.0
  0
SOLID
  5
FEF
  8
DRG
  6
CONTINUOUS
 62
     7
 10
67.484908966925857
 20
67.336609159338536
 30
0.0
 11
67.940154950061412
 21
65.835864276546843
 31
0.0
 12
84.501142256151084
 22
62.072518178885289
 32
0.0
 13
84.501142256151084
 23
62.072518178885289
 33
0.0
210
0.0
220
0.0
230
1.0
  0
SOLID
  5
FF0
  8
DRG
  6
CONTINUOUS
 62
     7
 10
58.342263964402669
 20
67.449423653443588
 30
0.0
 11
32.129938967166609
 21
65.843908707957709
 31
0.0
 12
57.358388371638434
 22
65.843891519763289
 32
0.0
 13
57.358388371638434
 23
65.843891519763289
 33
0.0
210
0.0
220
0.0
230
1.0
  0
SOLID
  5
FF1
  8
DRG
  6
CONTINUOUS
 62
     7
 10
114.3539038014368
 20
67.449423653443588
 30
0.0
 11
88.141578804200691
 21
65.843908707957823
 31
0.0
 12
113.37002820867259
 22
65.843891519763289
 32
0.0
 13
113.37002820867259
 23
65.843891519763289
 33
0.0
210
0.0
220
0.0
230
1.0
  0
SOLID
  5
FF2
  8
DRG
  6
CONTINUOUS
 62
     7
 10
31.146064609405549
 20
67.449445738592772
 30
0.0
 11
32.129938967166609
 21
65.843908707957709
 31
0.0
 12
58.342263964402669
 22
67.449423653443588
 32
0.0
 13
58.342263964402669
 23
67.449423653443588
 33
0.0
  0
SOLID
  5
FF3
  8
DRG
  6
CONTINUOUS
 62
     7
 10
87.157704446439652
 20
67.449445738592942
 30
0.0
 11
88.141578804200691
 21
65.843908707957823
 31
0.0
 12
114.3539038014368
 22
67.449423653443588
 32
0.0
 13
114.3539038014368
 23
67.449423653443588
 33
0.0
210
0.0
220
0.0
230
1.0
  0
SOLID
  5
FF4
  8
DRG
  6
CONTINUOUS
 62
     7
 10
44.744171147941039
 20
68.794444026784149
 30
0.0
 11
31.146064609405549
 21
67.449445738592772
 31
0.0
 12
58.342263964402669
 22
67.449423653443588
 32
0.0
 13
58.342263964402669
 23
67.449423653443588
 33
0.0
210
0.0
220
0.0
230
1.0
  0
SOLID
  5
FF5
  8
DRG
  6
CONTINUOUS
 62
     7
 10
100.7558109849752
 20
68.794444026784163
 30
0.0
 11
87.157704446439652
 21
67.449445738592942
 31
0.0
 12
114.3539038014368
 22
67.449423653443588
 32
0.0
 13
114.3539038014368
 23
67.449423653443588
 33
0.0
210
0.0
220
0.0
230
1.0
  0
SOLID
  5
FF6
  8
DRG
  6
CONTINUOUS
 62
     7
 10
67.331191210151701
 20
68.89733173546756
 30
0.0
 11
67.484908966925857
 21
67.336609159338536
 31
0.0
 12
84.501142256151084
 22
62.072518178885289
 32
0.0
 13
84.501142256151084
 23
62.072518178885289
 33
0.0
210
0.0
220
0.0
230
1.0
  0
SOLID
  5
FF7
  8
DRG
  6
CONTINUOUS
 62
     7
 10
45.743523069513166
 20
68.926011203227603
 30
0.0
 11
44.744171147941039
 21
68.794444026784149
 31
0.0
 12
58.342263964402669
 22
67.449423653443588
 32
0.0
 13
58.342263964402669
 23
67.449423653443588
 33
0.0
  0
SOLID
  5
FF8
  8
DRG
  6
CONTINUOUS
 62
     7
 10
101.7551629065473
 20
68.926011203227617
 30
0.0
 11
100.7558109849752
 21
68.794444026784163
 31
0.0
 12
114.3539038014368
 22
67.449423653443588
 32
0.0
 13
114.3539038014368
 23
67.449423653443588
 33
0.0
210
0.0
220
0.0
230
1.0
  0
SOLID
  5
FF9
  8
DRG
  6
CONTINUOUS
 62
     7
 10
43.744819226368982
 20
68.926011203228157
 30
0.0
 11
31.146064609405549
 21
67.449445738592772
 31
0.0
 12
44.744171147941039
 22
68.794444026784149
 32
0.0
 13
44.744171147941039
 23
68.794444026784149
 33
0.0
210
0.0
220
0.0
230
1.0
  0
SOLID
  5
FFA
  8
DRG
  6
CONTINUOUS
 62
     7
 10
99.756459063403184
 20
68.926011203228157
 30
0.0
 11
87.157704446439652
 21
67.449445738592942
 31
0.0
 12
100.7558109849752
 22
68.794444026784163
 32
0.0
 13
100.7558109849752
 23
68.794444026784163
 33
0.0
210
0.0
220
0.0
230
1.0
  0
SOLID
  5
FFB
  8
DRG
  6
CONTINUOUS
 62
     7
 10
115.07450620591371
 20
69.189100861715076
 30
0.0
 11
101.7551629065473
 21
68.926011203227617
 31
0.0
 12
114.3539038014368
 22
67.449423653443588
 32
0.0
 13
114.3539038014368
 23
67.449423653443588
 33
0.0
210
0.0
220
0.0
230
1.0
  0
SOLID
  5
FFC
  8
DRG
  6
CONTINUOUS
 62
     7
 10
59.062866368879583
 20
69.189100861715076
 30
0.0
 11
45.743523069513166
 21
68.926011203227603
 31
0.0
 12
58.342263964402669
 22
67.449423653443588
 32
0.0
 13
58.342263964402669
 23
67.449423653443588
 33
0.0
210
0.0
220
0.0
230
1.0
  0
SOLID
  5
FFD
  8
DRG
  6
CONTINUOUS
 62
     7
 10
30.425464704124099
 20
69.189127802967917
 30
0.0
 11
31.146064609405549
 21
67.449445738592772
 31
0.0
 12
43.744819226368982
 22
68.926011203228157
 32
0.0
 13
43.744819226368982
 23
68.926011203228157
 33
0.0
210
0.0
220
0.0
230
1.0
  0
SOLID
  5
FFE
  8
DRG
  6
CONTINUOUS
 62
     7
 10
86.437104541158206
 20
69.18912780296813
 30
0.0
 11
87.157704446439652
 21
67.449445738592942
 31
0.0
 12
99.756459063403184
 22
68.926011203228157
 32
0.0
 13
99.756459063403184
 23
68.926011203228157
 33
0.0
210
0.0
220
0.0
230
1.0
  0
SOLID
  5
FFF
  8
DRG
  6
CONTINUOUS
 62
     7
 10
46.674770809137378
 20
69.311746646908944
 30
0.0
 11
45.743523069513166
 21
68.926011203227603
 31
0.0
 12
59.062866368879583
 22
69.189100861715076
 32
0.0
 13
59.062866368879583
 23
69.189100861715076
 33
0.0
210
0.0
220
0.0
230
1.0
  0
SOLID
  5
1000
  8
DRG
  6
CONTINUOUS
 62
     7
 10
102.6864106461715
 20
69.311746646908958
 30
0.0
 11
101.7551629065473
 21
68.926011203227617
 31
0.0
 12
115.07450620591371
 22
69.189100861715076
 32
0.0
 13
115.07450620591371
 23
69.189100861715076
 33
0.0
210
0.0
220
0.0
230
1.0
  0
SOLID
  5
1001
  8
DRG
  6
CONTINUOUS
 62
     7
 10
42.813571486744991
 20
69.311746646909995
 30
0.0
 11
30.425464704124099
 21
69.189127802967917
 31
0.0
 12
43.744819226368982
 22
68.926011203228157
 32
0.0
 13
43.744819226368982
 23
68.926011203228157
 33
0.0
210
0.0
220
0.0
230
1.0
  0
SOLID
  5
1002
  8
DRG
  6
CONTINUOUS
 62
     7
 10
98.825211323779172
 20
69.311746646910009
 30
0.0
 11
86.437104541158206
 21
69.18912780296813
 31
0.0
 12
99.756459063403184
 22
68.926011203228157
 32
0.0
 13
99.756459063403184
 23
68.926011203228157
 33
0.0
  0
SOLID
  5
1003
  8
DRG
  6
CONTINUOUS
 62
     7
 10
80.482556033578916
 20
69.876055965300111
 30
0.0
 11
67.331191210151701
 21
68.89733173546756
 31
0.0
 12
84.501142256151084
 22
62.072518178885289
 32
0.0
 13
84.501142256151084
 23
62.072518178885289
 33
0.0
210
0.0
220
0.0
230
1.0
  0
SOLID
  5
1004
  8
DRG
  6
CONTINUOUS
 62
     7
 10
84.501142256151084
 20
62.072518178885289
 30
0.0
 11
83.501142256151255
 21
69.876055965300111
 31
0.0
 12
80.482556033578916
 22
69.876055965300111
 32
0.0
 13
80.482556033578916
 23
69.876055965300111
 33
0.0
210
0.0
220
0.0
230
1.0
  0
SOLID
  5
1005
  8
DRG
  6
CONTINUOUS
 62
     7
 10
47.474451372317922
 20
69.925363124799233
 30
0.0
 11
46.674770809137378
 21
69.311746646908944
 31
0.0
 12
59.062866368879583
 22
69.189100861715076
 32
0.0
 13
59.062866368879583
 23
69.189100861715076
 33
0.0
210
0.0
220
0.0
230
1.0
  0
SOLID
  5
1006
  8
DRG
  6
CONTINUOUS
 62
     7
 10
103.4860912093521
 20
69.925363124799233
 30
0.0
 11
102.6864106461715
 21
69.311746646908958
 31
0.0
 12
115.07450620591371
 22
69.189100861715076
 32
0.0
 13
115.07450620591371
 23
69.189100861715076
 33
0.0
  0
SOLID
  5
1007
  8
DRG
  6
CONTINUOUS
 62
     7
 10
98.025530760598997
 20
69.925363124800725
 30
0.0
 11
86.437104541158206
 21
69.18912780296813
 31
0.0
 12
98.825211323779172
 22
69.311746646910009
 32
0.0
 13
98.825211323779172
 23
69.311746646910009
 33
0.0
210
0.0
220
0.0
230
1.0
  0
SOLID
  5
1008
  8
DRG
  6
CONTINUOUS
 62
     7
 10
42.01389092356478
 20
69.925363124800725
 30
0.0
 11
30.425464704124099
 21
69.189127802967917
 31
0.0
 12
42.813571486744991
 22
69.311746646909995
 32
0.0
 13
42.813571486744991
 23
69.311746646909995
 33
0.0
210
0.0
220
0.0
230
1.0
  0
SOLID
  5
1009
  8
DRG
  6
CONTINUOUS
 62
     7
 10
84.015250681967487
 20
70.00375669518948
 30
0.0
 11
83.501142256151255
 21
69.876055965300111
 31
0.0
 12
84.501142256151084
 22
62.072518178885289
 32
0.0
 13
84.501142256151084
 23
62.072518178885289
 33
0.0
  0
SOLID
  5
100A
  8
DRG
  6
CONTINUOUS
 62
     7
 10
79.555505050454073
 20
70.02288641641465
 30
0.0
 11
67.331191210151701
 21
68.89733173546756
 31
0.0
 12
80.482556033578916
 22
69.876055965300111
 32
0.0
 13
80.482556033578916
 23
69.876055965300111
 33
0.0
210
0.0
220
0.0
230
1.0
  0
SOLID
  5
100B
  8
DRG
  6
CONTINUOUS
 62
     7
 10
84.501142256151084
 20
70.214764581409185
 30
0.0
 11
84.015250681967487
 21
70.00375669518948
 31
0.0
 12
84.501142256151084
 22
62.072518178885289
 32
0.0
 13
84.501142256151084
 23
62.072518178885289
 33
0.0
210
0.0
220
0.0
230
1.0
  0
SOLID
  5
100C
  8
DRG
  6
CONTINUOUS
 62
     7
 10
78.719200276701514
 20
70.449004982175254
 30
0.0
 11
67.331191210151701
 21
68.89733173546756
 31
0.0
 12
79.555505050454073
 22
70.02288641641465
 32
0.0
 13
79.555505050454073
 23
70.02288641641465
 33
0.0
210
0.0
220
0.0
230
1.0
  0
SOLID
  5
100D
  8
DRG
  6
CONTINUOUS
 62
     7
 10
48.088067850208638
 20
70.725043687979436
 30
0.0
 11
47.474451372317922
 21
69.925363124799233
 31
0.0
 12
59.062866368879583
 22
69.189100861715076
 32
0.0
 13
59.062866368879583
 23
69.189100861715076
 33
0.0
210
0.0
220
0.0
230
1.0
  0
SOLID
  5
100E
  8
DRG
  6
CONTINUOUS
 62
     7
 10
104.0997076872428
 20
70.725043687979451
 30
0.0
 11
103.4860912093521
 21
69.925363124799233
 31
0.0
 12
115.07450620591371
 22
69.189100861715076
 32
0.0
 13
115.07450620591371
 23
69.189100861715076
 33
0.0
210
0.0
220
0.0
230
1.0
  0
SOLID
  5
100F
  8
DRG
  6
CONTINUOUS
 62
     7
 10
97.411914282708679
 20
70.725043687981255
 30
0.0
 11
86.437104541158206
 21
69.18912780296813
 31
0.0
 12
98.025530760598997
 22
69.925363124800725
 32
0.0
 13
98.025530760598997
 23
69.925363124800725
 33
0.0
210
0.0
220
0.0
230
1.0
  0
SOLID
  5
1010
  8
DRG
  6
CONTINUOUS
 62
     7
 10
41.400274445674498
 20
70.725043687981255
 30
0.0
 11
30.425464704124099
 21
69.189127802967917
 31
0.0
 12
42.01389092356478
 22
69.925363124800725
 32
0.0
 13
42.01389092356478
 23
69.925363124800725
 33
0.0
210
0.0
220
0.0
230
1.0
  0
SOLID
  5
1011
  8
DRG
  6
CONTINUOUS
 62
     7
 10
115.5140918658898
 20
71.020086678661926
 30
0.0
 11
104.0997076872428
 21
70.725043687979451
 31
0.0
 12
115.07450620591371
 22
69.189100861715076
 32
0.0
 13
115.07450620591371
 23
69.189100861715076
 33
0.0
210
0.0
220
0.0
230
1.0
  0
SOLID
  5
1012
  8
DRG
  6
CONTINUOUS
 62
     7
 10
59.502452028855693
 20
71.020086678661926
 30
0.0
 11
48.088067850208638
 21
70.725043687979436
 31
0.0
 12
59.062866368879583
 22
69.189100861715076
 32
0.0
 13
59.062866368879583
 23
69.189100861715076
 33
0.0
210
0.0
220
0.0
230
1.0
  0
SOLID
  5
1013
  8
DRG
  6
CONTINUOUS
 62
     7
 10
29.985882812524249
 20
71.020118154984459
 30
0.0
 11
30.425464704124099
 21
69.189127802967917
 31
0.0
 12
41.400274445674498
 22
70.725043687981255
 32
0.0
 13
41.400274445674498
 23
70.725043687981255
 33
0.0
210
0.0
220
0.0
230
1.0
  0
SOLID
  5
1014
  8
DRG
  6
CONTINUOUS
 62
     7
 10
85.997522649558391
 20
71.020118154984715
 30
0.0
 11
86.437104541158206
 21
69.18912780296813
 31
0.0
 12
97.411914282708679
 22
70.725043687981255
 32
0.0
 13
97.411914282708679
 23
70.725043687981255
 33
0.0
210
0.0
220
0.0
230
1.0
  0
SOLID
  5
1015
  8
DRG
  6
CONTINUOUS
 62
     7
 10
78.055505050454087
 20
71.112700208422694
 30
0.0
 11
67.331191210151701
 21
68.89733173546756
 31
0.0
 12
78.719200276701514
 22
70.449004982175254
 32
0.0
 13
78.719200276701514
 23
70.449004982175254
 33
0.0
210
0.0
220
0.0
230
1.0
  0
SOLID
  5
1016
  8
DRG
  6
CONTINUOUS
 62
     7
 10
48.473803293890491
 20
71.656291427603421
 30
0.0
 11
48.088067850208638
 21
70.725043687979436
 31
0.0
 12
59.502452028855693
 22
71.020086678661926
 32
0.0
 13
59.502452028855693
 23
71.020086678661926
 33
0.0
210
0.0
220
0.0
230
1.0
  0
SOLID
  5
1017
  8
DRG
  6
CONTINUOUS
 62
     7
 10
104.48544313092459
 20
71.656291427603435
 30
0.0
 11
104.0997076872428
 21
70.725043687979451
 31
0.0
 12
115.5140918658898
 22
71.020086678661926
 32
0.0
 13
115.5140918658898
 23
71.020086678661926
 33
0.0
210
0.0
220
0.0
230
1.0
  0
SOLID
  5
1018
  8
DRG
  6
CONTINUOUS
 62
     7
 10
97.026178839027338
 20
71.656291427605453
 30
0.0
 11
85.997522649558391
 21
71.020118154984715
 31
0.0
 12
97.411914282708679
 22
70.725043687981255
 32
0.0
 13
97.411914282708679
 23
70.725043687981255
 33
0.0
210
0.0
220
0.0
230
1.0
  0
SOLID
  5
1019
  8
DRG
  6
CONTINUOUS
 62
     7
 10
41.014539001993157
 20
71.656291427605453
 30
0.0
 11
29.985882812524249
 21
71.020118154984459
 31
0.0
 12
41.400274445674498
 22
70.725043687981255
 32
0.0
 13
41.400274445674498
 23
70.725043687981255
 33
0.0
  0
SOLID
  5
101A
  8
DRG
  6
CONTINUOUS
 62
     7
 10
77.62938648469347
 20
71.949004982175268
 30
0.0
 11
67.331191210151701
 21
68.89733173546756
 31
0.0
 12
78.055505050454087
 22
71.112700208422694
 32
0.0
 13
78.055505050454087
 23
71.112700208422694
 33
0.0
210
0.0
220
0.0
230
1.0
  0
SOLID
  5
101B
  8
DRG
  6
CONTINUOUS
 62
     7
 10
48.605370470334492
 20
72.655643349175492
 30
0.0
 11
48.473803293890491
 21
71.656291427603421
 31
0.0
 12
59.502452028855693
 22
71.020086678661926
 32
0.0
 13
59.502452028855693
 23
71.020086678661926
 33
0.0
210
0.0
220
0.0
230
1.0
  0
SOLID
  5
101C
  8
DRG
  6
CONTINUOUS
 62
     7
 10
104.6170103073686
 20
72.655643349175506
 30
0.0
 11
104.48544313092459
 21
71.656291427603435
 31
0.0
 12
115.5140918658898
 22
71.020086678661926
 32
0.0
 13
115.5140918658898
 23
71.020086678661926
 33
0.0
210
0.0
220
0.0
230
1.0
  0
SOLID
  5
101D
  8
DRG
  6
CONTINUOUS
 62
     7
 10
40.882971825549703
 20
72.655643349177566
 30
0.0
 11
29.985882812524249
 21
71.020118154984459
 31
0.0
 12
41.014539001993157
 22
71.656291427605453
 32
0.0
 13
41.014539001993157
 23
71.656291427605453
 33
0.0
210
0.0
220
0.0
230
1.0
  0
SOLID
  5
101E
  8
DRG
  6
CONTINUOUS
 62
     7
 10
96.894611662583884
 20
72.655643349177595
 30
0.0
 11
85.997522649558391
 21
71.020118154984715
 31
0.0
 12
97.026178839027338
 22
71.656291427605453
 32
0.0
 13
97.026178839027338
 23
71.656291427605453
 33
0.0
210
0.0
220
0.0
230
1.0
  0
SOLID
  5
101F
  8
DRG
  6
CONTINUOUS
 62
     7
 10
77.482556033578931
 20
72.876055965300111
 30
0.0
 11
67.331191210151701
 21
68.89733173546756
 31
0.0
 12
77.62938648469347
 22
71.949004982175268
 32
0.0
 13
77.62938648469347
 23
71.949004982175268
 33
0.0
210
0.0
220
0.0
230
1.0
  0
SOLID
  5
1020
  8
DRG
  6
CONTINUOUS
 62
     7
 10
115.6618367640986
 20
72.897296325816527
 30
0.0
 11
104.6170103073686
 21
72.655643349175506
 31
0.0
 12
115.5140918658898
 22
71.020086678661926
 32
0.0
 13
115.5140918658898
 23
71.020086678661926
 33
0.0
210
0.0
220
0.0
230
1.0
  0
SOLID
  5
1021
  8
DRG
  6
CONTINUOUS
 62
     7
 10
59.650196927064421
 20
72.897296325816555
 30
0.0
 11
48.605370470334492
 21
72.655643349175492
 31
0.0
 12
59.502452028855693
 22
71.020086678661926
 32
0.0
 13
59.502452028855693
 23
71.020086678661926
 33
0.0
210
0.0
220
0.0
230
1.0
  0
SOLID
  5
1022
  8
DRG
  6
CONTINUOUS
 62
     7
 10
29.838142899665851
 20
72.897331735467191
 30
0.0
 11
29.985882812524249
 21
71.020118154984459
 31
0.0
 12
40.882971825549703
 22
72.655643349177566
 32
0.0
 13
40.882971825549703
 23
72.655643349177566
 33
0.0
  0
SOLID
  5
1023
  8
DRG
  6
CONTINUOUS
 62
     7
 10
85.849782736700035
 20
72.897331735467475
 30
0.0
 11
85.997522649558391
 21
71.020118154984715
 31
0.0
 12
96.894611662583884
 22
72.655643349177595
 32
0.0
 13
96.894611662583884
 23
72.655643349177595
 33
0.0
210
0.0
220
0.0
230
1.0
  0
SOLID
  5
1024
  8
DRG
  6
CONTINUOUS
 62
     7
 10
165.4162645291251
 20
78.311404477182364
 30
0.0
 11
161.3332883364622
 21
62.115696081838678
 31
0.0
 12
171.78072804963571
 22
62.115696081838678
 32
0.0
 13
171.78072804963571
 23
62.115696081838678
 33
0.0
210
0.0
220
0.0
230
1.0
  0
SOLID
  5
1025
  8
DRG
  6
CONTINUOUS
 62
     7
 10
115.9280150750885
 20
78.628250557125298
 30
0.0
 11
104.6170103073686
 21
72.655643349175506
 31
0.0
 12
115.6618367640986
 22
72.897296325816527
 32
0.0
 13
115.6618367640986
 23
72.897296325816527
 33
0.0
210
0.0
220
0.0
230
1.0
  0
SOLID
  5
1026
  8
DRG
  6
CONTINUOUS
 62
     7
 10
59.916375238054371
 20
78.628250557125327
 30
0.0
 11
48.605370470334492
 21
72.655643349175492
 31
0.0
 12
59.650196927064421
 22
72.897296325816555
 32
0.0
 13
59.650196927064421
 23
72.897296325816555
 33
0.0
210
0.0
220
0.0
230
1.0
  0
SOLID
  5
1027
  8
DRG
  6
CONTINUOUS
 62
     7
 10
29.57196678328226
 20
78.628262385817905
 30
0.0
 11
29.838142899665851
 21
72.897331735467191
 31
0.0
 12
40.882971825549703
 22
72.655643349177566
 32
0.0
 13
40.882971825549703
 23
72.655643349177566
 33
0.0
210
0.0
220
0.0
230
1.0
  0
SOLID
  5
1028
  8
DRG
  6
CONTINUOUS
 62
     7
 10
85.583606620316473
 20
78.628262385818132
 30
0.0
 11
85.849782736700035
 21
72.897331735467475
 31
0.0
 12
96.894611662583884
 22
72.655643349177595
 32
0.0
 13
96.894611662583884
 23
72.655643349177595
 33
0.0
210
0.0
220
0.0
230
1.0
  0
SOLID
  5
1029
  8
DRG
  6
CONTINUOUS
 62
     7
 10
48.825355035771203
 20
81.496816718755184
 30
0.0
 11
48.605370470334492
 21
72.655643349175492
 31
0.0
 12
59.916375238054371
 22
78.628250557125327
 32
0.0
 13
59.916375238054371
 23
78.628250557125327
 33
0.0
210
0.0
220
0.0
230
1.0
  0
SOLID
  5
102A
  8
DRG
  6
CONTINUOUS
 62
     7
 10
104.83699487280531
 20
81.496816718755184
 30
0.0
 11
104.6170103073686
 21
72.655643349175506
 31
0.0
 12
115.9280150750885
 22
78.628250557125298
 32
0.0
 13
115.9280150750885
 23
78.628250557125298
 33
0.0
210
0.0
220
0.0
230
1.0
  0
SOLID
  5
102B
  8
DRG
  6
CONTINUOUS
 62
     7
 10
40.662987260112992
 20
81.496816718755866
 30
0.0
 11
29.57196678328226
 21
78.628262385817905
 31
0.0
 12
40.882971825549703
 22
72.655643349177566
 32
0.0
 13
40.882971825549703
 23
72.655643349177566
 33
0.0
210
0.0
220
0.0
230
1.0
  0
SOLID
  5
102C
  8
DRG
  6
CONTINUOUS
 62
     7
 10
96.674627097147194
 20
81.496816718756293
 30
0.0
 11
85.583606620316473
 21
78.628262385818132
 31
0.0
 12
96.894611662583884
 22
72.655643349177595
 32
0.0
 13
96.894611662583884
 23
72.655643349177595
 33
0.0
210
0.0
220
0.0
230
1.0
  0
SOLID
  5
102D
  8
DRG
  6
CONTINUOUS
 62
     7
 10
153.2899770207527
 20
82.583583780839575
 30
0.0
 11
161.3332883364622
 21
62.115696081838678
 31
0.0
 12
165.4162645291251
 22
78.311404477182364
 32
0.0
 13
165.4162645291251
 23
78.311404477182364
 33
0.0
210
0.0
220
0.0
230
1.0
  0
SOLID
  5
102E
  8
DRG
  6
CONTINUOUS
 62
     7
 10
29.57196678328226
 20
84.365371051693273
 30
0.0
 11
29.57196678328226
 21
78.628262385817905
 31
0.0
 12
40.662987260112992
 22
81.496816718755866
 32
0.0
 13
40.662987260112992
 23
81.496816718755866
 33
0.0
210
0.0
220
0.0
230
1.0
  0
SOLID
  5
102F
  8
DRG
  6
CONTINUOUS
 62
     7
 10
85.583606620316473
 20
84.365371051693415
 30
0.0
 11
85.583606620316473
 21
78.628262385818132
 31
0.0
 12
96.674627097147194
 22
81.496816718756293
 32
0.0
 13
96.674627097147194
 23
81.496816718756293
 33
0.0
  0
SOLID
  5
1030
  8
DRG
  6
CONTINUOUS
 62
     7
 10
115.9280150750885
 20
84.365382880385525
 30
0.0
 11
104.83699487280531
 21
81.496816718755184
 31
0.0
 12
115.9280150750885
 22
78.628250557125298
 32
0.0
 13
115.9280150750885
 23
78.628250557125298
 33
0.0
210
0.0
220
0.0
230
1.0
  0
SOLID
  5
1031
  8
DRG
  6
CONTINUOUS
 62
     7
 10
59.916375238054371
 20
84.365382880385553
 30
0.0
 11
48.825355035771203
 21
81.496816718755184
 31
0.0
 12
59.916375238054371
 22
78.628250557125327
 32
0.0
 13
59.916375238054371
 23
78.628250557125327
 33
0.0
210
0.0
220
0.0
230
1.0
  0
SOLID
  5
1032
  8
DRG
  6
CONTINUOUS
 62
     7
 10
18.821661727211438
 20
85.569427875032716
 30
0.0
 11
7.7802673214059723
 21
62.115696081838671
 31
0.0
 12
18.821661727211438
 22
62.115696081838678
 32
0.0
 13
18.821661727211438
 23
62.115696081838678
 33
0.0
  0
SOLID
  5
1033
  8
DRG
  6
CONTINUOUS
 62
     7
 10
130.05101171535759
 20
85.569427875032716
 30
0.0
 11
119.0096173095521
 21
62.115696081838678
 31
0.0
 12
130.05101171535759
 22
62.115696081838671
 32
0.0
 13
130.05101171535759
 23
62.115696081838671
 33
0.0
210
0.0
220
0.0
230
1.0
  0
SOLID
  5
1034
  8
DRG
  6
CONTINUOUS
 62
     7
 10
176.9709164189357
 20
86.855763084496857
 30
0.0
 11
153.2899770207527
 21
82.583583780839575
 31
0.0
 12
165.4162645291251
 22
78.311404477182364
 32
0.0
 13
165.4162645291251
 23
78.311404477182364
 33
0.0
210
0.0
220
0.0
230
1.0
  0
SOLID
  5
1035
  8
DRG
  6
CONTINUOUS
 62
     7
 10
176.9709164189357
 20
86.855763084496857
 30
0.0
 11
165.4162645291251
 21
78.311404477182364
 31
0.0
 12
176.9709164189357
 22
78.31140447718235
 32
0.0
 13
176.9709164189357
 23
78.31140447718235
 33
0.0
210
0.0
220
0.0
230
1.0
  0
SOLID
  5
1036
  8
DRG
  6
CONTINUOUS
 62
     7
 10
165.4162645291251
 20
86.855763084496886
 30
0.0
 11
153.2899770207527
 21
82.583583780839575
 31
0.0
 12
176.9709164189357
 22
86.855763084496857
 32
0.0
 13
176.9709164189357
 23
86.855763084496857
 33
0.0
210
0.0
220
0.0
230
1.0
  0
SOLID
  5
1037
  8
DRG
  6
CONTINUOUS
 62
     7
 10
18.975379483985598
 20
87.13015045116174
 30
0.0
 11
7.7802673214059723
 21
62.115696081838671
 31
0.0
 12
18.821661727211438
 22
85.569427875032716
 32
0.0
 13
18.821661727211438
 23
85.569427875032716
 33
0.0
210
0.0
220
0.0
230
1.0
  0
SOLID
  5
1038
  8
DRG
  6
CONTINUOUS
 62
     7
 10
130.2047294721317
 20
87.130150451161754
 30
0.0
 11
119.0096173095521
 21
62.115696081838678
 31
0.0
 12
130.05101171535759
 22
85.569427875032716
 32
0.0
 13
130.05101171535759
 23
85.569427875032716
 33
0.0
  0
SOLID
  5
1039
  8
DRG
  6
CONTINUOUS
 62
     7
 10
19.43062546712115
 20
88.630895333953447
 30
0.0
 11
7.7802673214059723
 21
62.115696081838671
 31
0.0
 12
18.975379483985598
 22
87.13015045116174
 32
0.0
 13
18.975379483985598
 23
87.13015045116174
 33
0.0
210
0.0
220
0.0
230
1.0
  0
SOLID
  5
103A
  8
DRG
  6
CONTINUOUS
 62
     7
 10
130.6599754552673
 20
88.630895333953447
 30
0.0
 11
119.0096173095521
 21
62.115696081838678
 31
0.0
 12
130.2047294721317
 22
87.130150451161754
 32
0.0
 13
130.2047294721317
 23
87.130150451161754
 33
0.0
210
0.0
220
0.0
230
1.0
  0
SOLID
  5
103B
  8
DRG
  6
CONTINUOUS
 62
     7
 10
29.83814289966584
 20
90.096301702044016
 30
0.0
 11
29.57196678328226
 21
84.365371051693273
 31
0.0
 12
40.662987260112992
 22
81.496816718755866
 32
0.0
 13
40.662987260112992
 23
81.496816718755866
 33
0.0
  0
SOLID
  5
103C
  8
DRG
  6
CONTINUOUS
 62
     7
 10
85.849782736700035
 20
90.096301702044045
 30
0.0
 11
85.583606620316473
 21
84.365371051693415
 31
0.0
 12
96.674627097147194
 22
81.496816718756293
 32
0.0
 13
96.674627097147194
 23
81.496816718756293
 33
0.0
  0
SOLID
  5
103D
  8
DRG
  6
CONTINUOUS
 62
     7
 10
115.6618367640986
 20
90.096337111694325
 30
0.0
 11
104.83699487280531
 21
81.496816718755184
 31
0.0
 12
115.9280150750885
 22
84.365382880385525
 32
0.0
 13
115.9280150750885
 23
84.365382880385525
 33
0.0
210
0.0
220
0.0
230
1.0
  0
SOLID
  5
103E
  8
DRG
  6
CONTINUOUS
 62
     7
 10
59.650196927064421
 20
90.096337111694368
 30
0.0
 11
48.825355035771203
 21
81.496816718755184
 31
0.0
 12
59.916375238054371
 22
84.365382880385553
 32
0.0
 13
59.916375238054371
 23
84.365382880385553
 33
0.0
210
0.0
220
0.0
230
1.0
  0
SOLID
  5
103F
  8
DRG
  6
CONTINUOUS
 62
     7
 10
40.882971825549703
 20
90.337990088334166
 30
0.0
 11
29.83814289966584
 21
90.096301702044016
 31
0.0
 12
40.662987260112992
 22
81.496816718755866
 32
0.0
 13
40.662987260112992
 23
81.496816718755866
 33
0.0
  0
SOLID
  5
1040
  8
DRG
  6
CONTINUOUS
 62
     7
 10
48.605370470334456
 20
90.337990088334735
 30
0.0
 11
48.825355035771203
 21
81.496816718755184
 31
0.0
 12
59.650196927064421
 22
90.096337111694368
 32
0.0
 13
59.650196927064421
 23
90.096337111694368
 33
0.0
210
0.0
220
0.0
230
1.0
  0
SOLID
  5
1041
  8
DRG
  6
CONTINUOUS
 62
     7
 10
104.6170103073686
 20
90.337990088334735
 30
0.0
 11
104.83699487280531
 21
81.496816718755184
 31
0.0
 12
115.6618367640986
 22
90.096337111694325
 32
0.0
 13
115.6618367640986
 23
90.096337111694325
 33
0.0
210
0.0
220
0.0
230
1.0
  0
SOLID
  5
1042
  8
DRG
  6
CONTINUOUS
 62
     7
 10
96.894611662583884
 20
90.337990088335033
 30
0.0
 11
85.849782736700035
 21
90.096301702044045
 31
0.0
 12
96.674627097147194
 22
81.496816718756293
 32
0.0
 13
96.674627097147194
 23
81.496816718756293
 33
0.0
210
0.0
220
0.0
230
1.0
  0
SOLID
  5
1043
  8
DRG
  6
CONTINUOUS
 62
     7
 10
41.014539001993349
 20
91.337342009906294
 30
0.0
 11
29.83814289966584
 21
90.096301702044016
 31
0.0
 12
40.882971825549703
 22
90.337990088334166
 32
0.0
 13
40.882971825549703
 23
90.337990088334166
 33
0.0
  0
SOLID
  5
1044
  8
DRG
  6
CONTINUOUS
 62
     7
 10
48.47380329389069
 20
91.337342009906834
 30
0.0
 11
48.605370470334456
 21
90.337990088334735
 31
0.0
 12
59.650196927064421
 22
90.096337111694368
 32
0.0
 13
59.650196927064421
 23
90.096337111694368
 33
0.0
210
0.0
220
0.0
230
1.0
  0
SOLID
  5
1045
  8
DRG
  6
CONTINUOUS
 62
     7
 10
104.48544313092491
 20
91.337342009906848
 30
0.0
 11
104.6170103073686
 21
90.337990088334735
 31
0.0
 12
115.6618367640986
 22
90.096337111694325
 32
0.0
 13
115.6618367640986
 23
90.096337111694325
 33
0.0
210
0.0
220
0.0
230
1.0
  0
SOLID
  5
1046
  8
DRG
  6
CONTINUOUS
 62
     7
 10
97.026178839027665
 20
91.337342009907147
 30
0.0
 11
85.849782736700035
 21
90.096301702044045
 31
0.0
 12
96.894611662583884
 22
90.337990088335033
 32
0.0
 13
96.894611662583884
 23
90.337990088335033
 33
0.0
210
0.0
220
0.0
230
1.0
  0
SOLID
  5
1047
  8
DRG
  6
CONTINUOUS
 62
     7
 10
29.985882812524231
 20
91.973515282526762
 30
0.0
 11
29.83814289966584
 21
90.096301702044016
 31
0.0
 12
41.014539001993349
 22
91.337342009906294
 32
0.0
 13
41.014539001993349
 23
91.337342009906294
 33
0.0
  0
SOLID
  5
1048
  8
DRG
  6
CONTINUOUS
 62
     7
 10
85.99752264955842
 20
91.973515282526762
 30
0.0
 11
85.849782736700035
 21
90.096301702044045
 31
0.0
 12
97.026178839027665
 22
91.337342009907147
 32
0.0
 13
97.026178839027665
 23
91.337342009907147
 33
0.0
  0
SOLID
  5
1049
  8
DRG
  6
CONTINUOUS
 62
     7
 10
115.5140918658899
 20
91.973546758849025
 30
0.0
 11
104.48544313092491
 21
91.337342009906848
 31
0.0
 12
115.6618367640986
 22
90.096337111694325
 32
0.0
 13
115.6618367640986
 23
90.096337111694325
 33
0.0
210
0.0
220
0.0
230
1.0
  0
SOLID
  5
104A
  8
DRG
  6
CONTINUOUS
 62
     7
 10
59.50245202885575
 20
91.973546758849054
 30
0.0
 11
48.47380329389069
 21
91.337342009906834
 31
0.0
 12
59.650196927064421
 22
90.096337111694368
 32
0.0
 13
59.650196927064421
 23
90.096337111694368
 33
0.0
210
0.0
220
0.0
230
1.0
  0
SOLID
  5
104B
  8
DRG
  6
CONTINUOUS
 62
     7
 10
41.400274445674881
 20
92.26858974953042
 30
0.0
 11
29.985882812524231
 21
91.973515282526762
 31
0.0
 12
41.014539001993349
 22
91.337342009906294
 32
0.0
 13
41.014539001993349
 23
91.337342009906294
 33
0.0
210
0.0
220
0.0
230
1.0
  0
SOLID
  5
104C
  8
DRG
  6
CONTINUOUS
 62
     7
 10
48.088067850209029
 20
92.268589749530904
 30
0.0
 11
48.47380329389069
 21
91.337342009906834
 31
0.0
 12
59.50245202885575
 22
91.973546758849054
 32
0.0
 13
59.50245202885575
 23
91.973546758849054
 33
0.0
210
0.0
220
0.0
230
1.0
  0
SOLID
  5
104D
  8
DRG
  6
CONTINUOUS
 62
     7
 10
104.0997076872434
 20
92.268589749530975
 30
0.0
 11
104.48544313092491
 21
91.337342009906848
 31
0.0
 12
115.5140918658899
 22
91.973546758849025
 32
0.0
 13
115.5140918658899
 23
91.973546758849025
 33
0.0
210
0.0
220
0.0
230
1.0
  0
SOLID
  5
104E
  8
DRG
  6
CONTINUOUS
 62
     7
 10
97.411914282709276
 20
92.268589749531216
 30
0.0
 11
85.99752264955842
 21
91.973515282526762
 31
0.0
 12
97.026178839027665
 22
91.337342009907147
 32
0.0
 13
97.026178839027665
 23
91.337342009907147
 33
0.0
210
0.0
220
0.0
230
1.0
  0
SOLID
  5
104F
  8
DRG
  6
CONTINUOUS
 62
     7
 10
42.013890923565327
 20
93.068270312710808
 30
0.0
 11
29.985882812524231
 21
91.973515282526762
 31
0.0
 12
41.400274445674881
 22
92.26858974953042
 32
0.0
 13
41.400274445674881
 23
92.26858974953042
 33
0.0
210
0.0
220
0.0
230
1.0
  0
SOLID
  5
1050
  8
DRG
  6
CONTINUOUS
 62
     7
 10
47.474451372318462
 20
93.068270312711235
 30
0.0
 11
48.088067850209029
 21
92.268589749530904
 31
0.0
 12
59.50245202885575
 22
91.973546758849054
 32
0.0
 13
59.50245202885575
 23
91.973546758849054
 33
0.0
210
0.0
220
0.0
230
1.0
  0
SOLID
  5
1051
  8
DRG
  6
CONTINUOUS
 62
     7
 10
103.48609120935291
 20
93.068270312711377
 30
0.0
 11
104.0997076872434
 21
92.268589749530975
 31
0.0
 12
115.5140918658899
 22
91.973546758849025
 32
0.0
 13
115.5140918658899
 23
91.973546758849025
 33
0.0
210
0.0
220
0.0
230
1.0
  0
SOLID
  5
1052
  8
DRG
  6
CONTINUOUS
 62
     7
 10
98.025530760599821
 20
93.068270312711576
 30
0.0
 11
85.99752264955842
 21
91.973515282526762
 31
0.0
 12
97.411914282709276
 22
92.268589749531216
 32
0.0
 13
97.411914282709276
 23
92.268589749531216
 33
0.0
210
0.0
220
0.0
230
1.0
  0
SOLID
  5
1053
  8
DRG
  6
CONTINUOUS
 62
     7
 10
42.813571486745637
 20
93.681886790601396
 30
0.0
 11
29.985882812524231
 21
91.973515282526762
 31
0.0
 12
42.013890923565327
 22
93.068270312710808
 32
0.0
 13
42.013890923565327
 23
93.068270312710808
 33
0.0
  0
SOLID
  5
1054
  8
DRG
  6
CONTINUOUS
 62
     7
 10
46.674770809138039
 20
93.681886790601681
 30
0.0
 11
47.474451372318462
 21
93.068270312711235
 31
0.0
 12
59.50245202885575
 22
91.973546758849054
 32
0.0
 13
59.50245202885575
 23
91.973546758849054
 33
0.0
210
0.0
220
0.0
230
1.0
  0
SOLID
  5
1055
  8
DRG
  6
CONTINUOUS
 62
     7
 10
102.6864106461726
 20
93.681886790601908
 30
0.0
 11
103.48609120935291
 21
93.068270312711377
 31
0.0
 12
115.5140918658899
 22
91.973546758849025
 32
0.0
 13
115.5140918658899
 23
91.973546758849025
 33
0.0
210
0.0
220
0.0
230
1.0
  0
SOLID
  5
1056
  8
DRG
  6
CONTINUOUS
 62
     7
 10
98.825211323780209
 20
93.68188679060205
 30
0.0
 11
85.99752264955842
 21
91.973515282526762
 31
0.0
 12
98.025530760599821
 22
93.068270312711576
 32
0.0
 13
98.025530760599821
 23
93.068270312711576
 33
0.0
210
0.0
220
0.0
230
1.0
  0
SOLID
  5
1057
  8
DRG
  6
CONTINUOUS
 62
     7
 10
86.437104541158234
 20
93.804505634543304
 30
0.0
 11
85.99752264955842
 21
91.973515282526762
 31
0.0
 12
98.825211323780209
 22
93.68188679060205
 32
0.0
 13
98.825211323780209
 23
93.68188679060205
 33
0.0
210
0.0
220
0.0
230
1.0
  0
SOLID
  5
1058
  8
DRG
  6
CONTINUOUS
 62
     7
 10
30.425464704124071
 20
93.804505634543304
 30
0.0
 11
29.985882812524231
 21
91.973515282526762
 31
0.0
 12
42.813571486745637
 22
93.681886790601396
 32
0.0
 13
42.813571486745637
 23
93.681886790601396
 33
0.0
210
0.0
220
0.0
230
1.0
  0
SOLID
  5
1059
  8
DRG
  6
CONTINUOUS
 62
     7
 10
115.07450620591381
 20
93.804532575795946
 30
0.0
 11
102.6864106461726
 21
93.681886790601908
 31
0.0
 12
115.5140918658899
 22
91.973546758849025
 32
0.0
 13
115.5140918658899
 23
91.973546758849025
 33
0.0
210
0.0
220
0.0
230
1.0
  0
SOLID
  5
105A
  8
DRG
  6
CONTINUOUS
 62
     7
 10
59.062866368879661
 20
93.80453257579596
 30
0.0
 11
46.674770809138039
 21
93.681886790601681
 31
0.0
 12
59.50245202885575
 22
91.973546758849054
 32
0.0
 13
59.50245202885575
 23
91.973546758849054
 33
0.0
210
0.0
220
0.0
230
1.0
  0
SOLID
  5
105B
  8
DRG
  6
CONTINUOUS
 62
     7
 10
43.744819226369721
 20
94.06762223428305
 30
0.0
 11
30.425464704124071
 21
93.804505634543304
 31
0.0
 12
42.813571486745637
 22
93.681886790601396
 32
0.0
 13
42.813571486745637
 23
93.681886790601396
 33
0.0
210
0.0
220
0.0
230
1.0
  0
SOLID
  5
105C
  8
DRG
  6
CONTINUOUS
 62
     7
 10
45.74352306951392
 20
94.067622234283206
 30
0.0
 11
46.674770809138039
 21
93.681886790601681
 31
0.0
 12
59.062866368879661
 22
93.80453257579596
 32
0.0
 13
59.062866368879661
 23
93.80453257579596
 33
0.0
210
0.0
220
0.0
230
1.0
  0
SOLID
  5
105D
  8
DRG
  6
CONTINUOUS
 62
     7
 10
101.75516290654851
 20
94.067622234283533
 30
0.0
 11
102.6864106461726
 21
93.681886790601908
 31
0.0
 12
115.07450620591381
 22
93.804532575795946
 32
0.0
 13
115.07450620591381
 23
93.804532575795946
 33
0.0
210
0.0
220
0.0
230
1.0
  0
SOLID
  5
105E
  8
DRG
  6
CONTINUOUS
 62
     7
 10
99.756459063404321
 20
94.067622234283604
 30
0.0
 11
86.437104541158234
 21
93.804505634543304
 31
0.0
 12
98.825211323780209
 22
93.68188679060205
 32
0.0
 13
98.825211323780209
 23
93.68188679060205
 33
0.0
210
0.0
220
0.0
230
1.0
  0
SOLID
  5
105F
  8
DRG
  6
CONTINUOUS
 62
     7
 10
44.744171147941813
 20
94.199189410726845
 30
0.0
 11
30.425464704124071
 21
93.804505634543304
 31
0.0
 12
43.744819226369721
 22
94.06762223428305
 32
0.0
 13
43.744819226369721
 23
94.06762223428305
 33
0.0
210
0.0
220
0.0
230
1.0
  0
SOLID
  5
1060
  8
DRG
  6
CONTINUOUS
 62
     7
 10
44.744171147941813
 20
94.199189410726845
 30
0.0
 11
45.74352306951392
 21
94.067622234283206
 31
0.0
 12
59.062866368879661
 22
93.80453257579596
 32
0.0
 13
59.062866368879661
 23
93.80453257579596
 33
0.0
  0
SOLID
  5
1061
  8
DRG
  6
CONTINUOUS
 62
     7
 10
100.75581098497641
 20
94.199189410727286
 30
0.0
 11
86.437104541158234
 21
93.804505634543304
 31
0.0
 12
99.756459063404321
 22
94.067622234283604
 32
0.0
 13
99.756459063404321
 23
94.067622234283604
 33
0.0
210
0.0
220
0.0
230
1.0
  0
SOLID
  5
1062
  8
DRG
  6
CONTINUOUS
 62
     7
 10
100.75581098497641
 20
94.199189410727286
 30
0.0
 11
101.75516290654851
 21
94.067622234283533
 31
0.0
 12
115.07450620591381
 22
93.804532575795946
 32
0.0
 13
115.07450620591381
 23
93.804532575795946
 33
0.0
210
0.0
220
0.0
230
1.0
  0
SOLID
  5
1063
  8
DRG
  6
CONTINUOUS
 62
     7
 10
77.482556033578931
 20
94.593352860836134
 30
0.0
 11
67.331191210151701
 21
68.89733173546756
 31
0.0
 12
77.482556033578931
 22
72.876055965300111
 32
0.0
 13
77.482556033578931
 23
72.876055965300111
 33
0.0
210
0.0
220
0.0
230
1.0
  0
SOLID
  5
1064
  8
DRG
  6
CONTINUOUS
 62
     7
 10
67.331191210151687
 20
94.593352860836134
 30
0.0
 11
77.482556033578931
 21
94.593352860836134
 31
0.0
 12
84.553623006881026
 22
94.593352860836134
 32
0.0
 13
84.553623006881026
 23
94.593352860836134
 33
0.0
210
0.0
220
0.0
230
1.0
  0
SOLID
  5
1065
  8
DRG
  6
CONTINUOUS
 62
     7
 10
67.331191210151687
 20
94.593352860836134
 30
0.0
 11
67.331191210151701
 21
68.89733173546756
 31
0.0
 12
77.482556033578931
 22
94.593352860836134
 32
0.0
 13
77.482556033578931
 23
94.593352860836134
 33
0.0
210
0.0
220
0.0
230
1.0
  0
SOLID
  5
1066
  8
DRG
  6
CONTINUOUS
 62
     7
 10
31.14606460940551
 20
95.544187698918478
 30
0.0
 11
30.425464704124071
 21
93.804505634543304
 31
0.0
 12
44.744171147941813
 22
94.199189410726845
 32
0.0
 13
44.744171147941813
 23
94.199189410726845
 33
0.0
210
0.0
220
0.0
230
1.0
  0
SOLID
  5
1067
  8
DRG
  6
CONTINUOUS
 62
     7
 10
87.157704446439695
 20
95.544187698918478
 30
0.0
 11
86.437104541158234
 21
93.804505634543304
 31
0.0
 12
100.75581098497641
 22
94.199189410727286
 32
0.0
 13
100.75581098497641
 23
94.199189410727286
 33
0.0
  0
SOLID
  5
1068
  8
DRG
  6
CONTINUOUS
 62
     7
 10
114.3539038014369
 20
95.544209784067476
 30
0.0
 11
87.157704446439695
 21
95.544187698918478
 31
0.0
 12
100.75581098497641
 22
94.199189410727286
 32
0.0
 13
100.75581098497641
 23
94.199189410727286
 33
0.0
  0
SOLID
  5
1069
  8
DRG
  6
CONTINUOUS
 62
     7
 10
114.3539038014369
 20
95.544209784067476
 30
0.0
 11
100.75581098497641
 21
94.199189410727286
 31
0.0
 12
115.07450620591381
 22
93.804532575795946
 32
0.0
 13
115.07450620591381
 23
93.804532575795946
 33
0.0
210
0.0
220
0.0
230
1.0
  0
SOLID
  5
106A
  8
DRG
  6
CONTINUOUS
 62
     7
 10
58.342263964402783
 20
95.544209784067505
 30
0.0
 11
31.14606460940551
 21
95.544187698918478
 31
0.0
 12
44.744171147941813
 22
94.199189410726845
 32
0.0
 13
44.744171147941813
 23
94.199189410726845
 33
0.0
210
0.0
220
0.0
230
1.0
  0
SOLID
  5
106B
  8
DRG
  6
CONTINUOUS
 62
     7
 10
58.342263964402783
 20
95.544209784067505
 30
0.0
 11
44.744171147941813
 21
94.199189410726845
 31
0.0
 12
59.062866368879661
 22
93.80453257579596
 32
0.0
 13
59.062866368879661
 23
93.80453257579596
 33
0.0
210
0.0
220
0.0
230
1.0
  0
SOLID
  5
106C
  8
DRG
  6
CONTINUOUS
 62
     7
 10
32.129938967166559
 20
97.149724729553569
 30
0.0
 11
31.14606460940551
 21
95.544187698918478
 31
0.0
 12
58.342263964402783
 22
95.544209784067505
 32
0.0
 13
58.342263964402783
 23
95.544209784067505
 33
0.0
210
0.0
220
0.0
230
1.0
  0
SOLID
  5
106D
  8
DRG
  6
CONTINUOUS
 62
     7
 10
88.141578804200734
 20
97.149724729553569
 30
0.0
 11
87.157704446439695
 21
95.544187698918478
 31
0.0
 12
114.3539038014369
 22
95.544209784067476
 32
0.0
 13
114.3539038014369
 23
95.544209784067476
 33
0.0
210
0.0
220
0.0
230
1.0
  0
SOLID
  5
106E
  8
DRG
  6
CONTINUOUS
 62
     7
 10
113.37002820867269
 20
97.149741917747846
 30
0.0
 11
88.141578804200734
 21
97.149724729553569
 31
0.0
 12
114.3539038014369
 22
95.544209784067476
 32
0.0
 13
114.3539038014369
 23
95.544209784067476
 33
0.0
  0
SOLID
  5
106F
  8
DRG
  6
CONTINUOUS
 62
     7
 10
57.358388371638569
 20
97.14974191774786
 30
0.0
 11
32.129938967166559
 21
97.149724729553569
 31
0.0
 12
58.342263964402783
 22
95.544209784067505
 32
0.0
 13
58.342263964402783
 23
95.544209784067505
 33
0.0
210
0.0
220
0.0
230
1.0
  0
SOLID
  5
1070
  8
DRG
  6
CONTINUOUS
 62
     7
 10
130.05101171535759
 20
97.915857504065855
 30
0.0
 11
138.05101171535759
 21
93.569427875032716
 31
0.0
 12
139.4206293992797
 22
93.56942787503273
 32
0.0
 13
139.4206293992797
 23
93.56942787503273
 33
0.0
210
0.0
220
0.0
230
1.0
  0
SOLID
  5
1071
  8
DRG
  6
CONTINUOUS
 62
     7
 10
130.05101171535759
 20
97.915857504065855
 30
0.0
 11
136.49028913922859
 21
93.415710118258545
 31
0.0
 12
138.05101171535759
 22
93.569427875032716
 32
0.0
 13
138.05101171535759
 23
93.569427875032716
 33
0.0
  0
SOLID
  5
1072
  8
DRG
  6
CONTINUOUS
 62
     7
 10
130.05101171535759
 20
97.915857504065855
 30
0.0
 11
134.9895442564368
 21
92.960464135123019
 31
0.0
 12
136.49028913922859
 22
93.415710118258545
 32
0.0
 13
136.49028913922859
 23
93.415710118258545
 33
0.0
210
0.0
220
0.0
230
1.0
  0
SOLID
  5
1073
  8
DRG
  6
CONTINUOUS
 62
     7
 10
130.05101171535759
 20
97.915857504065855
 30
0.0
 11
133.60644985120081
 21
92.221184773453075
 31
0.0
 12
134.9895442564368
 22
92.960464135123019
 32
0.0
 13
134.9895442564368
 23
92.960464135123019
 33
0.0
210
0.0
220
0.0
230
1.0
  0
SOLID
  5
1074
  8
DRG
  6
CONTINUOUS
 62
     7
 10
130.05101171535759
 20
97.915857504065855
 30
0.0
 11
132.39415746586519
 21
91.226282124525085
 31
0.0
 12
133.60644985120081
 22
92.221184773453075
 32
0.0
 13
133.60644985120081
 23
92.221184773453075
 33
0.0
210
0.0
220
0.0
230
1.0
  0
SOLID
  5
1075
  8
DRG
  6
CONTINUOUS
 62
     7
 10
130.05101171535759
 20
97.915857504065855
 30
0.0
 11
131.3992548169372
 21
90.01398973918954
 31
0.0
 12
132.39415746586519
 22
91.226282124525085
 32
0.0
 13
132.39415746586519
 23
91.226282124525085
 33
0.0
210
0.0
220
0.0
230
1.0
  0
SOLID
  5
1076
  8
DRG
  6
CONTINUOUS
 62
     7
 10
130.05101171535759
 20
97.915857504065855
 30
0.0
 11
130.6599754552673
 21
88.630895333953447
 31
0.0
 12
131.3992548169372
 22
90.01398973918954
 32
0.0
 13
131.3992548169372
 23
90.01398973918954
 33
0.0
210
0.0
220
0.0
230
1.0
  0
SOLID
  5
1077
  8
DRG
  6
CONTINUOUS
 62
     7
 10
130.05101171535759
 20
97.915857504065855
 30
0.0
 11
119.0096173095521
 21
62.115696081838678
 31
0.0
 12
130.6599754552673
 22
88.630895333953447
 32
0.0
 13
130.6599754552673
 23
88.630895333953447
 33
0.0
210
0.0
220
0.0
230
1.0
  0
SOLID
  5
1078
  8
DRG
  6
CONTINUOUS
 62
     7
 10
18.821661727211438
 20
97.915857504065912
 30
0.0
 11
26.821661727211438
 21
93.569427875032716
 31
0.0
 12
28.191279411133561
 22
93.56942787503273
 32
0.0
 13
28.191279411133561
 23
93.56942787503273
 33
0.0
  0
SOLID
  5
1079
  8
DRG
  6
CONTINUOUS
 62
     7
 10
18.821661727211438
 20
97.915857504065912
 30
0.0
 11
25.260939151082422
 21
93.415710118258545
 31
0.0
 12
26.821661727211438
 22
93.569427875032716
 32
0.0
 13
26.821661727211438
 23
93.569427875032716
 33
0.0
210
0.0
220
0.0
230
1.0
  0
SOLID
  5
107A
  8
DRG
  6
CONTINUOUS
 62
     7
 10
18.821661727211438
 20
97.915857504065912
 30
0.0
 11
23.760194268290729
 21
92.960464135123004
 31
0.0
 12
25.260939151082422
 22
93.415710118258545
 32
0.0
 13
25.260939151082422
 23
93.415710118258545
 33
0.0
210
0.0
220
0.0
230
1.0
  0
SOLID
  5
107B
  8
DRG
  6
CONTINUOUS
 62
     7
 10
18.821661727211438
 20
97.915857504065912
 30
0.0
 11
22.377099863054632
 21
92.221184773453075
 31
0.0
 12
23.760194268290729
 22
92.960464135123004
 32
0.0
 13
23.760194268290729
 23
92.960464135123004
 33
0.0
  0
SOLID
  5
107C
  8
DRG
  6
CONTINUOUS
 62
     7
 10
18.821661727211438
 20
97.915857504065912
 30
0.0
 11
21.164807477719069
 21
91.226282124525085
 31
0.0
 12
22.377099863054632
 22
92.221184773453075
 32
0.0
 13
22.377099863054632
 23
92.221184773453075
 33
0.0
210
0.0
220
0.0
230
1.0
  0
SOLID
  5
107D
  8
DRG
  6
CONTINUOUS
 62
     7
 10
18.821661727211438
 20
97.915857504065912
 30
0.0
 11
20.169904828791079
 21
90.013989739189526
 31
0.0
 12
21.164807477719069
 22
91.226282124525085
 32
0.0
 13
21.164807477719069
 23
91.226282124525085
 33
0.0
210
0.0
220
0.0
230
1.0
  0
SOLID
  5
107E
  8
DRG
  6
CONTINUOUS
 62
     7
 10
18.821661727211438
 20
97.915857504065912
 30
0.0
 11
19.43062546712115
 21
88.630895333953447
 31
0.0
 12
20.169904828791079
 22
90.013989739189526
 32
0.0
 13
20.169904828791079
 23
90.013989739189526
 33
0.0
210
0.0
220
0.0
230
1.0
  0
SOLID
  5
107F
  8
DRG
  6
CONTINUOUS
 62
     7
 10
18.821661727211438
 20
97.915857504065912
 30
0.0
 11
7.7802673214059723
 21
62.115696081838671
 31
0.0
 12
19.43062546712115
 22
88.630895333953447
 32
0.0
 13
19.43062546712115
 23
88.630895333953447
 33
0.0
210
0.0
220
0.0
230
1.0
  0
SOLID
  5
1080
  8
DRG
  6
CONTINUOUS
 62
     7
 10
89.364501362461553
 20
98.581583076282442
 30
0.0
 11
88.141578804200734
 21
97.149724729553569
 31
0.0
 12
113.37002820867269
 22
97.149741917747846
 32
0.0
 13
113.37002820867269
 23
97.149741917747846
 33
0.0
210
0.0
220
0.0
230
1.0
  0
SOLID
  5
1081
  8
DRG
  6
CONTINUOUS
 62
     7
 10
33.352861525427372
 20
98.581583076282442
 30
0.0
 11
32.129938967166559
 21
97.149724729553569
 31
0.0
 12
57.358388371638569
 22
97.14974191774786
 32
0.0
 13
57.358388371638569
 23
97.14974191774786
 33
0.0
210
0.0
220
0.0
230
1.0
  0
SOLID
  5
1082
  8
DRG
  6
CONTINUOUS
 62
     7
 10
112.14710561917811
 20
98.581595595475122
 30
0.0
 11
89.364501362461553
 21
98.581583076282442
 31
0.0
 12
113.37002820867269
 22
97.149741917747846
 32
0.0
 13
113.37002820867269
 23
97.149741917747846
 33
0.0
  0
SOLID
  5
1083
  8
DRG
  6
CONTINUOUS
 62
     7
 10
56.135465782143967
 20
98.581595595475136
 30
0.0
 11
33.352861525427372
 21
98.581583076282442
 31
0.0
 12
57.358388371638569
 22
97.14974191774786
 32
0.0
 13
57.358388371638569
 23
97.14974191774786
 33
0.0
  0
SOLID
  5
1084
  8
DRG
  6
CONTINUOUS
 62
     7
 10
131.22850538356451
 20
99.255984787272112
 30
0.0
 11
130.05101171535759
 21
97.915857504065855
 31
0.0
 12
139.4206293992797
 22
93.56942787503273
 32
0.0
 13
139.4206293992797
 23
93.56942787503273
 33
0.0
210
0.0
220
0.0
230
1.0
  0
SOLID
  5
1085
  8
DRG
  6
CONTINUOUS
 62
     7
 10
19.999155395418381
 20
99.255984787272155
 30
0.0
 11
18.821661727211438
 21
97.915857504065912
 31
0.0
 12
28.191279411133561
 22
93.56942787503273
 32
0.0
 13
28.191279411133561
 23
93.56942787503273
 33
0.0
210
0.0
220
0.0
230
1.0
  0
SOLID
  5
1086
  8
DRG
  6
CONTINUOUS
 62
     7
 10
34.784719872156259
 20
99.804505634543204
 30
0.0
 11
33.352861525427372
 21
98.581583076282442
 31
0.0
 12
56.135465782143967
 22
98.581595595475136
 32
0.0
 13
56.135465782143967
 23
98.581595595475136
 33
0.0
210
0.0
220
0.0
230
1.0
  0
SOLID
  5
1087
  8
DRG
  6
CONTINUOUS
 62
     7
 10
90.79635970919044
 20
99.804505634543204
 30
0.0
 11
89.364501362461553
 21
98.581583076282442
 31
0.0
 12
112.14710561917811
 22
98.581595595475122
 32
0.0
 13
112.14710561917811
 23
98.581595595475122
 33
0.0
210
0.0
220
0.0
230
1.0
  0
SOLID
  5
1088
  8
DRG
  6
CONTINUOUS
 62
     7
 10
110.715248332852
 20
99.804513959844542
 30
0.0
 11
90.79635970919044
 21
99.804505634543204
 31
0.0
 12
112.14710561917811
 22
98.581595595475122
 32
0.0
 13
112.14710561917811
 23
98.581595595475122
 33
0.0
210
0.0
220
0.0
230
1.0
  0
SOLID
  5
1089
  8
DRG
  6
CONTINUOUS
 62
     7
 10
54.70360849581779
 20
99.804513959844542
 30
0.0
 11
34.784719872156259
 21
99.804505634543204
 31
0.0
 12
56.135465782143967
 22
98.581595595475136
 32
0.0
 13
56.135465782143967
 23
98.581595595475136
 33
0.0
210
0.0
220
0.0
230
1.0
  0
SOLID
  5
108A
  8
DRG
  6
CONTINUOUS
 62
     7
 10
132.62046538706059
 20
100.3717266133807
 30
0.0
 11
131.22850538356451
 21
99.255984787272112
 31
0.0
 12
139.4206293992797
 22
93.56942787503273
 32
0.0
 13
139.4206293992797
 23
93.56942787503273
 33
0.0
210
0.0
220
0.0
230
1.0
  0
SOLID
  5
108B
  8
DRG
  6
CONTINUOUS
 62
     7
 10
21.391115398914501
 20
100.3717266133808
 30
0.0
 11
19.999155395418381
 21
99.255984787272155
 31
0.0
 12
28.191279411133561
 22
93.56942787503273
 32
0.0
 13
28.191279411133561
 23
93.56942787503273
 33
0.0
210
0.0
220
0.0
230
1.0
  0
SOLID
  5
108C
  8
DRG
  6
CONTINUOUS
 62
     7
 10
36.39025690279135
 20
100.7883799923042
 30
0.0
 11
34.784719872156259
 21
99.804505634543204
 31
0.0
 12
54.70360849581779
 22
99.804513959844542
 32
0.0
 13
54.70360849581779
 23
99.804513959844542
 33
0.0
210
0.0
220
0.0
230
1.0
  0
SOLID
  5
108D
  8
DRG
  6
CONTINUOUS
 62
     7
 10
92.401896739825546
 20
100.7883799923042
 30
0.0
 11
90.79635970919044
 21
99.804505634543204
 31
0.0
 12
110.715248332852
 22
99.804513959844542
 32
0.0
 13
110.715248332852
 23
99.804513959844542
 33
0.0
210
0.0
220
0.0
230
1.0
  0
SOLID
  5
108E
  8
DRG
  6
CONTINUOUS
 62
     7
 10
109.10971329595441
 20
100.78838481499351
 30
0.0
 11
92.401896739825546
 21
100.7883799923042
 31
0.0
 12
110.715248332852
 22
99.804513959844542
 32
0.0
 13
110.715248332852
 23
99.804513959844542
 33
0.0
210
0.0
220
0.0
230
1.0
  0
SOLID
  5
108F
  8
DRG
  6
CONTINUOUS
 62
     7
 10
53.098073458920183
 20
100.78838481499351
 30
0.0
 11
36.39025690279135
 21
100.7883799923042
 31
0.0
 12
54.70360849581779
 22
99.804513959844542
 32
0.0
 13
54.70360849581779
 23
99.804513959844542
 33
0.0
210
0.0
220
0.0
230
1.0
  0
SOLID
  5
1090
  8
DRG
  6
CONTINUOUS
 62
     7
 10
134.18475166795781
 20
101.22930512597181
 30
0.0
 11
132.62046538706059
 21
100.3717266133807
 31
0.0
 12
139.4206293992797
 22
93.56942787503273
 32
0.0
 13
139.4206293992797
 23
93.56942787503273
 33
0.0
  0
SOLID
  5
1091
  8
DRG
  6
CONTINUOUS
 62
     7
 10
22.955401679811722
 20
101.2293051259719
 30
0.0
 11
21.391115398914501
 21
100.3717266133808
 31
0.0
 12
28.191279411133561
 22
93.56942787503273
 32
0.0
 13
28.191279411133561
 23
93.56942787503273
 33
0.0
210
0.0
220
0.0
230
1.0
  0
SOLID
  5
1092
  8
DRG
  6
CONTINUOUS
 62
     7
 10
38.129938967166531
 20
101.5089798975856
 30
0.0
 11
36.39025690279135
 21
100.7883799923042
 31
0.0
 12
53.098073458920183
 22
100.78838481499351
 32
0.0
 13
53.098073458920183
 23
100.78838481499351
 33
0.0
210
0.0
220
0.0
230
1.0
  0
SOLID
  5
1093
  8
DRG
  6
CONTINUOUS
 62
     7
 10
94.141578804200719
 20
101.5089798975856
 30
0.0
 11
92.401896739825546
 21
100.7883799923042
 31
0.0
 12
109.10971329595441
 22
100.78838481499351
 32
0.0
 13
109.10971329595441
 23
100.78838481499351
 33
0.0
210
0.0
220
0.0
230
1.0
  0
SOLID
  5
1094
  8
DRG
  6
CONTINUOUS
 62
     7
 10
51.3583941242996
 20
101.5089820860203
 30
0.0
 11
38.129938967166531
 21
101.5089798975856
 31
0.0
 12
53.098073458920183
 22
100.78838481499351
 32
0.0
 13
53.098073458920183
 23
100.78838481499351
 33
0.0
  0
SOLID
  5
1095
  8
DRG
  6
CONTINUOUS
 62
     7
 10
107.3700339613337
 20
101.5089820860203
 30
0.0
 11
94.141578804200719
 21
101.5089798975856
 31
0.0
 12
109.10971329595441
 22
100.78838481499351
 32
0.0
 13
109.10971329595441
 23
100.78838481499351
 33
0.0
210
0.0
220
0.0
230
1.0
  0
SOLID
  5
1096
  8
DRG
  6
CONTINUOUS
 62
     7
 10
135.87400717988629
 20
101.802758078951
 30
0.0
 11
134.18475166795781
 21
101.22930512597181
 31
0.0
 12
139.4206293992797
 22
93.56942787503273
 32
0.0
 13
139.4206293992797
 23
93.56942787503273
 33
0.0
210
0.0
220
0.0
230
1.0
  0
SOLID
  5
1097
  8
DRG
  6
CONTINUOUS
 62
     7
 10
24.644657191740151
 20
101.8027580789511
 30
0.0
 11
22.955401679811722
 21
101.2293051259719
 31
0.0
 12
28.191279411133561
 22
93.56942787503273
 32
0.0
 13
28.191279411133561
 23
93.56942787503273
 33
0.0
  0
SOLID
  5
1098
  8
DRG
  6
CONTINUOUS
 62
     7
 10
95.97256915621729
 20
101.9485617891854
 30
0.0
 11
94.141578804200719
 21
101.5089798975856
 31
0.0
 12
107.3700339613337
 22
101.5089820860203
 32
0.0
 13
107.3700339613337
 23
101.5089820860203
 33
0.0
210
0.0
220
0.0
230
1.0
  0
SOLID
  5
1099
  8
DRG
  6
CONTINUOUS
 62
     7
 10
39.960929319183101
 20
101.9485617891854
 30
0.0
 11
38.129938967166531
 21
101.5089798975856
 31
0.0
 12
51.3583941242996
 22
101.5089820860203
 32
0.0
 13
51.3583941242996
 23
101.5089820860203
 33
0.0
210
0.0
220
0.0
230
1.0
  0
SOLID
  5
109A
  8
DRG
  6
CONTINUOUS
 62
     7
 10
49.527407010229453
 20
101.94856234311381
 30
0.0
 11
39.960929319183101
 21
101.9485617891854
 31
0.0
 12
51.3583941242996
 22
101.5089820860203
 32
0.0
 13
51.3583941242996
 23
101.5089820860203
 33
0.0
210
0.0
220
0.0
230
1.0
  0
SOLID
  5
109B
  8
DRG
  6
CONTINUOUS
 62
     7
 10
105.53904684726361
 20
101.94856234311381
 30
0.0
 11
95.97256915621729
 21
101.9485617891854
 31
0.0
 12
107.3700339613337
 22
101.5089820860203
 32
0.0
 13
107.3700339613337
 23
101.5089820860203
 33
0.0
210
0.0
220
0.0
230
1.0
  0
SOLID
  5
109C
  8
DRG
  6
CONTINUOUS
 62
     7
 10
77.482556033578931
 20
101.9948050433795
 30
0.0
 11
62.478989637268569
 21
94.593352860836134
 31
0.0
 12
67.331191210151687
 22
94.593352860836134
 32
0.0
 13
67.331191210151687
 23
94.593352860836134
 33
0.0
210
0.0
220
0.0
230
1.0
  0
SOLID
  5
109D
  8
DRG
  6
CONTINUOUS
 62
     7
 10
77.482556033578931
 20
101.9948050433795
 30
0.0
 11
67.331191210151687
 21
94.593352860836134
 31
0.0
 12
84.553623006881026
 22
94.593352860836134
 32
0.0
 13
84.553623006881026
 23
94.593352860836134
 33
0.0
210
0.0
220
0.0
230
1.0
  0
SOLID
  5
109E
  8
DRG
  6
CONTINUOUS
 62
     7
 10
62.478989637268562
 20
101.9948050433795
 30
0.0
 11
62.478989637268569
 21
94.593352860836134
 31
0.0
 12
77.482556033578931
 22
101.9948050433795
 32
0.0
 13
77.482556033578931
 23
101.9948050433795
 33
0.0
  0
SOLID
  5
109F
  8
DRG
  6
CONTINUOUS
 62
     7
 10
84.553623006881026
 20
101.9948050433795
 30
0.0
 11
77.482556033578931
 21
101.9948050433795
 31
0.0
 12
84.553623006881026
 22
94.593352860836134
 32
0.0
 13
84.553623006881026
 23
94.593352860836134
 33
0.0
210
0.0
220
0.0
230
1.0
  0
SOLID
  5
10A0
  8
DRG
  6
CONTINUOUS
 62
     7
 10
67.331191210151701
 20
101.9948050433795
 30
0.0
 11
62.478989637268562
 21
101.9948050433795
 31
0.0
 12
77.482556033578931
 22
101.9948050433795
 32
0.0
 13
77.482556033578931
 23
101.9948050433795
 33
0.0
210
0.0
220
0.0
230
1.0
  0
SOLID
  5
10A1
  8
DRG
  6
CONTINUOUS
 62
     7
 10
139.4206293992797
 20
102.0369718403325
 30
0.0
 11
135.87400717988629
 21
101.802758078951
 31
0.0
 12
139.4206293992797
 22
93.56942787503273
 32
0.0
 13
139.4206293992797
 23
93.56942787503273
 33
0.0
210
0.0
220
0.0
230
1.0
  0
SOLID
  5
10A2
  8
DRG
  6
CONTINUOUS
 62
     7
 10
7.7802673214059723
 20
102.0369718403326
 30
0.0
 11
7.7802673214059723
 21
62.115696081838671
 31
0.0
 12
18.821661727211438
 22
97.915857504065912
 32
0.0
 13
18.821661727211438
 23
97.915857504065912
 33
0.0
210
0.0
220
0.0
230
1.0
  0
SOLID
  5
10A3
  8
DRG
  6
CONTINUOUS
 62
     7
 10
18.821661727211438
 20
102.0369718403326
 30
0.0
 11
7.7802673214059723
 21
102.0369718403326
 31
0.0
 12
18.821661727211438
 22
97.915857504065912
 32
0.0
 13
18.821661727211438
 23
97.915857504065912
 33
0.0
  0
SOLID
  5
10A4
  8
DRG
  6
CONTINUOUS
 62
     7
 10
142.11987082690661
 20
62.115696081838678
 30
0.0
 11
153.2899770207527
 21
102.0369718403326
 31
0.0
 12
142.11987082690661
 22
102.0369718403326
 32
0.0
 13
142.11987082690661
 23
102.0369718403326
 33
0.0
  0
SOLID
  5
10A5
  8
DRG
  6
CONTINUOUS
 62
     7
 10
153.2899770207527
 20
102.0369718403326
 30
0.0
 11
142.11987082690661
 21
62.115696081838678
 31
0.0
 12
153.2899770207527
 22
62.115696081838678
 32
0.0
 13
153.2899770207527
 23
62.115696081838678
 33
0.0
210
0.0
220
0.0
230
1.0
  0
SOLID
  5
10A6
  8
DRG
  6
CONTINUOUS
 62
     7
 10
130.05101171535759
 20
102.0369718403326
 30
0.0
 11
119.0096173095521
 21
62.115696081838678
 31
0.0
 12
130.05101171535759
 22
97.915857504065855
 32
0.0
 13
130.05101171535759
 23
97.915857504065855
 33
0.0
210
0.0
220
0.0
230
1.0
  0
SOLID
  5
10A7
  8
DRG
  6
CONTINUOUS
 62
     7
 10
165.4162645291251
 20
86.855763084496886
 30
0.0
 11
171.38205787173379
 21
102.0369718403326
 31
0.0
 12
160.9346181585602
 22
102.0369718403326
 32
0.0
 13
160.9346181585602
 23
102.0369718403326
 33
0.0
210
0.0
220
0.0
230
1.0
  0
SOLID
  5
10A8
  8
DRG
  6
CONTINUOUS
 62
     7
 10
160.9346181585602
 20
102.0369718403326
 30
0.0
 11
153.2899770207527
 21
82.583583780839575
 31
0.0
 12
165.4162645291251
 22
86.855763084496886
 32
0.0
 13
165.4162645291251
 23
86.855763084496886
 33
0.0
  0
SOLID
  5
10A9
  8
DRG
  6
CONTINUOUS
 62
     7
 10
119.0096173095521
 20
102.0369718403326
 30
0.0
 11
119.0096173095521
 21
62.115696081838678
 31
0.0
 12
130.05101171535759
 22
102.0369718403326
 32
0.0
 13
130.05101171535759
 23
102.0369718403326
 33
0.0
210
0.0
220
0.0
230
1.0
  0
SOLID
  5
10AA
  8
DRG
  6
CONTINUOUS
 62
     7
 10
28.191279411133561
 20
102.0369718403326
 30
0.0
 11
24.644657191740151
 21
101.8027580789511
 31
0.0
 12
28.191279411133561
 22
93.56942787503273
 32
0.0
 13
28.191279411133561
 23
93.56942787503273
 33
0.0
  0
SOLID
  5
10AB
  8
DRG
  6
CONTINUOUS
 62
     7
 10
137.6370915704783
 20
102.0747248149906
 30
0.0
 11
135.87400717988629
 21
101.802758078951
 31
0.0
 12
139.4206293992797
 22
102.0369718403325
 32
0.0
 13
139.4206293992797
 23
102.0369718403325
 33
0.0
210
0.0
220
0.0
230
1.0
  0
SOLID
  5
10AC
  8
DRG
  6
CONTINUOUS
 62
     7
 10
26.40774158233215
 20
102.0747248149907
 30
0.0
 11
24.644657191740151
 21
101.8027580789511
 31
0.0
 12
28.191279411133561
 22
102.0369718403326
 32
0.0
 13
28.191279411133561
 23
102.0369718403326
 33
0.0
210
0.0
220
0.0
230
1.0
  0
SOLID
  5
10AD
  8
DRG
  6
CONTINUOUS
 62
     7
 10
49.527407010229453
 20
101.94856234311381
 30
0.0
 11
47.650196927116667
 21
102.0963017020437
 31
0.0
 12
41.838142899665847
 22
102.0963017020437
 32
0.0
 13
41.838142899665847
 23
102.0963017020437
 33
0.0
210
0.0
220
0.0
230
1.0
  0
SOLID
  5
10AE
  8
DRG
  6
CONTINUOUS
 62
     7
 10
41.838142899665847
 20
102.0963017020437
 30
0.0
 11
39.960929319183101
 21
101.9485617891854
 31
0.0
 12
49.527407010229453
 22
101.94856234311381
 32
0.0
 13
49.527407010229453
 23
101.94856234311381
 33
0.0
210
0.0
220
0.0
230
1.0
  0
SOLID
  5
10AF
  8
DRG
  6
CONTINUOUS
 62
     7
 10
105.53904684726361
 20
101.94856234311381
 30
0.0
 11
103.66183676415081
 21
102.0963017020437
 31
0.0
 12
97.849782736700035
 22
102.0963017020437
 32
0.0
 13
97.849782736700035
 23
102.0963017020437
 33
0.0
210
0.0
220
0.0
230
1.0
  0
SOLID
  5
10B0
  8
DRG
  6
CONTINUOUS
 62
     7
 10
97.849782736700035
 20
102.0963017020437
 30
0.0
 11
95.97256915621729
 21
101.9485617891854
 31
0.0
 12
105.53904684726361
 22
101.94856234311381
 32
0.0
 13
105.53904684726361
 23
101.94856234311381
 33
0.0
210
0.0
220
0.0
230
1.0
  0
SOLID
  5
10B1
  8
DRG
  6
CONTINUOUS
 62
     7
 10
77.482556033578931
 20
107.1280725498991
 30
0.0
 11
67.331191210151701
 21
101.9948050433795
 31
0.0
 12
77.482556033578931
 22
101.9948050433795
 32
0.0
 13
77.482556033578931
 23
101.9948050433795
 33
0.0
  0
SOLID
  5
10B2
  8
DRG
  6
CONTINUOUS
 62
     7
 10
67.331191210151701
 20
107.1280725498991
 30
0.0
 11
67.331191210151701
 21
101.9948050433795
 31
0.0
 12
77.482556033578931
 22
107.1280725498991
 32
0.0
 13
77.482556033578931
 23
107.1280725498991
 33
0.0
210
0.0
220
0.0
230
1.0
  0
ENDBLK
  5
10B4
  8
0
  0
ENDSEC
  0
SECTION
  2
ENTITIES
  0
POLYLINE
  5
33
  8
BORT
 66
     1
 10
0.0
 20
0.0
 30
0.0
 39
1.8
  0
VERTEX
  5
D95
  8
BORT
 10
166.0
 20
135.02903496723221
 30
0.0
  0
VERTEX
  5
D96
  8
BORT
 10
10.0
 20
135.02903496723221
 30
0.0
  0
SEQEND
  5
D97
  8
BORT
  0
POLYLINE
  5
37
  8
BORT
 66
     1
 10
0.0
 20
0.0
 30
0.0
 39
1.8
  0
VERTEX
  5
D98
  8
BORT
 10
716.0
 20
99.029034967232235
 30
0.0
  0
VERTEX
  5
D99
  8
BORT
 10
716.0
 20
67.029034967232235
 30
0.0
  0
SEQEND
  5
D9A
  8
BORT
  0
POLYLINE
  5
3B
  8
BORT
 66
     1
 10
0.0
 20
0.0
 30
0.0
 39
1.8
  0
VERTEX
  5
D9B
  8
BORT
 10
360.0
 20
67.029034967232235
 30
0.0
  0
VERTEX
  5
D9C
  8
BORT
 10
360.0
 20
37.029034967232228
 30
0.0
  0
SEQEND
  5
D9D
  8
BORT
  0
POLYLINE
  5
3F
  8
BORT
 66
     1
 10
0.0
 20
0.0
 30
0.0
 39
1.8
  0
VERTEX
  5
D9E
  8
BORT
 10
580.0
 20
67.029034967232235
 30
0.0
  0
VERTEX
  5
D9F
  8
BORT
 10
580.0
 20
37.029034967232228
 30
0.0
  0
SEQEND
  5
DA0
  8
BORT
  0
TEXT
  5
4A
  8
BORT
 10
197.8420272960482
 20
49.297483890263628
 30
0.0
 40
6.0
  1
EXEECO LTD   C   1996
  0
TEXT
  5
4B
  8
BORT
 10
543.45638722086494
 20
88.029034967232235
 30
0.0
 40
5.0
  1
DRAWN:-
  0
TEXT
  5
4C
  8
BORT
 10
77.833333333333329
 20
125.52903496723221
 30
0.0
 40
5.0
  1
ALTERATIONS
 72
     4
 11
102.0
 21
128.02903496723221
 31
0.0
  0
TEXT
  5
4D
  8
BORT
 10
73.071428571428555
 20
139.52903496723221
 30
0.0
 40
5.0
  1
ORIGINAL ISSUE
 72
     4
 11
102.0
 21
142.02903496723221
 31
0.0
  0
TEXT
  5
4E
  8
BORT
 10
14.11904761904762
 20
125.52903496723221
 30
0.0
 40
5.0
  1
ISSUE
 72
     4
 11
24.0
 21
128.02903496723221
 31
0.0
  0
TEXT
  5
4F
  8
BORT
 10
22.095238095238091
 20
139.52903496723221
 30
0.0
 40
5.0
  1
A
 72
     4
 11
24.0
 21
142.02903496723221
 31
0.0
  0
TEXT
  5
50
  8
BORT
 10
613.66666666666663
 20
46.029034967232228
 30
0.0
 40
14.0
  1
PUB\IS4CD
 72
     4
 11
670.0
 21
52.029034967232228
 31
0.0
  0
TEXT
  5
51
  8
BORT
 10
543.16740467642956
 20
72.353451285825372
 30
0.0
 40
5.0
  1
CHECKED:-
  0
TEXT
  5
52
  8
BORT
 10
725.78627429561266
 20
88.029034967232235
 30
0.0
 40
5.0
  1
SCALE
  0
POLYLINE
  5
53
  8
BORT
 66
     1
 10
0.0
 20
0.0
 30
0.0
 39
1.8
  0
VERTEX
  5
DA1
  8
BORT
 10
540.0
 20
99.029034967232235
 30
0.0
  0
VERTEX
  5
DA2
  8
BORT
 10
540.0
 20
67.029034967232235
 30
0.0
  0
SEQEND
  5
DA3
  8
BORT
  0
CIRCLE
  5
58
  8
BORT
 10
272.15469896790501
 20
52.220321507561522
 30
0.0
 40
5.6547997464713049
  0
TEXT
  5
59
  8
BORT
 10
379.28061317916388
 20
54.216470340139402
 30
0.0
 40
10.0
  1
OUTLINE DETAILS OF IS4
 72
     4
 11
472.85204175059238
 21
59.216470340139402
 31
0.0
  0
TEXT
  5
5A
  8
BORT
 10
599.82279161737029
 20
88.529034967232235
 30
0.0
 40
5.0
  1
S.W.   10.9.96
 72
     4
 11
627.20374399832281
 21
91.029034967232235
 31
0.0
  0
TEXT
  5
5B
  8
BORT
 10
730.99184548397261
 20
72.029034967232235
 30
0.0
 40
5.0
  1
1:1
  0
LINE
  5
5C
  8
BORT
 39
1.8
 10
166.0
 20
121.02903496723221
 30
0.0
 11
10.0
 21
121.02903496723221
 31
0.0
  0
LINE
  5
5D
  8
BORT
 39
1.8
 10
166.0
 20
121.02903496723221
 30
0.0
 11
10.0
 21
121.02903496723221
 31
0.0
  0
LINE
  5
5E
  8
BORT
 39
1.8
 10
10.0
 20
37.029034967232228
 30
0.0
 11
10.0
 21
163.02903496723221
 31
0.0
  0
LINE
  5
5F
  8
BORT
 39
1.8
 10
760.0
 20
99.029034967232235
 30
0.0
 11
760.0
 21
37.029034967232228
 31
0.0
  0
LINE
  5
60
  8
BORT
 39
1.8
 10
760.0
 20
37.029034967232228
 30
0.0
 11
10.0
 21
37.029034967232228
 31
0.0
  0
LINE
  5
61
  8
BORT
 39
1.8
 10
760.0
 20
67.029034967232235
 30
0.0
 11
166.0
 21
67.029034967232235
 31
0.0
  0
POLYLINE
  5
62
  8
BORT
 66
     1
 10
0.0
 20
0.0
 30
0.0
 39
1.8
  0
VERTEX
  5
DA4
  8
BORT
 10
166.0
 20
121.02903496723221
 30
0.0
  0
VERTEX
  5
DA5
  8
BORT
 10
166.0
 20
37.029034967232228
 30
0.0
  0
SEQEND
  5
DA6
  8
BORT
  0
POLYLINE
  5
66
  8
BORT
 66
     1
 10
0.0
 20
0.0
 30
0.0
 39
1.8
  0
VERTEX
  5
DA7
  8
BORT
 10
166.0
 20
149.02903496723221
 30
0.0
  0
VERTEX
  5
DA8
  8
BORT
 10
10.0
 20
149.02903496723221
 30
0.0
  0
SEQEND
  5
DA9
  8
BORT
  0
TEXT
  5
6A
  8
BORT
 10
387.85204175059238
 20
41.500240015934118
 30
0.0
 40
10.0
  1
ISO & USA STANDARD
 72
     4
 11
472.85204175059238
 21
46.500240015934118
 31
0.0
  0
POLYLINE
  5
6B
  8
BORT
 66
     1
 10
0.0
 20
0.0
 30
0.0
 39
1.8
  0
VERTEX
  5
DAA
  8
BORT
 10
760.0
 20
83.029034967232235
 30
0.0
  0
VERTEX
  5
DAB
  8
BORT
 10
540.0
 20
83.029034967232235
 30
0.0
  0
SEQEND
  5
DAC
  8
BORT
  0
POLYLINE
  5
6F
  8
BORT
 66
     1
 10
0.0
 20
0.0
 30
0.0
 39
1.8
  0
VERTEX
  5
DAD
  8
BORT
 10
540.0
 20
99.029034967232235
 30
0.0
  0
VERTEX
  5
DAE
  8
BORT
 10
760.0
 20
99.029034967232235
 30
0.0
  0
SEQEND
  5
DAF
  8
BORT
  0
LINE
  5
75
  8
DRG
 10
182.6517724178089
 20
631.58550297423744
 30
0.0
 11
77.151772417808957
 21
631.58550297423744
 31
0.0
  0
LINE
  5
76
  8
DRG
 10
182.65177241780901
 20
661.58550297423744
 30
0.0
 11
77.151772417808957
 21
661.58550297423744
 31
0.0
  0
LINE
  5
77
  8
DRG2
 10
77.151772417808957
 20
661.58550297423744
 30
0.0
 11
77.151772417808957
 21
631.58550297423744
 31
0.0
  0
LINE
  5
78
  8
DRG
 10
75.651772417808957
 20
660.08550297423744
 30
0.0
 11
75.651772417808957
 21
633.08550297423744
 31
0.0
  0
LINE
  5
79
  8
DRG
 10
75.651772417808957
 20
633.08550297423744
 30
0.0
 11
77.151772417808957
 21
631.58550297423744
 31
0.0
  0
LINE
  5
7A
  8
DRG
 10
77.151772417808957
 20
661.58550297423744
 30
0.0
 11
75.651772417808957
 21
660.08550297423744
 31
0.0
  0
LINE
  5
7B
  8
DRG
 62
     1
 10
188.6517724178089
 20
696.58550297423835
 30
0.0
 11
188.6517724178089
 21
596.58550297423744
 31
0.0
  0
LINE
  5
7F
  8
DIM
 10
81.651772417809084
 20
766.58550297423744
 30
0.0
 11
190.67677241780899
 21
766.58550297423744
 31
0.0
  0
SOLID
  5
80
  8
DIM
 10
81.651772417809084
 20
767.58550297423744
 30
0.0
 11
81.651772417809084
 21
765.58550297423744
 31
0.0
 12
75.65177241780907
 22
766.58550297423744
 32
0.0
 13
75.65177241780907
 23
766.58550297423744
 33
0.0
  0
SOLID
  5
81
  8
DIM
 10
190.67677241780899
 20
767.58550297423744
 30
0.0
 11
190.67677241780899
 21
765.58550297423744
 31
0.0
 12
196.67677241780899
 22
766.58550297423744
 32
0.0
 13
196.67677241780899
 23
766.58550297423744
 33
0.0
  0
TEXT
  5
82
  8
DIM
 10
131.28332003685671
 20
769.08550297423744
 30
0.0
 40
5.0
  1
121
 72
     1
 11
136.16427241780909
 21
771.58550297423744
 31
0.0
 73
     2
  0
LINE
  5
84
  8
DIM
 10
75.651772417808957
 20
664.18179957506175
 30
0.0
 11
75.65177241780907
 21
768.58550297423744
 31
0.0
  0
SOLID
  5
87
  8
DIM
 10
202.67677241780899
 20
767.58550297423744
 30
0.0
 11
202.67677241780899
 21
765.58550297423744
 31
0.0
 12
196.67677241780899
 22
766.58550297423744
 32
0.0
 13
196.67677241780899
 23
766.58550297423744
 33
0.0
  0
LINE
  5
8A
  8
DIM
 10
188.6517724178089
 20
701.58550297423835
 30
0.0
 11
188.6517724178089
 21
738.42290649523102
 31
0.0
  0
LINE
  5
8B
  8
DIM
 10
202.67677241780899
 20
736.42290649523102
 30
0.0
 11
208.67677241780899
 21
736.42290649523102
 31
0.0
  0
LINE
  5
8C
  8
DIM
 10
182.6517724178089
 20
736.42290649523102
 30
0.0
 11
159.23353036561781
 21
736.42290649523102
 31
0.0
  0
LINE
  5
8D
  8
DIM
 10
159.23353036561781
 20
736.42290649523102
 30
0.0
 11
154.4001970322843
 21
736.42290649523102
 31
0.0
  0
SOLID
  5
8E
  8
DIM
 10
202.67677241780899
 20
737.4229064952309
 30
0.0
 11
202.67677241780899
 21
735.42290649523102
 31
0.0
 12
196.67677241780899
 22
736.42290649523102
 32
0.0
 13
196.67677241780899
 23
736.42290649523102
 33
0.0
  0
SOLID
  5
8F
  8
DIM
 10
182.6517724178089
 20
737.4229064952309
 30
0.0
 11
182.6517724178089
 21
735.42290649523102
 31
0.0
 12
188.6517724178089
 22
736.42290649523102
 32
0.0
 13
188.6517724178089
 23
736.42290649523102
 33
0.0
  0
TEXT
  5
90
  8
DIM
 10
165.63929042530921
 20
738.92290649523102
 30
0.0
 40
5.0
  1
8
 72
     1
 11
167.30595709197581
 21
741.4229064952309
 31
0.0
 73
     2
  0
LINE
  5
91
  8
DRG
 10
120.6517724178089
 20
664.58550297423744
 30
0.0
 11
80.651772417809184
 21
664.58550297423744
 31
0.0
  0
LINE
  5
92
  8
DRG
 10
120.6517724178089
 20
661.58550297423744
 30
0.0
 11
120.6517724178089
 21
664.58550297423744
 31
0.0
  0
LINE
  5
93
  8
DRG
 10
80.651772417809184
 20
661.58550297423744
 30
0.0
 11
80.651772417809184
 21
664.58550297423744
 31
0.0
  0
LINE
  5
94
  8
DIM
 10
80.651772417809184
 20
669.58550297423744
 30
0.0
 11
80.651772417809184
 21
738.42290649523102
 31
0.0
  0
SOLID
  5
95
  8
DIM
 10
86.651772417809184
 20
737.4229064952309
 30
0.0
 11
86.651772417809184
 21
735.42290649523102
 31
0.0
 12
80.651772417809184
 22
736.42290649523102
 32
0.0
 13
80.651772417809184
 23
736.42290649523102
 33
0.0
  0
LINE
  5
96
  8
DIM
 10
69.651772417808957
 20
736.42290649523102
 30
0.0
 11
45.808690813765793
 21
736.42290649523102
 31
0.0
  0
LINE
  5
97
  8
DIM
 10
45.808690813765793
 20
736.42290649523102
 30
0.0
 11
40.975357480432528
 21
736.42290649523102
 31
0.0
  0
SOLID
  5
98
  8
DIM
 10
69.651772417808957
 20
737.4229064952309
 30
0.0
 11
69.651772417808957
 21
735.42290649523102
 31
0.0
 12
75.651772417808957
 22
736.42290649523102
 32
0.0
 13
75.651772417808957
 23
736.42290649523102
 33
0.0
  0
TEXT
  5
99
  8
DIM
 10
52.44590965513688
 20
738.92290649523102
 30
0.0
 40
5.0
  1
5
 72
     1
 11
54.112576321803552
 21
741.4229064952309
 31
0.0
 73
     2
  0
TEXT
  5
9A
  8
DIM
 10
44.165188354324982
 20
541.31982996651004
 30
0.0
 40
5.0
  1
4 OFF M10 SCREWS 
  0
TEXT
  5
9B
  8
DIM
 10
42.555433236204067
 20
532.27797048413129
 30
0.0
 40
5.0
  1
ON %%c105 (4.13") P.C.
  0
LINE
  5
9F
  8
DIM
 10
200.17677241780899
 20
379.81351407271171
 30
0.0
 11
200.17677241780899
 21
249.15704141855559
 31
0.0
  0
LINE
  5
A0
  8
DIM
 10
292.07677241780908
 20
392.25106823219858
 30
0.0
 11
292.07677241780908
 21
249.15704141855559
 31
0.0
  0
LINE
  5
A1
  8
DIM
 10
206.17677241780899
 20
251.15704141855559
 30
0.0
 11
286.07677241780908
 21
251.15704141855559
 31
0.0
  0
SOLID
  5
A2
  8
DIM
 10
206.17677241780899
 20
252.15704141855559
 30
0.0
 11
206.17677241780899
 21
250.15704141855559
 31
0.0
 12
200.17677241780899
 22
251.15704141855559
 32
0.0
 13
200.17677241780899
 23
251.15704141855559
 33
0.0
  0
SOLID
  5
A3
  8
DIM
 10
286.07677241780908
 20
252.15704141855559
 30
0.0
 11
286.07677241780908
 21
250.15704141855559
 31
0.0
 12
292.07677241780908
 22
251.15704141855559
 32
0.0
 13
292.07677241780908
 23
251.15704141855559
 33
0.0
  0
TEXT
  5
A4
  8
DIM
 10
242.14870903973539
 20
253.97974972541701
 30
0.0
 40
5.0
  1
92
 72
     4
 11
246.1963280873544
 21
256.47974972541698
 31
0.0
  0
LINE
  5
A5
  8
DRG
 62
     1
 10
294.95177241780908
 20
414.33550297423727
 30
0.0
 11
294.95177241780908
 21
471.83550297423727
 31
0.0
  0
LINE
  5
A6
  8
DRG
 10
292.07677241780908
 20
472.43550297423729
 30
0.0
 11
294.35177241780917
 21
472.43550297423729
 31
0.0
  0
LINE
  5
A7
  8
DRG
 10
294.95177241780908
 20
471.83550297423727
 30
0.0
 11
294.35177241780917
 21
472.43550297423729
 31
0.0
  0
LINE
  5
A8
  8
DIM
 10
300.95177241780908
 20
251.15704141855559
 30
0.0
 11
312.82780838128838
 21
251.15704141855559
 31
0.0
  0
LINE
  5
A9
  8
DIM
 10
312.82780838128838
 20
251.15704141855559
 30
0.0
 11
327.31462708860778
 21
251.15704141855559
 31
0.0
  0
SOLID
  5
AA
  8
DIM
 10
300.95177241780908
 20
252.15704141855559
 30
0.0
 11
300.95177241780908
 21
250.15704141855559
 31
0.0
 12
294.95177241780908
 22
251.15704141855559
 32
0.0
 13
294.95177241780908
 23
251.15704141855559
 33
0.0
  0
TEXT
  5
AB
  8
DIM
 10
314.32780838128849
 20
253.97974972541701
 30
0.0
 40
5.0
  1
3
 72
     1
 11
315.99447504795518
 21
256.47974972541698
 31
0.0
 73
     2
  0
LINE
  5
AC
  8
DIM
 10
299.35177241780917
 20
413.73550297423731
 30
0.0
 11
334.16788000815183
 21
413.73550297423731
 31
0.0
  0
LINE
  5
AD
  8
DIM
 10
299.35177241780917
 20
472.43550297423729
 30
0.0
 11
334.16788000815183
 21
472.43550297423729
 31
0.0
  0
SOLID
  5
AE
  8
DIM
 10
331.16788000815183
 20
419.73550297423731
 30
0.0
 11
333.16788000815183
 21
419.73550297423731
 31
0.0
 12
332.16788000815183
 22
413.73550297423731
 32
0.0
 13
332.16788000815183
 23
413.73550297423731
 33
0.0
  0
SOLID
  5
AF
  8
DIM
 10
331.16788000815183
 20
466.43550297423741
 30
0.0
 11
333.16788000815183
 21
466.43550297423741
 31
0.0
 12
332.16788000815183
 22
472.43550297423729
 32
0.0
 13
332.16788000815183
 23
472.43550297423729
 33
0.0
  0
TEXT
  5
B0
  8
DIM
 10
329.66788000815183
 20
345.30474222467637
 30
0.0
 40
5.0
  1
SEE TABLE FOR
 50
90.0
 72
     4
 11
327.16788000815183
 21
374.7095041294383
 31
0.0
  0
TEXT
  5
B1
  8
DIM
 10
339.71221374067551
 20
353.89639243401348
 30
0.0
 40
5.0
  1
SPIGOT DIA.
 50
90.0
 72
     4
 11
337.21221374067551
 21
375.56305910068022
 31
0.0
  0
LINE
  5
B2
  8
DIM
 10
713.06193526681625
 20
443.08550297423739
 30
0.0
 11
732.96334092373013
 21
443.08550297423739
 31
0.0
  0
LINE
  5
B3
  8
DIM
 10
643.0189507401052
 20
646.58550297423744
 30
0.0
 11
732.96334092373013
 21
646.58550297423744
 31
0.0
  0
LINE
  5
B4
  8
DIM
 10
730.96334092373013
 20
449.08550297423727
 30
0.0
 11
730.96334092373013
 21
640.58550297423744
 31
0.0
  0
SOLID
  5
B5
  8
DIM
 10
729.96334092373013
 20
449.08550297423727
 30
0.0
 11
731.96334092373013
 21
449.08550297423727
 31
0.0
 12
730.96334092373013
 22
443.08550297423739
 32
0.0
 13
730.96334092373013
 23
443.08550297423739
 33
0.0
  0
SOLID
  5
B6
  8
DIM
 10
729.96334092373013
 20
640.58550297423744
 30
0.0
 11
731.96334092373013
 21
640.58550297423744
 31
0.0
 12
730.96334092373013
 22
646.58550297423744
 32
0.0
 13
730.96334092373013
 23
646.58550297423744
 33
0.0
  0
TEXT
  5
B7
  8
DIM
 10
728.46334092373013
 20
538.18578425232806
 30
0.0
 40
5.0
  1
204
 50
90.0
 72
     4
 11
725.96334092373013
 21
544.73340329994721
 31
0.0
  0
LINE
  5
B8
  8
DIM
 10
730.96334092373013
 20
652.58550297423744
 30
0.0
 11
730.96334092373013
 21
700.58550297423744
 31
0.0
  0
SOLID
  5
B9
  8
DIM
 10
729.96334092373013
 20
652.58550297423744
 30
0.0
 11
731.96334092373013
 21
652.58550297423744
 31
0.0
 12
730.96334092373013
 22
646.58550297423744
 32
0.0
 13
730.96334092373013
 23
646.58550297423744
 33
0.0
  0
SOLID
  5
BA
  8
DIM
 10
729.96334092373013
 20
700.58550297423744
 30
0.0
 11
731.96334092373013
 21
700.58550297423744
 31
0.0
 12
730.96334092373013
 22
706.58550297423744
 32
0.0
 13
730.96334092373013
 23
706.58550297423744
 33
0.0
  0
TEXT
  5
BB
  8
DIM
 10
728.46334092373013
 20
672.29415199683513
 30
0.0
 40
5.0
  1
60
 50
90.0
 72
     4
 11
725.96334092373013
 21
676.34177104445405
 31
0.0
  0
LINE
  5
BC
  8
DIM
 10
584.31757210363526
 20
706.58550297423744
 30
0.0
 11
732.96334092373013
 21
706.58550297423744
 31
0.0
  0
SOLID
  5
BD
  8
DIM
 10
91.046007955097366
 20
670.02900490176864
 30
0.0
 11
89.133820365917359
 21
670.61512658178594
 31
0.0
 12
88.331549120455747
 22
664.58550297423744
 32
0.0
 13
88.331549120455747
 23
664.58550297423744
 33
0.0
  0
LINE
  5
BE
  8
DIM
 10
88.331549120455747
 20
664.58550297423744
 30
0.0
 11
100.8854277275795
 21
705.54179530573765
 31
0.0
  0
LINE
  5
BF
  8
DIM
 10
90.359990472091681
 20
736.42290649523102
 30
0.0
 11
86.651772417809184
 21
736.42290649523102
 31
0.0
  0
LINE
  5
C0
  8
DIM
 10
72.151772417808957
 20
661.58550297423744
 30
0.0
 11
42.527875898031077
 21
661.58550297423744
 31
0.0
  0
LINE
  5
C1
  8
DIM
 10
72.151772417808957
 20
631.58550297423744
 30
0.0
 11
42.527875898031077
 21
631.58550297423744
 31
0.0
  0
LINE
  5
C2
  8
DIM
 10
44.527875898031077
 20
661.58550297423744
 30
0.0
 11
44.527875898031077
 21
559.03444083295153
 31
0.0
  0
SOLID
  5
C3
  8
DIM
 10
43.527875898031077
 20
655.58550297423744
 30
0.0
 11
45.527875898031077
 21
655.58550297423744
 31
0.0
 12
44.527875898031077
 22
661.58550297423744
 32
0.0
 13
44.527875898031077
 23
661.58550297423744
 33
0.0
  0
SOLID
  5
C4
  8
DIM
 10
43.527875898031077
 20
637.58550297423744
 30
0.0
 11
45.527875898031077
 21
637.58550297423744
 31
0.0
 12
44.527875898031077
 22
631.58550297423744
 32
0.0
 13
44.527875898031077
 23
631.58550297423744
 33
0.0
  0
TEXT
  5
C5
  8
DIM
 10
40.523169669646791
 20
567.55807906383234
 30
0.0
 40
5.0
  1
%%c30.00 -0.05
 50
90.0
 72
     4
 11
38.023169669646791
 21
593.5104600162133
 31
0.0
  0
TEXT
  5
C6
  8
DIM
 10
52.203698970670217
 20
559.81998382573715
 30
0.0
 40
5.0
  1
(%%c1.181" -0.002")
 50
90.0
 72
     4
 11
50.060841827813071
 21
593.5104600162133
 31
0.0
  0
LINE
  5
C7
  8
CRS
 10
72.871679943203731
 20
646.58550297423744
 30
0.0
 11
407.09433398726742
 21
646.58550297423744
 31
0.0
  0
ARC
  5
C8
  8
DRG
 10
210.17677241780899
 20
345.0855029742375
 30
0.0
 40
3.0
 50
0.0
 51
90.0
  0
ARC
  5
C9
  8
DRG
 10
209.55754035776781
 20
541.11670524088481
 30
0.0
 40
3.0
 50
270.0
 51
0.0
  0
ARC
  5
CA
  8
DRG
 10
209.55754035776781
 20
550.35674111361607
 30
0.0
 40
3.0
 50
0.0
 51
90.0
  0
LINE
  5
CC
  8
DRG
 10
200.17677241780899
 20
493.08550297423739
 30
0.0
 11
200.17677241780899
 21
393.08550297423739
 31
0.0
  0
LINE
  5
CD
  8
DRG
 10
200.17677241780899
 20
393.08550297423739
 30
0.0
 11
207.36167375426689
 21
348.0855029742375
 31
0.0
  0
LINE
  5
CE
  8
DRG
 10
207.36167375426689
 20
348.0855029742375
 30
0.0
 11
210.17677241780899
 21
348.0855029742375
 31
0.0
  0
LINE
  5
D0
  8
DRG
 10
200.17677241780919
 20
556.35674111361607
 30
0.0
 11
200.17677241780899
 21
587.58550297423744
 31
0.0
  0
LINE
  5
D1
  8
DRG
 10
200.17677241780899
 20
493.08550297423739
 30
0.0
 11
207.36167375426689
 21
538.11670524088481
 31
0.0
  0
LINE
  5
D2
  8
DRG
 10
209.55754035776781
 20
538.11670524088481
 30
0.0
 11
207.36167375426689
 21
538.11670524088481
 31
0.0
  0
ARC
  5
D3
  8
DRG
 10
203.17677241780919
 20
556.35674111361607
 30
0.0
 40
3.0
 50
180.0
 51
270.0
  0
LINE
  5
D4
  8
DRG
 10
209.55754035776781
 20
553.35674111361618
 30
0.0
 11
203.17677241780919
 21
553.35674111361618
 31
0.0
  0
LINE
  5
D8
  8
CRS
 10
565.99153278826952
 20
712.60820232203866
 30
0.0
 11
565.99153278826952
 21
304.67958691447922
 31
0.0
  0
LINE
  5
D9
  8
DRG
 10
270.17677241780899
 20
600.48550297423753
 30
0.0
 11
270.17677241780899
 21
465.6889297434945
 31
0.0
  0
LINE
  5
DA
  8
DRG
 10
245.17677241780899
 20
312.08550297423727
 30
0.0
 11
280.17677241780927
 21
312.08550297423727
 31
0.0
  0
LINE
  5
DB
  8
DRG
 10
213.17677241780919
 20
330.89328046764359
 30
0.0
 11
213.17677241780899
 21
345.0855029742375
 31
0.0
  0
LINE
  5
DC
  8
DRG
 10
218.06716837457481
 20
323.52236717997698
 30
0.0
 11
245.17677241780899
 21
312.08550297423727
 31
0.0
  0
ARC
  5
DD
  8
DRG
 10
221.17677241780919
 20
330.89328046764359
 30
0.0
 40
8.0
 50
180.00000000000031
 51
247.1263348093733
  0
LINE
  5
E3
  8
CRS
 10
496.31349840429181
 20
646.58550297423744
 30
0.0
 11
639.16412711935857
 21
646.58550297423744
 31
0.0
  0
LINE
  5
E7
  8
DRG
 10
583.49153278826964
 20
593.39010843674032
 30
0.0
 11
583.49153278826952
 21
584.00303204709621
 31
0.0
  0
LINE
  5
F5
  8
DRG
 10
548.49153278826941
 20
593.39010843674021
 30
0.0
 11
548.49153278826952
 21
575.50812188807697
 31
0.0
  0
ARC
  5
F6
  8
DRG
 10
545.49153278826941
 20
575.50812188807697
 30
0.0
 40
3.0
 50
340.3231090816551
 51
0.0
  0
ARC
  5
FB
  8
DRG
 10
513.14792707492836
 20
667.95261169799676
 30
0.0
 40
3.0
 50
157.9842435525286
 51
164.39461099555029
  0
LINE
  5
FE
  8
DIM
 10
195.17677241780899
 20
480.63550297423728
 30
0.0
 11
100.5831816543687
 21
480.63550297423728
 31
0.0
  0
LINE
  5
FF
  8
DIM
 10
195.17677241780899
 20
405.53550297423732
 30
0.0
 11
158.0967271178385
 21
405.53550297423732
 31
0.0
  0
LINE
  5
100
  8
DIM
 10
232.15677241780901
 20
417.98691278426179
 30
0.0
 11
152.9459196078945
 21
417.98691278426179
 31
0.0
  0
LINE
  5
101
  8
DIM
 10
232.15677241780901
 20
469.08050297423739
 30
0.0
 11
152.9459196078945
 21
469.08050297423739
 31
0.0
  0
SOLID
  5
102
  8
DIM
 10
153.9459196078945
 20
423.98691278426168
 30
0.0
 11
155.9459196078945
 21
423.98691278426168
 31
0.0
 12
154.9459196078945
 22
417.98691278426179
 32
0.0
 13
154.9459196078945
 23
417.98691278426179
 33
0.0
  0
TEXT
  5
103
  8
DIM
 10
97.852930351049508
 20
416.65693154566588
 30
0.0
 40
5.0
  1
SCREWED 2.5"
 50
90.0
 72
     4
 11
94.876739874859027
 21
443.08550297423739
 31
0.0
  0
LINE
  5
104
  8
DIM
 10
102.5831816543687
 20
411.53550297423732
 30
0.0
 11
102.5831816543687
 21
474.6355029742374
 31
0.0
  0
TEXT
  5
105
  8
DIM
 10
156.989268262808
 20
281.66882711763498
 30
0.0
 40
5.0
  1
MAX. PERMISSIBLE O/D OF
 50
90.0
  0
TEXT
  5
106
  8
DIM
 10
165.56069683423661
 20
281.66882711763498
 30
0.0
 40
5.0
  1
VALVE SPINDLE LOCKNUT
 50
90.0
  0
TEXT
  5
107
  8
DIM
 10
148.4178396913795
 20
281.66882711763498
 30
0.0
 40
5.0
  1
%%c51 (%%c2.01") ROOT OF SPLINE
 50
90.0
  0
SOLID
  5
108
  8
DIM
 10
101.5831816543687
 20
411.53550297423732
 30
0.0
 11
103.5831816543687
 21
411.53550297423732
 31
0.0
 12
102.5831816543687
 22
405.53550297423732
 32
0.0
 13
102.5831816543687
 23
405.53550297423732
 33
0.0
  0
SOLID
  5
109
  8
DIM
 10
101.5831816543687
 20
474.6355029742374
 30
0.0
 11
103.5831816543687
 21
474.6355029742374
 31
0.0
 12
102.5831816543687
 22
480.63550297423728
 32
0.0
 13
102.5831816543687
 23
480.63550297423728
 33
0.0
  0
SOLID
  5
10A
  8
DIM
 10
153.9459196078945
 20
463.08050297423739
 30
0.0
 11
155.9459196078945
 21
463.08050297423739
 31
0.0
 12
154.9459196078945
 22
469.08050297423739
 32
0.0
 13
154.9459196078945
 23
469.08050297423739
 33
0.0
  0
LINE
  5
10B
  8
DIM
 10
154.9459196078945
 20
469.08050297423739
 30
0.0
 11
154.9459196078945
 21
392.94504933074978
 31
0.0
  0
LINE
  5
10C
  8
HID
 10
200.17677241780899
 20
479.33050297423739
 30
0.0
 11
218.92677241780899
 21
479.33050297423739
 31
0.0
  0
LINE
  5
10D
  8
HID
 10
200.17677241780899
 20
480.63550297423728
 30
0.0
 11
218.92677241780899
 21
480.63550297423728
 31
0.0
  0
LINE
  5
10E
  8
HID
 10
200.17677241780899
 20
406.84050297423738
 30
0.0
 11
218.92677241780899
 21
406.84050297423738
 31
0.0
  0
LINE
  5
10F
  8
HID
 10
200.17677241780899
 20
405.53550297423732
 30
0.0
 11
218.92677241780899
 21
405.53550297423732
 31
0.0
  0
LINE
  5
110
  8
DRG
 10
212.67677241780899
 20
701.58550297423744
 30
0.0
 11
212.67677241780919
 21
346.74381536941678
 31
0.0
  0
LINE
  5
115
  8
DRG
 10
196.67677241780899
 20
696.58550297423835
 30
0.0
 11
188.6517724178089
 21
696.58550297423835
 31
0.0
  0
ARC
  5
116
  8
DRG
 10
565.99153278826952
 20
589.28550297423737
 30
0.0
 40
10.0
 50
333.37386549359678
 51
216.16873850474559
  0
ARC
  5
117
  8
DRG
 10
565.99153278826952
 20
443.08550297423739
 30
0.0
 40
131.0
 50
99.222972183164643
 51
35.777027816835357
  0
ARC
  5
118
  8
DRG
 10
565.99153278826952
 20
443.08550297423739
 30
0.0
 40
142.0
 50
45.0
 51
90.0
  0
ARC
  5
119
  8
DRG
 10
652.25856009302834
 20
529.35253027899626
 30
0.0
 40
20.0
 50
344.31903398619642
 51
45.0
  0
ARC
  5
11A
  8
DRG
 10
676.32809980106776
 20
522.59551479558127
 30
0.0
 40
5.0
 50
164.3190339861961
 51
215.77702781683519
  0
ARC
  5
11B
  8
DRG
 10
565.99153278826952
 20
565.08550297423744
 30
0.0
 40
20.0
 50
90.0
 51
150.68096601380361
  0
ARC
  5
11C
  8
DRG
 10
544.19386657177074
 20
577.32730625292584
 30
0.0
 40
5.0
 50
279.22297218316447
 51
330.68096601380353
  0
LINE
  5
11D
  8
CRS
  6
CENTRE
 10
601.91255727254611
 20
484.97547473055778
 30
0.0
 11
601.91255727254611
 21
473.03758018647011
 31
0.0
  0
LINE
  5
11E
  8
CRS
  6
CENTRE
 10
594.92580270988958
 20
479.00652745851397
 30
0.0
 11
608.89931183520275
 21
479.00652745851397
 31
0.0
  0
ARC
  5
11F
  8
DRG
 10
529.92908694775576
 20
479.14794881475098
 30
0.0
 40
11.5
 50
43.555415538933133
 51
226.444584461067
  0
ARC
  5
120
  8
DRG
 10
565.99153278826964
 20
443.08550297423739
 30
0.0
 40
47.5
 50
154.0867183147125
 51
205.91328168528739
  0
ARC
  5
121
  8
DRG
 10
517.870610030742
 20
466.46555414963183
 30
0.0
 40
6.0
 50
334.08671831465682
 51
46.444584461067038
  0
ARC
  5
122
  8
DRG
 10
542.61148161287508
 20
491.2064257317648
 30
0.0
 40
6.0
 50
223.55541553893289
 51
295.91328168529458
  0
ARC
  5
123
  8
DRG
 10
602.05397862878306
 20
479.14794881475098
 30
0.0
 40
11.5
 50
313.55541553893289
 51
136.4445844610668
  0
ARC
  5
124
  8
DRG
 10
589.37158396366385
 20
491.2064257317648
 30
0.0
 40
6.0
 50
244.08671831470539
 51
316.444584461067
  0
ARC
  5
125
  8
DRG
 10
614.11245554579682
 20
466.46555414963183
 30
0.0
 40
6.0
 50
133.55541553893289
 51
205.9132816853361
  0
ARC
  5
126
  8
DRG
 10
565.99153278826964
 20
443.08550297423739
 30
0.0
 40
47.5
 50
64.086718314705664
 51
115.91328168529461
  0
ARC
  5
127
  8
DRG
 10
589.37158396366385
 20
394.96458021670981
 30
0.0
 40
6.0
 50
43.555415538932976
 51
115.91328168529451
  0
ARC
  5
128
  8
DRG
 10
602.05397862878306
 20
407.02305713372368
 30
0.0
 40
11.5
 50
223.55541553893309
 51
46.444584461067059
  0
ARC
  5
129
  8
DRG
 10
614.11245554579682
 20
419.70545179884289
 30
0.0
 40
6.0
 50
154.0867183146708
 51
226.444584461067
  0
ARC
  5
12A
  8
DRG
 10
529.92908694775576
 20
407.02305713372368
 30
0.0
 40
11.5
 50
133.55541553893289
 51
316.44458446106682
  0
ARC
  5
12B
  8
DRG
 10
542.61148161287508
 20
394.96458021670981
 30
0.0
 40
6.0
 50
64.086718314705436
 51
136.444584461067
  0
ARC
  5
12C
  8
DRG
 10
517.870610030742
 20
419.70545179884289
 30
0.0
 40
6.0
 50
313.555415538933
 51
25.913281685336159
  0
ARC
  5
12D
  8
DRG
 10
565.99153278826964
 20
443.08550297423739
 30
0.0
 40
47.5
 50
244.08671831470531
 51
295.91328168529418
  0
ARC
  5
12E
  8
DRG
 10
565.99153278826964
 20
443.08550297423739
 30
0.0
 40
47.5
 50
334.0867183147123
 51
25.913281685287672
  0
ARC
  5
12F
  8
DRG
 10
565.99153278826964
 20
443.08550297423739
 30
0.0
 40
102.4999999999999
 50
142.36588582896471
 51
217.63411417103529
  0
LINE
  5
130
  8
DRG
 10
529.06797380368596
 20
490.61566367661908
 30
0.0
 11
502.92086199128198
 21
516.76277548902306
 31
0.0
  0
LINE
  5
131
  8
DRG
 10
518.46137208588777
 20
480.00906195882101
 30
0.0
 11
492.3142602734838
 21
506.15617377122481
 31
0.0
  0
ARC
  5
132
  8
DRG
 10
488.77872636755109
 20
502.62063986529211
 30
0.0
 40
5.0
 50
45.0
 51
142.36588582896459
  0
ARC
  5
133
  8
DRG
 10
506.45639589721469
 20
520.29830939495582
 30
0.0
 40
5.0
 50
127.63411417103531
 51
225.0
  0
ARC
  5
134
  8
DRG
 10
643.20433920898813
 20
502.62063986529211
 30
0.0
 40
5.0
 50
37.634114171035357
 51
135.0
  0
LINE
  5
135
  8
DRG
 10
613.5216934906515
 20
480.00906195882101
 30
0.0
 11
639.66880530305548
 21
506.15617377122481
 31
0.0
  0
ARC
  5
136
  8
DRG
 10
625.52666967932453
 20
520.29830939495582
 30
0.0
 40
5.0
 50
315.0
 51
52.365885828964622
  0
LINE
  5
137
  8
DRG
 10
602.91509177285309
 20
490.61566367661908
 30
0.0
 11
629.06220358525729
 21
516.76277548902306
 31
0.0
  0
ARC
  5
138
  8
DRG
 10
565.99153278826964
 20
443.08550297423739
 30
0.0
 40
102.4999999999999
 50
52.365885828964608
 51
127.63411417103541
  0
LINE
  5
139
  8
DRG
 10
529.06797380368596
 20
395.55534227185558
 30
0.0
 11
502.92086199128198
 21
369.4082304594516
 31
0.0
  0
LINE
  5
13A
  8
DRG
 10
518.46137208588777
 20
406.16194398965382
 30
0.0
 11
492.3142602734838
 21
380.01483217724979
 31
0.0
  0
ARC
  5
13B
  8
DRG
 10
488.77872636755109
 20
383.55036608318261
 30
0.0
 40
5.0
 50
217.63411417103529
 51
315.0
  0
ARC
  5
13C
  8
DRG
 10
506.45639589721469
 20
365.87269655351889
 30
0.0
 40
5.0
 50
135.0
 51
232.36588582896459
  0
LINE
  5
13D
  8
DRG
 10
602.91509177285309
 20
395.55534227185558
 30
0.0
 11
629.06220358525729
 21
369.4082304594516
 31
0.0
  0
LINE
  5
13E
  8
DRG
 10
613.5216934906515
 20
406.16194398965382
 30
0.0
 11
639.66880530305548
 21
380.01483217724979
 31
0.0
  0
ARC
  5
13F
  8
DRG
 10
643.20433920898813
 20
383.55036608318261
 30
0.0
 40
5.0
 50
225.0
 51
322.36588582896462
  0
ARC
  5
140
  8
DRG
 10
625.52666967932453
 20
365.87269655351889
 30
0.0
 40
5.0
 50
307.63411417103532
 51
45.0
  0
ARC
  5
141
  8
DRG
 10
565.99153278826964
 20
443.08550297423739
 30
0.0
 40
102.4999999999999
 50
322.36588582896462
 51
37.634114171035343
  0
ARC
  5
142
  8
DRG
 10
565.99153278826964
 20
443.08550297423739
 30
0.0
 40
102.4999999999999
 50
232.36588582896459
 51
307.63411417103532
  0
CIRCLE
  5
143
  8
DRG2
 10
520.07153278826945
 20
553.95188020376554
 30
0.0
 40
6.4999998000000003
  0
CIRCLE
  5
144
  8
DRG2
 10
520.07153278826945
 20
553.95188020376531
 30
0.0
 40
5.9867932928637497
  0
POLYLINE
  5
145
  8
DRG2
 66
     1
 10
0.0
 20
0.0
 30
0.0
 70
     1
  0
VERTEX
  5
DB0
  8
DRG2
 10
518.33948198070073
 20
556.95188020376554
 30
0.0
  0
VERTEX
  5
DB1
  8
DRG2
 10
516.60743117313177
 20
553.95188020376554
 30
0.0
  0
VERTEX
  5
DB2
  8
DRG2
 10
518.33948198070073
 20
550.95188020376554
 30
0.0
  0
VERTEX
  5
DB3
  8
DRG2
 10
521.80358359583829
 20
550.95188020376554
 30
0.0
  0
VERTEX
  5
DB4
  8
DRG2
 10
523.53563440340724
 20
553.95188020376554
 30
0.0
  0
VERTEX
  5
DB5
  8
DRG2
 10
521.80358359583829
 20
556.95188020376554
 30
0.0
  0
SEQEND
  5
DB6
  8
DRG2
  0
POLYLINE
  5
14D
  8
CRS
 66
     1
 10
0.0
 20
0.0
 30
0.0
  0
VERTEX
  5
DB7
  8
CRS
 10
520.07153278826945
 20
561.39559034628542
 30
0.0
  0
VERTEX
  5
DB8
  8
CRS
 10
520.07153278826945
 20
553.95188020376531
 30
0.0
  0
VERTEX
  5
DB9
  8
CRS
 10
520.07153278826945
 20
546.65370694584794
 30
0.0
  0
SEQEND
  5
DBA
  8
CRS
  0
POLYLINE
  5
152
  8
CRS
 66
     1
 10
0.0
 20
0.0
 30
0.0
  0
VERTEX
  5
DBB
  8
CRS
 10
527.10984001889176
 20
553.95188020376531
 30
0.0
  0
VERTEX
  5
DBC
  8
CRS
 10
520.07153278826945
 20
553.95188020376531
 30
0.0
  0
VERTEX
  5
DBD
  8
CRS
 10
512.63488637000285
 20
553.95188020376531
 30
0.0
  0
SEQEND
  5
DBE
  8
CRS
  0
POLYLINE
  5
157
  8
CRS
 66
     1
 10
0.0
 20
0.0
 30
0.0
  0
VERTEX
  5
DBF
  8
CRS
 10
455.12682225159801
 20
496.04783395735859
 30
0.0
  0
VERTEX
  5
DC0
  8
CRS
 10
455.1268222515979
 20
489.00952672673623
 30
0.0
  0
VERTEX
  5
DC1
  8
CRS
 10
455.1268222515979
 20
481.57288030846962
 30
0.0
  0
SEQEND
  5
DC2
  8
CRS
  0
POLYLINE
  5
15C
  8
CRS
 66
     1
 10
0.0
 20
0.0
 30
0.0
  0
VERTEX
  5
DC3
  8
CRS
 10
447.68311210907791
 20
489.00952672673628
 30
0.0
  0
VERTEX
  5
DC4
  8
CRS
 10
455.1268222515979
 20
489.00952672673611
 30
0.0
  0
VERTEX
  5
DC5
  8
CRS
 10
462.42499550951533
 20
489.00952672673623
 30
0.0
  0
SEQEND
  5
DC6
  8
CRS
  0
CIRCLE
  5
161
  8
DRG2
 10
455.12682225159801
 20
489.00952672673623
 30
0.0
 40
5.9867932928637497
  0
CIRCLE
  5
162
  8
DRG2
 10
455.12682225159801
 20
489.0095267267364
 30
0.0
 40
6.4999998000000003
  0
POLYLINE
  5
163
  8
DRG2
 66
     1
 10
0.0
 20
0.0
 30
0.0
 70
     1
  0
VERTEX
  5
DC7
  8
DRG2
 10
452.12682225159779
 20
487.2774759191675
 30
0.0
  0
VERTEX
  5
DC8
  8
DRG2
 10
455.12682225159779
 20
485.54542511159849
 30
0.0
  0
VERTEX
  5
DC9
  8
DRG2
 10
458.12682225159779
 20
487.2774759191675
 30
0.0
  0
VERTEX
  5
DCA
  8
DRG2
 10
458.12682225159779
 20
490.74157753430518
 30
0.0
  0
VERTEX
  5
DCB
  8
DRG2
 10
455.12682225159779
 20
492.47362834187408
 30
0.0
  0
VERTEX
  5
DCC
  8
DRG2
 10
452.12682225159779
 20
490.74157753430518
 30
0.0
  0
SEQEND
  5
DCD
  8
DRG2
  0
POLYLINE
  5
16B
  8
CRS
 66
     1
 10
0.0
 20
0.0
 30
0.0
  0
VERTEX
  5
DCE
  8
CRS
 10
455.12515555874148
 20
404.20381020485968
 30
0.0
  0
VERTEX
  5
DCF
  8
CRS
 10
455.12515555874148
 20
397.16550297423743
 30
0.0
  0
VERTEX
  5
DD0
  8
CRS
 10
455.12515555874148
 20
389.72885655597082
 30
0.0
  0
SEQEND
  5
DD1
  8
CRS
  0
POLYLINE
  5
170
  8
CRS
 66
     1
 10
0.0
 20
0.0
 30
0.0
  0
VERTEX
  5
DD2
  8
CRS
 10
447.68144541622149
 20
397.16550297423743
 30
0.0
  0
VERTEX
  5
DD3
  8
CRS
 10
455.12515555874148
 20
397.16550297423731
 30
0.0
  0
VERTEX
  5
DD4
  8
CRS
 10
462.42332881665891
 20
397.16550297423731
 30
0.0
  0
SEQEND
  5
DD5
  8
CRS
  0
CIRCLE
  5
175
  8
DRG2
 10
455.12515555874148
 20
397.16550297423731
 30
0.0
 40
5.9867932928637497
  0
CIRCLE
  5
176
  8
DRG2
 10
455.12515555874143
 20
397.16550297423743
 30
0.0
 40
6.4999998000000003
  0
POLYLINE
  5
177
  8
DRG2
 66
     1
 10
0.0
 20
0.0
 30
0.0
 70
     1
  0
VERTEX
  5
DD6
  8
DRG2
 10
452.12515555874143
 20
395.43345216666859
 30
0.0
  0
VERTEX
  5
DD7
  8
DRG2
 10
455.12515555874143
 20
393.70140135909958
 30
0.0
  0
VERTEX
  5
DD8
  8
DRG2
 10
458.12515555874143
 20
395.43345216666859
 30
0.0
  0
VERTEX
  5
DD9
  8
DRG2
 10
458.12515555874143
 20
398.89755378180621
 30
0.0
  0
VERTEX
  5
DDA
  8
DRG2
 10
455.12515555874143
 20
400.62960458937522
 30
0.0
  0
VERTEX
  5
DDB
  8
DRG2
 10
452.12515555874143
 20
398.89755378180621
 30
0.0
  0
SEQEND
  5
DDC
  8
DRG2
  0
POLYLINE
  5
17F
  8
CRS
 66
     1
 10
0.0
 20
0.0
 30
0.0
  0
VERTEX
  5
DDD
  8
CRS
 10
513.02920180514798
 20
332.22079243756582
 30
0.0
  0
VERTEX
  5
DDE
  8
CRS
 10
520.06750903577029
 20
332.22079243756582
 30
0.0
  0
VERTEX
  5
DDF
  8
CRS
 10
527.50415545403689
 20
332.22079243756588
 30
0.0
  0
SEQEND
  5
DE0
  8
CRS
  0
POLYLINE
  5
184
  8
CRS
 66
     1
 10
0.0
 20
0.0
 30
0.0
  0
VERTEX
  5
DE1
  8
CRS
 10
520.06750903577029
 20
324.77708229504577
 30
0.0
  0
VERTEX
  5
DE2
  8
CRS
 10
520.06750903577029
 20
332.22079243756588
 30
0.0
  0
VERTEX
  5
DE3
  8
CRS
 10
520.0675090357704
 20
339.5189656954833
 30
0.0
  0
SEQEND
  5
DE4
  8
CRS
  0
CIRCLE
  5
189
  8
DRG2
 10
520.06750903577029
 20
332.22079243756588
 30
0.0
 40
5.9867932928637497
  0
CIRCLE
  5
18A
  8
DRG2
 10
520.06750903577029
 20
332.22079243756582
 30
0.0
 40
6.4999998000000003
  0
POLYLINE
  5
18B
  8
DRG2
 66
     1
 10
0.0
 20
0.0
 30
0.0
 70
     1
  0
VERTEX
  5
DE5
  8
DRG2
 10
521.79955984333924
 20
329.22079243756582
 30
0.0
  0
VERTEX
  5
DE6
  8
DRG2
 10
523.53161065090796
 20
332.22079243756582
 30
0.0
  0
VERTEX
  5
DE7
  8
DRG2
 10
521.79955984333924
 20
335.22079243756582
 30
0.0
  0
VERTEX
  5
DE8
  8
DRG2
 10
518.33545822820145
 20
335.22079243756582
 30
0.0
  0
VERTEX
  5
DE9
  8
DRG2
 10
516.60340742063249
 20
332.22079243756582
 30
0.0
  0
VERTEX
  5
DEA
  8
DRG2
 10
518.33545822820145
 20
329.22079243756571
 30
0.0
  0
SEQEND
  5
DEB
  8
DRG2
  0
POLYLINE
  5
193
  8
CRS
 66
     1
 10
0.0
 20
0.0
 30
0.0
  0
VERTEX
  5
DEC
  8
CRS
 10
604.87322555764717
 20
332.21912574470929
 30
0.0
  0
VERTEX
  5
DED
  8
CRS
 10
611.91153278826948
 20
332.21912574470929
 30
0.0
  0
VERTEX
  5
DEE
  8
CRS
 10
619.34817920653609
 20
332.21912574470929
 30
0.0
  0
SEQEND
  5
DEF
  8
CRS
  0
POLYLINE
  5
198
  8
CRS
 66
     1
 10
0.0
 20
0.0
 30
0.0
  0
VERTEX
  5
DF0
  8
CRS
 10
611.91153278826948
 20
324.77541560218941
 30
0.0
  0
VERTEX
  5
DF1
  8
CRS
 10
611.91153278826948
 20
332.21912574470929
 30
0.0
  0
VERTEX
  5
DF2
  8
CRS
 10
611.91153278826948
 20
339.51729900262671
 30
0.0
  0
SEQEND
  5
DF3
  8
CRS
  0
CIRCLE
  5
19D
  8
DRG2
 10
611.91153278826948
 20
332.21912574470929
 30
0.0
 40
5.9867932928637497
  0
CIRCLE
  5
19E
  8
DRG2
 10
611.91153278826948
 20
332.21912574470929
 30
0.0
 40
6.4999998000000003
  0
POLYLINE
  5
19F
  8
DRG2
 66
     1
 10
0.0
 20
0.0
 30
0.0
 70
     1
  0
VERTEX
  5
DF4
  8
DRG2
 10
613.64358359583832
 20
329.21912574470917
 30
0.0
  0
VERTEX
  5
DF5
  8
DRG2
 10
615.37563440340716
 20
332.21912574470929
 30
0.0
  0
VERTEX
  5
DF6
  8
DRG2
 10
613.64358359583832
 20
335.21912574470917
 30
0.0
  0
VERTEX
  5
DF7
  8
DRG2
 10
610.17948198070064
 20
335.21912574470917
 30
0.0
  0
VERTEX
  5
DF8
  8
DRG2
 10
608.44743117313169
 20
332.21912574470929
 30
0.0
  0
VERTEX
  5
DF9
  8
DRG2
 10
610.17948198070064
 20
329.21912574470917
 30
0.0
  0
SEQEND
  5
DFA
  8
DRG2
  0
POLYLINE
  5
1A7
  8
CRS
 66
     1
 10
0.0
 20
0.0
 30
0.0
  0
VERTEX
  5
DFB
  8
CRS
 10
676.85624332494069
 20
390.12317199111612
 30
0.0
  0
VERTEX
  5
DFC
  8
CRS
 10
676.85624332494081
 20
397.16147922173849
 30
0.0
  0
VERTEX
  5
DFD
  8
CRS
 10
676.85624332494058
 20
404.59812564000498
 30
0.0
  0
SEQEND
  5
DFE
  8
CRS
  0
POLYLINE
  5
1AC
  8
CRS
 66
     1
 10
0.0
 20
0.0
 30
0.0
  0
VERTEX
  5
DFF
  8
CRS
 10
684.2999534674608
 20
397.16147922173838
 30
0.0
  0
VERTEX
  5
E00
  8
CRS
 10
676.85624332494069
 20
397.1614792217386
 30
0.0
  0
VERTEX
  5
E01
  8
CRS
 10
669.55807006702332
 20
397.1614792217386
 30
0.0
  0
SEQEND
  5
E02
  8
CRS
  0
CIRCLE
  5
1B1
  8
DRG2
 10
676.85624332494081
 20
397.16147922173838
 30
0.0
 40
5.9867932928637497
  0
CIRCLE
  5
1B2
  8
DRG2
 10
676.85624332494081
 20
397.16147922173832
 30
0.0
 40
6.4999998000000003
  0
POLYLINE
  5
1B3
  8
DRG2
 66
     1
 10
0.0
 20
0.0
 30
0.0
 70
     1
  0
VERTEX
  5
E03
  8
DRG2
 10
679.85624332494092
 20
398.89353002930733
 30
0.0
  0
VERTEX
  5
E04
  8
DRG2
 10
676.85624332494081
 20
400.62558083687628
 30
0.0
  0
VERTEX
  5
E05
  8
DRG2
 10
673.85624332494092
 20
398.89353002930733
 30
0.0
  0
VERTEX
  5
E06
  8
DRG2
 10
673.85624332494069
 20
395.42942841416948
 30
0.0
  0
VERTEX
  5
E07
  8
DRG2
 10
676.85624332494081
 20
393.69737760660058
 30
0.0
  0
VERTEX
  5
E08
  8
DRG2
 10
679.85624332494081
 20
395.42942841416959
 30
0.0
  0
SEQEND
  5
E09
  8
DRG2
  0
POLYLINE
  5
1BB
  8
CRS
 66
     1
 10
0.0
 20
0.0
 30
0.0
  0
VERTEX
  5
E0A
  8
CRS
 10
676.85791001779751
 20
481.96719574361498
 30
0.0
  0
VERTEX
  5
E0B
  8
CRS
 10
676.85791001779751
 20
489.00550297423729
 30
0.0
  0
VERTEX
  5
E0C
  8
CRS
 10
676.85791001779751
 20
496.44214939250389
 30
0.0
  0
SEQEND
  5
E0D
  8
CRS
  0
POLYLINE
  5
1C0
  8
CRS
 66
     1
 10
0.0
 20
0.0
 30
0.0
  0
VERTEX
  5
E0E
  8
CRS
 10
684.3016201603175
 20
489.00550297423729
 30
0.0
  0
VERTEX
  5
E0F
  8
CRS
 10
676.85791001779751
 20
489.00550297423752
 30
0.0
  0
VERTEX
  5
E10
  8
CRS
 10
669.55973675988014
 20
489.00550297423752
 30
0.0
  0
SEQEND
  5
E11
  8
CRS
  0
CIRCLE
  5
1C5
  8
DRG2
 10
676.85791001779751
 20
489.00550297423752
 30
0.0
 40
5.9867932928637497
  0
CIRCLE
  5
1C6
  8
DRG2
 10
676.85791001779762
 20
489.00550297423729
 30
0.0
 40
6.4999998000000003
  0
POLYLINE
  5
1C7
  8
DRG2
 66
     1
 10
0.0
 20
0.0
 30
0.0
 70
     1
  0
VERTEX
  5
E12
  8
DRG2
 10
679.85791001779762
 20
490.73755378180618
 30
0.0
  0
VERTEX
  5
E13
  8
DRG2
 10
676.85791001779762
 20
492.46960458937508
 30
0.0
  0
VERTEX
  5
E14
  8
DRG2
 10
673.85791001779762
 20
490.73755378180618
 30
0.0
  0
VERTEX
  5
E15
  8
DRG2
 10
673.85791001779762
 20
487.27345216666851
 30
0.0
  0
VERTEX
  5
E16
  8
DRG2
 10
676.85791001779762
 20
485.5414013590995
 30
0.0
  0
VERTEX
  5
E17
  8
DRG2
 10
679.85791001779762
 20
487.27345216666851
 30
0.0
  0
SEQEND
  5
E18
  8
DRG2
  0
POLYLINE
  5
1CF
  8
CRS
 66
     1
 10
0.0
 20
0.0
 30
0.0
  0
VERTEX
  5
E19
  8
CRS
 10
618.95386377139062
 20
553.95021351090872
 30
0.0
  0
VERTEX
  5
E1A
  8
CRS
 10
611.91555654076842
 20
553.95021351090872
 30
0.0
  0
VERTEX
  5
E1B
  8
CRS
 10
604.47891012250182
 20
553.95021351090872
 30
0.0
  0
SEQEND
  5
E1C
  8
CRS
  0
POLYLINE
  5
1D4
  8
CRS
 66
     1
 10
0.0
 20
0.0
 30
0.0
  0
VERTEX
  5
E1D
  8
CRS
 10
611.91555654076831
 20
561.39392365342883
 30
0.0
  0
VERTEX
  5
E1E
  8
CRS
 10
611.91555654076831
 20
553.95021351090872
 30
0.0
  0
VERTEX
  5
E1F
  8
CRS
 10
611.91555654076831
 20
546.65204025299147
 30
0.0
  0
SEQEND
  5
E20
  8
CRS
  0
CIRCLE
  5
1D9
  8
DRG2
 10
611.91555654076831
 20
553.95021351090872
 30
0.0
 40
5.9867932928637497
  0
CIRCLE
  5
1DA
  8
DRG2
 10
611.91555654076853
 20
553.95021351090872
 30
0.0
 40
6.4999998000000003
  0
POLYLINE
  5
1DB
  8
DRG2
 66
     1
 10
0.0
 20
0.0
 30
0.0
 70
     1
  0
VERTEX
  5
E21
  8
DRG2
 10
610.18350573319935
 20
556.95021351090895
 30
0.0
  0
VERTEX
  5
E22
  8
DRG2
 10
608.4514549256304
 20
553.95021351090895
 30
0.0
  0
VERTEX
  5
E23
  8
DRG2
 10
610.18350573319935
 20
550.95021351090884
 30
0.0
  0
VERTEX
  5
E24
  8
DRG2
 10
613.64760734833715
 20
550.95021351090895
 30
0.0
  0
VERTEX
  5
E25
  8
DRG2
 10
615.37965815590621
 20
553.95021351090895
 30
0.0
  0
VERTEX
  5
E26
  8
DRG2
 10
613.64760734833715
 20
556.95021351090895
 30
0.0
  0
SEQEND
  5
E27
  8
DRG2
  0
LINE
  5
1E3
  8
DRG
 10
280.17677241780899
 20
574.0855029742371
 30
0.0
 11
280.1767724178091
 21
460.05628094146772
 31
0.0
  0
LINE
  5
1E5
  8
HID
 10
280.17677241780899
 20
545.58550297423733
 30
0.0
 11
275.1767724178091
 21
545.58550297423744
 31
0.0
  0
LINE
  5
1E6
  8
DRG
 10
292.07677241780908
 20
490.58550297423722
 30
0.0
 11
292.07677241780908
 21
395.58550297423739
 31
0.0
  0
LINE
  5
1E7
  8
DRG
 10
292.07677241780908
 20
490.58550297423727
 30
0.0
 11
280.17677241780927
 21
490.58550297423727
 31
0.0
  0
ARC
  5
1E8
  8
HID
 10
275.1767724178091
 20
540.58550297423744
 30
0.0
 40
5.0
 50
89.999999999999673
 51
180.0
  0
ARC
  5
1E9
  8
HID
 10
275.1767724178091
 20
495.58550297423722
 30
0.0
 40
5.0
 50
180.0
 51
270.00000000000023
  0
LINE
  5
1EA
  8
DRG
 10
280.17677241780899
 20
574.08550297423744
 30
0.0
 11
270.17677241780899
 21
574.08550297423744
 31
0.0
  0
LINE
  5
1EB
  8
HID
 10
280.17677241780927
 20
395.58550297423739
 30
0.0
 11
275.17677241780922
 21
395.58550297423739
 31
0.0
  0
LINE
  5
1ED
  8
HID
 10
280.17677241780899
 20
340.58550297423739
 30
0.0
 11
275.1767724178091
 21
340.58550297423727
 31
0.0
  0
ARC
  5
1EE
  8
HID
 10
275.1767724178091
 20
390.58550297423739
 30
0.0
 40
5.0
 50
89.999999999999687
 51
179.99999999999989
  0
ARC
  5
1EF
  8
HID
 10
275.1767724178091
 20
345.58550297423739
 30
0.0
 40
5.0
 50
179.99999999999989
 51
270.00000000000023
  0
LINE
  5
1F1
  8
HID
 10
275.17677241780899
 20
470.52550297423738
 30
0.0
 11
259.17677241780899
 21
470.52550297423738
 31
0.0
  0
LINE
  5
1F2
  8
HID
 10
280.67677241780899
 20
480.83550297423727
 30
0.0
 11
280.17677241780899
 21
481.33550297423739
 31
0.0
  0
LINE
  5
1F3
  8
HID
 10
275.67677241780899
 20
481.33550297423739
 30
0.0
 11
275.17677241780899
 21
480.83550297423727
 31
0.0
  0
LINE
  5
1F4
  8
HID
 10
280.17677241780899
 20
481.33550297423739
 30
0.0
 11
275.67677241780899
 21
481.33550297423739
 31
0.0
  0
LINE
  5
1F5
  8
HID
 10
280.67677241780899
 20
470.52550297423738
 30
0.0
 11
280.67677241780899
 21
480.83550297423727
 31
0.0
  0
LINE
  5
1F6
  8
HID
 10
275.17677241780899
 20
480.83550297423727
 30
0.0
 11
275.17677241780899
 21
470.52550297423738
 31
0.0
  0
LINE
  5
1F7
  8
HID
 10
286.17677241780899
 20
470.52550297423738
 30
0.0
 11
280.67677241780899
 21
470.52550297423738
 31
0.0
  0
LINE
  5
1F8
  8
HID
 10
236.95677241780899
 20
417.09050297423738
 30
0.0
 11
236.95677241780899
 21
423.08550297423727
 31
0.0
  0
LINE
  5
1F9
  8
HID
 10
259.17677241780899
 20
415.61050297423742
 30
0.0
 11
254.67677241780899
 21
415.61050297423742
 31
0.0
  0
LINE
  5
1FA
  8
HID
 10
249.17677241780899
 20
415.9955029742373
 30
0.0
 11
237.45677241780919
 21
415.9955029742373
 31
0.0
  0
LINE
  5
1FB
  8
HID
 10
249.17677241780899
 20
417.09050297423738
 30
0.0
 11
236.95677241780899
 21
417.09050297423738
 31
0.0
  0
LINE
  5
1FC
  8
HID
 10
236.95677241780919
 20
416.4955029742373
 30
0.0
 11
236.95677241780899
 21
417.09050297423738
 31
0.0
  0
LINE
  5
1FD
  8
HID
 10
237.45677241780919
 20
415.9955029742373
 30
0.0
 11
236.95677241780919
 21
416.4955029742373
 31
0.0
  0
LINE
  5
1FE
  8
HID
 10
254.67677241780899
 20
415.61050297423742
 30
0.0
 11
253.17677241780899
 21
416.01050297423728
 31
0.0
  0
LINE
  5
1FF
  8
HID
 10
253.17677241780899
 20
416.01050297423728
 30
0.0
 11
253.17677241780899
 21
417.33550297423739
 31
0.0
  0
LINE
  5
200
  8
HID
 10
249.17677241780899
 20
415.9955029742373
 30
0.0
 11
249.17677241780899
 21
417.09050297423738
 31
0.0
  0
LINE
  5
201
  8
HID
 10
249.17677241780899
 20
417.33550297423739
 30
0.0
 11
249.17677241780899
 21
415.9955029742373
 31
0.0
  0
LINE
  5
202
  8
HID
 10
253.17677241780899
 20
417.33550297423739
 30
0.0
 11
249.17677241780899
 21
417.33550297423739
 31
0.0
  0
LINE
  5
203
  8
DIM
 10
242.95677241780919
 20
454.78216762850451
 30
0.0
 11
285.45677241780902
 21
454.78216762850451
 31
0.0
  0
LINE
  5
204
  8
HID
 10
259.17677241780899
 20
470.56050297423741
 30
0.0
 11
254.67677241780899
 21
470.56050297423741
 31
0.0
  0
LINE
  5
205
  8
HID
 10
236.95677241780919
 20
469.08050297423739
 30
0.0
 11
236.95677241780919
 21
463.08550297423739
 31
0.0
  0
POLYLINE
  5
206
  8
HID
 66
     1
 10
0.0
 20
0.0
 30
0.0
  0
VERTEX
  5
E28
  8
HID
 10
236.95677241780919
 20
423.08550297423727
 30
0.0
  0
VERTEX
  5
E29
  8
HID
 10
236.95677241780919
 20
463.08550297423739
 30
0.0
  0
SEQEND
  5
E2A
  8
HID
  0
SOLID
  5
20A
  8
DIM
 10
242.95677241780919
 20
455.78216762850451
 30
0.0
 11
242.95677241780919
 21
453.7821676285044
 31
0.0
 12
236.95677241780919
 22
454.78216762850451
 32
0.0
 13
236.95677241780919
 23
454.78216762850451
 33
0.0
  0
LINE
  5
20B
  8
HID
 10
249.17677241780899
 20
470.17550297423742
 30
0.0
 11
237.45677241780919
 21
470.17550297423742
 31
0.0
  0
LINE
  5
20C
  8
HID
 10
249.17677241780899
 20
469.08050297423739
 30
0.0
 11
236.95677241780899
 21
469.08050297423739
 31
0.0
  0
LINE
  5
20D
  8
HID
 10
237.45677241780919
 20
470.17550297423742
 30
0.0
 11
236.95677241780919
 21
469.67550297423742
 31
0.0
  0
LINE
  5
20E
  8
HID
 10
236.95677241780919
 20
469.67550297423742
 30
0.0
 11
236.95677241780919
 21
469.08050297423739
 31
0.0
  0
LINE
  5
20F
  8
HID
 10
254.67677241780899
 20
470.56050297423741
 30
0.0
 11
253.17677241780899
 21
470.16050297423737
 31
0.0
  0
LINE
  5
210
  8
HID
 10
253.17677241780899
 20
470.16050297423737
 30
0.0
 11
253.17677241780899
 21
468.83550297423739
 31
0.0
  0
LINE
  5
211
  8
HID
 10
249.17677241780899
 20
470.17550297423742
 30
0.0
 11
249.17677241780899
 21
469.08050297423739
 31
0.0
  0
LINE
  5
212
  8
HID
 10
249.17677241780899
 20
468.83550297423739
 30
0.0
 11
249.17677241780899
 21
470.17550297423742
 31
0.0
  0
LINE
  5
213
  8
HID
 10
253.17677241780899
 20
468.83550297423739
 30
0.0
 11
249.17677241780899
 21
468.83550297423739
 31
0.0
  0
LINE
  5
214
  8
HID
 10
275.17677241780899
 20
415.64550297423739
 30
0.0
 11
259.17677241780899
 21
415.64550297423739
 31
0.0
  0
LINE
  5
215
  8
HID
 10
280.67677241780899
 20
415.64550297423739
 30
0.0
 11
280.67677241780899
 21
405.33550297423739
 31
0.0
  0
LINE
  5
216
  8
HID
 10
275.17677241780899
 20
405.33550297423739
 30
0.0
 11
275.17677241780899
 21
415.64550297423739
 31
0.0
  0
LINE
  5
217
  8
HID
 10
291.45677241780908
 20
415.64550297423739
 30
0.0
 11
280.67677241780899
 21
415.64550297423739
 31
0.0
  0
LINE
  5
218
  8
HID
 10
291.45677241780908
 20
415.64550297423739
 30
0.0
 11
291.45677241780902
 21
470.06050297423741
 31
0.0
  0
LINE
  5
219
  8
HID
 10
290.95677241780902
 20
470.56050297423741
 30
0.0
 11
286.17677241780899
 21
470.56050297423741
 31
0.0
  0
TEXT
  5
21A
  8
DIM
 10
260.04010575114228
 20
457.28216762850451
 30
0.0
 40
5.0
  1
54
 72
     1
 11
264.20677241780902
 21
459.78216762850451
 31
0.0
 73
     2
  0
SOLID
  5
21B
  8
DIM
 10
285.45677241780902
 20
455.78216762850451
 30
0.0
 11
285.45677241780902
 21
453.7821676285044
 31
0.0
 12
291.45677241780902
 22
454.78216762850451
 32
0.0
 13
291.45677241780902
 23
454.78216762850451
 33
0.0
  0
LINE
  5
21C
  8
CRS
 10
298.80151763204123
 20
443.08550297423739
 30
0.0
 11
195.644822852619
 21
443.08550297423739
 31
0.0
  0
LINE
  5
22A
  8
CRS
 10
289.63380445594049
 20
553.99307562139927
 30
0.0
 11
279.162087880115
 21
553.99307562139927
 31
0.0
  0
LINE
  5
22B
  8
DRG2
 10
280.17677241780899
 20
547.49327562139968
 30
0.0
 11
287.176972417809
 21
547.49327562139968
 31
0.0
  0
LINE
  5
22C
  8
DRG2
 10
287.176972417809
 20
547.49327562139968
 30
0.0
 11
288.17597241780919
 21
548.49287562139909
 31
0.0
  0
LINE
  5
22D
  8
DRG2
 10
288.17597241780919
 20
548.49287562139909
 30
0.0
 11
288.17597241780919
 21
559.49327562139979
 31
0.0
  0
LINE
  5
22E
  8
DRG2
 10
288.17597241780919
 20
559.49327562139979
 30
0.0
 11
287.176972417809
 21
560.49287562139921
 31
0.0
  0
LINE
  5
22F
  8
DRG2
 10
287.176972417809
 20
560.49287562139921
 30
0.0
 11
280.17677241780899
 21
560.49287562139921
 31
0.0
  0
LINE
  5
231
  8
CRS
 10
588.9145546789531
 20
589.28550297423737
 30
0.0
 11
541.84885067366713
 21
589.28550297423737
 31
0.0
  0
LINE
  5
232
  8
DRG
 10
623.32432551580496
 20
664.27592066465513
 30
0.0
 11
658.27254480321994
 21
551.01239870230233
 31
0.0
  0
LINE
  5
233
  8
DRG
 10
508.65874006073392
 20
664.27592066465513
 30
0.0
 11
466.81839508406182
 21
528.67574048940173
 31
0.0
  0
ARC
  5
234
  8
DRG
 10
565.99153278826952
 20
646.58550297423744
 30
0.0
 40
60.0
 50
17.147961001334661
 51
31.90091629294491
  0
ARC
  5
235
  8
DRG
 10
565.99153278826952
 20
646.58550297423744
 30
0.0
 40
60.0
 50
58.099083707055087
 51
121.9009162929449
  0
ARC
  5
236
  8
DRG
 10
565.99153278826952
 20
646.58550297423744
 30
0.0
 40
60.0
 50
148.099083707055
 51
162.85203899866531
  0
ARC
  5
237
  8
DRG
 10
565.99153278826952
 20
581.28550297423737
 30
0.0
 40
20.0
 50
28.955024371860091
 51
151.04497562814001
  0
LINE
  5
238
  8
DIM
 10
294.95177241780908
 20
411.98918489350262
 30
0.0
 11
294.95177241780908
 21
249.15704141855559
 31
0.0
  0
LINE
  5
239
  8
CRS
 10
708.61398163095976
 20
443.08550297423739
 30
0.0
 11
424.29610167061691
 21
443.08550297423739
 31
0.0
  0
CIRCLE
  5
23A
  8
DRG
 10
565.99153278826952
 20
443.08550297423739
 30
0.0
 40
27.550000000000001
  0
CIRCLE
  5
23B
  8
DRG
 10
565.99153278826952
 20
443.08550297423739
 30
0.0
 40
42.5
  0
LINE
  5
23C
  8
DIM
 10
626.49103954446832
 20
427.39921334741513
 30
0.0
 11
433.4937965052506
 21
477.43946679429428
 31
0.0
  0
SOLID
  5
23D
  8
DIM
 10
620.43210626184577
 20
427.93710504349002
 30
0.0
 11
620.93406752990415
 21
429.87308925968841
 31
0.0
 12
626.49103954447014
 22
427.39921334741422
 32
0.0
 13
626.49103954447014
 23
427.39921334741422
 33
0.0
  0
LINE
  5
23E
  8
DIM
 10
531.47242085301309
 20
452.0356054876209
 30
0.0
 11
505.4920260320693
 21
458.77179260105981
 31
0.0
  0
SOLID
  5
23F
  8
DIM
 10
511.55095931469219
 20
458.23390090498469
 30
0.0
 11
511.04899804663398
 21
456.2979166887863
 31
0.0
 12
505.49202603206771
 22
458.77179260106038
 32
0.0
 13
505.49202603206771
 23
458.77179260106038
 33
0.0
  0
TEXT
  5
240
  8
DIM
 10
334.2274014017529
 20
599.1129244133499
 30
0.0
 40
5.0
  1
8 OFF M8 BASEPLATE SECURING
  0
TEXT
  5
241
  8
DIM
 10
342.00357411587851
 20
581.97006727049279
 30
0.0
 40
5.0
  1
OFFSET FROM CENTRE LINE
  0
TEXT
  5
242
  8
DIM
 10
349.15765240158993
 20
573.54523041877565
 30
0.0
 40
5.0
  1
ON %%c240 (%%c9.45") P.C.
  0
TEXT
  5
243
  8
DIM
 10
335.47159025858082
 20
590.54149584192123
 30
0.0
 40
5.0
  1
SCREWS EQUALLY SPACED 22.5%%d
  0
LINE
  5
247
  8
DRG
 10
292.07677241780931
 20
413.73550297423742
 30
0.0
 11
294.35177241780917
 21
413.73550297423742
 31
0.0
  0
LINE
  5
248
  8
DRG
 10
294.35177241780917
 20
413.73550297423742
 30
0.0
 11
294.95177241780908
 21
414.33550297423739
 31
0.0
  0
LINE
  5
249
  8
DRG
 10
294.95177241780908
 20
414.33550297423727
 30
0.0
 11
294.35177241780917
 21
413.73550297423731
 31
0.0
  0
LINE
  5
24A
  8
DRG
 10
292.07677241780908
 20
413.73550297423731
 30
0.0
 11
294.35177241780917
 21
413.73550297423731
 31
0.0
  0
LINE
  5
24B
  8
HID
 10
275.67677241780899
 20
404.8355029742375
 30
0.0
 11
275.17677241780899
 21
405.3355029742375
 31
0.0
  0
LINE
  5
24C
  8
HID
 10
280.17677241780899
 20
404.8355029742375
 30
0.0
 11
275.67677241780899
 21
404.8355029742375
 31
0.0
  0
LINE
  5
24D
  8
HID
 10
280.67677241780899
 20
405.3355029742375
 30
0.0
 11
280.17677241780899
 21
404.8355029742375
 31
0.0
  0
LINE
  5
24E
  8
CRS
 10
190.4227530066037
 20
683.70860898653189
 30
0.0
 11
176.6424717178418
 21
683.70860898653189
 31
0.0
  0
LINE
  5
24F
  8
CRS
 10
190.4227530066037
 20
609.46239696194436
 30
0.0
 11
176.6424717178418
 21
609.46239696194436
 31
0.0
  0
LINE
  5
260
  8
HID
 10
280.17677241780927
 20
490.58550297423727
 30
0.0
 11
275.1767724178091
 21
490.58550297423722
 31
0.0
  0
LINE
  5
261
  8
DRG
 10
280.1767724178091
 20
395.58550297423739
 30
0.0
 11
292.07677241780908
 21
395.58550297423739
 31
0.0
  0
LINE
  5
262
  8
DIM
 10
440.99153278826952
 20
282.08550297423727
 30
0.0
 11
690.99153278826952
 21
282.08550297423727
 31
0.0
  0
LINE
  5
263
  8
DIM
 10
434.99153278826952
 20
411.64265585407128
 30
0.0
 11
434.99153278826952
 21
347.27039613388672
 31
0.0
  0
LINE
  5
264
  8
DIM
 10
526.12724185405716
 20
404.49388755258337
 30
0.0
 11
438.53281141778558
 21
345.17025445351447
 31
0.0
  0
TEXT
  5
265
  8
DIM
 10
362.97044957400283
 20
338.31331676199551
 30
0.0
 40
5.0
  1
HOLE DETAILS
  0
TEXT
  5
266
  8
DIM
 10
362.97044957400283
 20
346.88474533342401
 30
0.0
 40
5.0
  1
SEE TABLE FOR
  0
SOLID
  5
268
  8
DIM
 10
440.99153278826952
 20
283.08550297423727
 30
0.0
 11
440.99153278826952
 21
281.08550297423727
 31
0.0
 12
434.99153278826952
 22
282.08550297423727
 32
0.0
 13
434.99153278826952
 23
282.08550297423727
 33
0.0
  0
LINE
  5
269
  8
DIM
 10
428.89903415775939
 20
345.17025445351447
 30
0.0
 11
438.53281141778558
 21
345.17025445351447
 31
0.0
  0
TEXT
  5
26A
  8
DIM
 10
557.30105659779326
 20
284.58550297423727
 30
0.0
 40
5.0
  1
%%C262
 72
     1
 11
565.99153278826952
 21
287.08550297423727
 31
0.0
 73
     2
  0
LINE
  5
26B
  8
DIM
 10
696.99153278826952
 20
412.08359614133923
 30
0.0
 11
696.99153278826952
 21
280.08550297423727
 31
0.0
  0
SOLID
  5
26C
  8
DIM
 10
690.99153278826952
 20
283.08550297423727
 30
0.0
 11
690.99153278826952
 21
281.08550297423727
 31
0.0
 12
696.99153278826952
 22
282.08550297423727
 32
0.0
 13
696.99153278826952
 23
282.08550297423727
 33
0.0
  0
SOLID
  5
26D
  8
DIM
 10
520.59859311137996
 20
401.9573459936679
 30
0.0
 11
521.72010111657823
 21
400.30138108030872
 31
0.0
 12
526.12724185405625
 22
404.49388755258269
 32
0.0
 13
526.12724185405625
 23
404.49388755258269
 33
0.0
  0
LINE
  5
2C1
  8
DRG2
 10
188.6517724178089
 20
675.70860898653189
 30
0.0
 11
180.1517724178089
 21
675.70860898653189
 31
0.0
  0
LINE
  5
2C2
  8
DRG2
 10
180.1517724178089
 20
675.70860898653189
 30
0.0
 11
180.1517724178089
 21
691.70860898653189
 31
0.0
  0
LINE
  5
2C3
  8
DRG2
 10
180.1517724178089
 20
691.70860898653189
 30
0.0
 11
188.6517724178089
 21
691.70860898653189
 31
0.0
  0
LINE
  5
2C4
  8
DRG2
 10
188.6517724178089
 20
601.46239696194436
 30
0.0
 11
180.1517724178089
 21
601.46239696194436
 31
0.0
  0
LINE
  5
2C5
  8
DRG2
 10
180.1517724178089
 20
601.46239696194436
 30
0.0
 11
180.1517724178089
 21
617.46239696194436
 31
0.0
  0
LINE
  5
2C6
  8
DRG2
 10
180.1517724178089
 20
617.46239696194436
 30
0.0
 11
188.6517724178089
 21
617.46239696194436
 31
0.0
  0
LINE
  5
2C7
  8
DRG2
 10
180.1517724178089
 20
691.70860898653189
 30
0.0
 11
178.6517724178089
 21
690.208608986532
 31
0.0
  0
LINE
  5
2C8
  8
DRG2
 10
178.6517724178089
 20
690.208608986532
 30
0.0
 11
178.6517724178089
 21
677.208608986532
 31
0.0
  0
LINE
  5
2C9
  8
DRG2
 10
178.6517724178089
 20
677.208608986532
 30
0.0
 11
180.1517724178089
 21
675.70860898653189
 31
0.0
  0
LINE
  5
2CA
  8
DRG2
 10
180.1517724178089
 20
617.46239696194436
 30
0.0
 11
178.6517724178089
 21
615.96239696194448
 31
0.0
  0
LINE
  5
2CB
  8
DRG2
 10
178.6517724178089
 20
615.96239696194448
 30
0.0
 11
178.6517724178089
 21
602.96239696194448
 31
0.0
  0
LINE
  5
2CC
  8
DRG2
 10
178.6517724178089
 20
602.96239696194448
 30
0.0
 11
180.1517724178089
 21
601.46239696194436
 31
0.0
  0
LINE
  5
2D0
  8
DRG2
 10
287.176972417809
 20
547.49327562139968
 30
0.0
 11
287.176972417809
 21
560.49287562139921
 31
0.0
  0
LINE
  5
2D2
  8
DRG
 62
     1
 10
182.65177241780901
 20
675.70860898653189
 30
0.0
 11
182.6517724178089
 21
617.46239696194436
 31
0.0
  0
LINE
  5
2D3
  8
DIM
 10
150.45867346260411
 20
405.53550297423732
 30
0.0
 11
100.5831816543687
 21
405.53550297423732
 31
0.0
  0
TEXT
  5
2D4
  8
TXT
 10
428.5
 20
72.529034967232235
 30
0.0
 40
5.0
  1
3.69
 72
     4
 11
436.0
 21
75.029034967232235
 31
0.0
  0
TEXT
  5
2D5
  8
TXT
 10
425.7619047619047
 20
88.529034967232235
 30
0.0
 40
5.0
  1
4.10:1
 72
     4
 11
436.0
 21
91.029034967232235
 31
0.0
  0
TEXT
  5
2D6
  8
TXT
 10
431.23809523809518
 20
104.52903496723221
 30
0.0
 40
5.0
  1
4:1
 72
     4
 11
436.0
 21
107.02903496723221
 31
0.0
  0
LINE
  5
2D7
  8
DRG2
 10
166.0
 20
115.02903496723221
 30
0.0
 11
526.0
 21
115.02903496723221
 31
0.0
  0
LINE
  5
2D8
  8
DRG2
 10
166.0
 20
99.029034967232235
 30
0.0
 11
526.0
 21
99.029034967232207
 31
0.0
  0
LINE
  5
2D9
  8
DRG2
 10
166.0
 20
83.029034967232235
 30
0.0
 11
526.0
 21
83.029034967232235
 31
0.0
  0
LINE
  5
2DA
  8
DRG2
 10
166.0
 20
67.029034967232235
 30
0.0
 11
526.0
 21
67.029034967232235
 31
0.0
  0
TEXT
  5
2DB
  8
TXT
 10
170.76190476190479
 20
72.886177824375096
 30
0.0
 40
5.0
  1
FACTOR (MECH. ADVANTAGE)
 72
     4
 11
226.0
 21
75.029034967232235
 31
0.0
  0
LINE
  5
2DC
  8
DRG2
 10
166.0
 20
67.029034967232235
 30
0.0
 11
166.0
 21
115.02903496723221
 31
0.0
  0
LINE
  5
2DD
  8
DRG2
 10
286.0
 20
67.029034967232235
 30
0.0
 11
286.0
 21
115.02903496723221
 31
0.0
  0
LINE
  5
2DE
  8
DRG2
 10
346.0
 20
67.029034967232235
 30
0.0
 11
346.0
 21
115.02903496723221
 31
0.0
  0
LINE
  5
2DF
  8
DRG2
 10
406.0
 20
67.029034967232235
 30
0.0
 11
406.0
 21
115.02903496723221
 31
0.0
  0
TEXT
  5
2E0
  8
TXT
 10
308.85714285714278
 20
72.529034967232235
 30
0.0
 40
5.0
  1
1.90
 72
     4
 11
316.0
 21
75.029034967232235
 31
0.0
  0
TEXT
  5
2E1
  8
TXT
 10
305.7619047619047
 20
88.529034967232235
 30
0.0
 40
5.0
  1
2.12:1
 72
     4
 11
316.0
 21
91.029034967232235
 31
0.0
  0
TEXT
  5
2E2
  8
TXT
 10
201.71428571428569
 20
88.529034967232235
 30
0.0
 40
5.0
  1
EXACT RATIO
 72
     4
 11
226.0
 21
91.029034967232235
 31
0.0
  0
TEXT
  5
2E3
  8
TXT
 10
197.3095238095238
 20
104.52903496723221
 30
0.0
 40
5.0
  1
NOMINAL RATIO
 72
     4
 11
226.0
 21
107.02903496723221
 31
0.0
  0
TEXT
  5
2E4
  8
TXT
 10
368.38095238095241
 20
72.529034967232235
 30
0.0
 40
5.0
  1
2.70
 72
     4
 11
376.0
 21
75.029034967232235
 31
0.0
  0
TEXT
  5
2E5
  8
TXT
 10
365.28571428571428
 20
88.529034967232235
 30
0.0
 40
5.0
  1
3.00:1
 72
     4
 11
376.0
 21
91.029034967232235
 31
0.0
  0
TEXT
  5
2E6
  8
TXT
 10
371.23809523809518
 20
104.52903496723221
 30
0.0
 40
5.0
  1
3:1
 72
     4
 11
376.0
 21
107.02903496723221
 31
0.0
  0
TEXT
  5
2E7
  8
TXT
 10
311.23809523809518
 20
104.52903496723221
 30
0.0
 40
5.0
  1
2:1
 72
     4
 11
316.0
 21
107.02903496723221
 31
0.0
  0
LINE
  5
2E8
  8
DRG2
 10
466.0
 20
67.029034967232235
 30
0.0
 11
466.0
 21
115.02903496723221
 31
0.0
  0
LINE
  5
2E9
  8
DRG2
 10
526.0
 20
67.029034967232235
 30
0.0
 11
526.0
 21
115.02903496723221
 31
0.0
  0
TEXT
  5
2EA
  8
TXT
 10
485.28571428571428
 20
88.529034967232235
 30
0.0
 40
5.0
  1
6.00:1
 72
     4
 11
496.0
 21
91.029034967232235
 31
0.0
  0
TEXT
  5
2EB
  8
TXT
 10
488.38095238095241
 20
72.529034967232235
 30
0.0
 40
5.0
  1
5.40
 72
     4
 11
496.0
 21
75.029034967232235
 31
0.0
  0
TEXT
  5
2EC
  8
TXT
 10
491.23809523809518
 20
104.52903496723221
 30
0.0
 40
5.0
  1
6:1
 72
     4
 11
496.0
 21
107.02903496723221
 31
0.0
  0
LINE
  5
2EE
  8
DRG
 10
127.9288787102213
 20
851.12806973274428
 30
0.0
 11
127.9288787102213
 21
1026.1280697327441
 31
0.0
  0
LINE
  5
2EF
  8
DRG
 10
112.9288787102213
 20
1026.1280697327441
 30
0.0
 11
112.9288787102213
 21
851.12806973274428
 31
0.0
  0
LINE
  5
2F0
  8
DRG
 10
112.9288787102213
 20
851.12806973274428
 30
0.0
 11
127.9288787102213
 21
851.12806973274428
 31
0.0
  0
LINE
  5
2F1
  8
DRG
 10
170.67887871022131
 20
888.62806973274428
 30
0.0
 11
182.92887871022131
 21
888.62806973274428
 31
0.0
  0
LINE
  5
2F2
  8
CRS
 10
223.1674407101076
 20
938.62806973274428
 30
0.0
 11
53.113769847729088
 21
938.62806973274428
 31
0.0
  0
LINE
  5
2F3
  8
DRG
 10
170.67887871022131
 20
888.62806973274428
 30
0.0
 11
170.67887871022359
 21
988.62806973274428
 31
0.0
  0
LINE
  5
2F4
  8
DRG
 10
112.9288787102213
 20
923.62806973274417
 30
0.0
 11
63.42887871022225
 21
923.62806973274417
 31
0.0
  0
LINE
  5
2F5
  8
DRG
 10
112.9288787102213
 20
953.62806973274428
 30
0.0
 11
63.42887871022225
 21
953.62806973274428
 31
0.0
  0
LINE
  5
2F6
  8
DRG
 10
106.92887871022219
 20
956.92806973274423
 30
0.0
 11
66.92887871022225
 21
956.92806973274423
 31
0.0
  0
LINE
  5
2F7
  8
DRG
 10
61.92887871022225
 20
952.12806973274417
 30
0.0
 11
61.92887871022225
 21
925.12806973274428
 31
0.0
  0
LINE
  5
2F8
  8
DRG2
 10
63.42887871022225
 20
953.62806973274428
 30
0.0
 11
63.42887871022225
 21
923.62806973274417
 31
0.0
  0
LINE
  5
2F9
  8
DRG
 10
61.92887871022225
 20
925.12806973274428
 30
0.0
 11
63.42887871022225
 21
923.62806973274417
 31
0.0
  0
LINE
  5
2FA
  8
DRG
 10
63.42887871022225
 20
953.62806973274428
 30
0.0
 11
61.92887871022225
 21
952.12806973274417
 31
0.0
  0
LINE
  5
2FB
  8
DRG
 10
66.92887871022225
 20
956.92806973274423
 30
0.0
 11
66.92887871022225
 21
953.62806973274428
 31
0.0
  0
LINE
  5
2FC
  8
HID
 10
117.9288787102213
 20
983.62806973273973
 30
0.0
 11
117.9288787102213
 21
893.62806973274451
 31
0.0
  0
LINE
  5
2FD
  8
DRG
 10
133.92887871022131
 20
912.53202624867822
 30
0.0
 11
164.67887871022131
 21
912.53202624867822
 31
0.0
  0
LINE
  5
2FE
  8
HID
 10
117.9288787102213
 20
896.02806973274437
 30
0.0
 11
117.9288787102213
 21
892.00306973274417
 31
0.0
  0
LINE
  5
2FF
  8
HID
 10
116.9288787102213
 20
891.00306973274417
 30
0.0
 11
112.9288787102213
 21
891.00306973274417
 31
0.0
  0
ARC
  5
300
  8
HID
 10
116.9288787102213
 20
892.00306973274417
 30
0.0
 40
1.0
 50
270.0
 51
0.0
  0
ARC
  5
301
  8
DRG
 10
133.92887871022131
 20
906.53202624867799
 30
0.0
 40
6.0
 50
90.0
 51
180.0
  0
ARC
  5
302
  8
DRG
 10
164.67887871022131
 20
906.53202624867822
 30
0.0
 40
6.0
 50
0.0
 51
90.000000000000114
  0
LINE
  5
303
  8
DRG
 10
164.6788787102231
 20
964.72411321681034
 30
0.0
 11
133.92887871022131
 21
964.72411321681011
 31
0.0
  0
LINE
  5
304
  8
DRG
 10
106.92887871022219
 20
956.92806973274423
 30
0.0
 11
106.92887871022219
 21
953.62806973274428
 31
0.0
  0
LINE
  5
305
  8
HID
 10
116.9288787102213
 20
986.25306973274428
 30
0.0
 11
112.9288787102213
 21
986.25306973274428
 31
0.0
  0
LINE
  5
306
  8
HID
 10
117.9288787102213
 20
983.62806973274417
 30
0.0
 11
117.9288787102213
 21
985.25306973274428
 31
0.0
  0
ARC
  5
307
  8
HID
 10
116.9288787102213
 20
985.25306973274428
 30
0.0
 40
1.0
 50
0.0
 51
90.0
  0
LINE
  5
308
  8
DRG
 10
112.9288787102213
 20
1026.1280697327441
 30
0.0
 11
127.9288787102213
 21
1026.1280697327441
 31
0.0
  0
LINE
  5
309
  8
HID
 10
112.9288787102213
 20
996.2694784027442
 30
0.0
 11
127.9288787102213
 21
996.2694784027442
 31
0.0
  0
LINE
  5
30A
  8
HID
 10
112.9288787102213
 20
979.76947840274408
 30
0.0
 11
127.9288787102213
 21
979.76947840274408
 31
0.0
  0
LINE
  5
30B
  8
CRS
 10
109.9103473401823
 20
988.01947840274408
 30
0.0
 11
131.74126252849859
 21
988.01947840274408
 31
0.0
  0
ARC
  5
30C
  8
DRG
 10
133.92887871022131
 20
970.72411321681022
 30
0.0
 40
6.0
 50
180.0
 51
270.0
  0
ARC
  5
30D
  8
DRG
 10
164.6788787102231
 20
970.72411321681034
 30
0.0
 40
6.0
 50
270.00000000000011
 51
359.99999999999869
  0
LINE
  5
30E
  8
DRG
 10
182.9288787102212
 20
882.62806973274417
 30
0.0
 11
182.92887871022299
 21
994.62806973274405
 31
0.0
  0
LINE
  5
30F
  8
DRG
 10
170.67887871022131
 20
988.62806973274428
 30
0.0
 11
182.92887871022131
 21
988.62806973274428
 31
0.0
  0
LINE
  5
310
  8
CRS
 10
109.4976886144494
 20
889.23666106274436
 30
0.0
 11
130.73222175839589
 21
889.23666106274436
 31
0.0
  0
LINE
  5
311
  8
HID
 10
112.9288787102213
 20
880.98666106274425
 30
0.0
 11
127.9288787102213
 21
880.98666106274425
 31
0.0
  0
LINE
  5
312
  8
HID
 10
112.9288787102213
 20
897.48666106274436
 30
0.0
 11
127.9288787102213
 21
897.48666106274436
 31
0.0
  0
LINE
  5
313
  8
DIM
 10
31.92887871022225
 20
851.12806973274428
 30
0.0
 11
31.92887871022225
 21
1026.1280697327441
 31
0.0
  0
SOLID
  5
314
  8
DIM
 10
30.92887871022225
 20
857.12806973274428
 30
0.0
 11
32.92887871022225
 21
857.12806973274428
 31
0.0
 12
31.92887871022225
 22
851.12806973274428
 32
0.0
 13
31.92887871022225
 23
851.12806973274428
 33
0.0
  0
TEXT
  5
315
  8
DIM
 10
29.428878710222239
 20
900.88997449464887
 30
0.0
 40
5.0
  1
FOR INPUT OPTIONS
 50
90.0
 72
     4
 11
26.92887871022225
 21
938.62806973274428
 31
0.0
  0
SOLID
  5
316
  8
DIM
 10
30.92887871022225
 20
1020.1280697327441
 30
0.0
 11
32.92887871022225
 21
1020.1280697327441
 31
0.0
 12
31.92887871022225
 22
1026.1280697327441
 32
0.0
 13
31.92887871022225
 23
1026.1280697327441
 33
0.0
  0
TEXT
  5
317
  8
DIM
 10
87.108783298321669
 20
989.42806973274423
 30
0.0
 40
5.0
  1
5
 72
     1
 11
88.775449964988354
 21
991.92806973274423
 31
0.0
 73
     2
  0
LINE
  5
318
  8
DIM
 10
61.92887871022225
 20
986.92806973274412
 30
0.0
 11
48.620162026938431
 21
986.92806973274412
 31
0.0
  0
LINE
  5
319
  8
DIM
 10
72.92887871022225
 20
986.92806973274412
 30
0.0
 11
99.667810665460308
 21
986.92806973274412
 31
0.0
  0
SOLID
  5
31A
  8
DIM
 10
72.92887871022225
 20
987.92806973274435
 30
0.0
 11
72.92887871022225
 21
985.92806973274423
 31
0.0
 12
66.92887871022225
 22
986.92806973274412
 32
0.0
 13
66.92887871022225
 23
986.92806973274412
 33
0.0
  0
LINE
  5
31B
  8
DIM
 10
66.92887871022225
 20
961.22536304045661
 30
0.0
 11
66.92887871022225
 21
988.92806973274435
 31
0.0
  0
SOLID
  5
31C
  8
DIM
 10
55.92887871022225
 20
987.92806973274435
 30
0.0
 11
55.92887871022225
 21
985.92806973274423
 31
0.0
 12
61.92887871022225
 22
986.92806973274412
 32
0.0
 13
61.92887871022225
 23
986.92806973274412
 33
0.0
  0
LINE
  5
31D
  8
DIM
 10
109.7926672654756
 20
1026.1280697327441
 30
0.0
 11
29.928878710222239
 21
1026.1280697327441
 31
0.0
  0
ARC
  5
31F
  8
DRG
 10
130.92887871022131
 20
945.62806973274428
 30
0.0
 40
3.0
 50
180.0
 51
270.0
  0
ARC
  5
320
  8
DRG
 10
130.92887871022131
 20
931.62806973274417
 30
0.0
 40
3.0
 50
90.0
 51
179.99999999999989
  0
LINE
  5
321
  8
DRG
 10
167.6788787102227
 20
942.62806973274417
 30
0.0
 11
130.92887871022131
 21
942.62806973274417
 31
0.0
  0
LINE
  5
322
  8
DRG
 10
167.67887871022219
 20
934.62806973274417
 30
0.0
 11
130.92887871022131
 21
934.62806973274417
 31
0.0
  0
ARC
  5
323
  8
DRG
 10
167.6788787102227
 20
945.62806973274428
 30
0.0
 40
3.0
 50
270.0
 51
359.99999999999869
  0
ARC
  5
324
  8
DRG
 10
167.67887871022219
 20
931.62806973274405
 30
0.0
 40
3.0
 50
359.99999999999869
 51
90.0
  0
LINE
  5
325
  8
DRG
 10
170.67887871022131
 20
888.62806973274428
 30
0.0
 11
129.42887871022131
 21
864.81237112867234
 31
0.0
  0
ARC
  5
326
  8
DRG
 10
130.92887871022131
 20
862.21429491731897
 30
0.0
 40
3.0
 50
119.9999999999999
 51
180.0
  0
LINE
  5
327
  8
DRG
 10
170.67887871022131
 20
988.62806973274428
 30
0.0
 11
129.42887871022131
 21
1012.443768336816
 31
0.0
  0
ARC
  5
328
  8
DRG
 10
130.92887871022131
 20
1015.041844548169
 30
0.0
 40
3.0
 50
180.0
 51
240.0
  0
TEXT
  5
329
  8
DIM
 10
39.42887871022225
 20
918.62806973274428
 30
0.0
 40
5.0
  1
SEE TABLE
 50
90.0
 72
     4
 11
36.92887871022225
 21
938.62806973274428
 31
0.0
  0
LINE
  5
32A
  8
DIM
 10
109.5904444441823
 20
851.12806973274428
 30
0.0
 11
29.928878710222239
 21
851.12806973274428
 31
0.0
  0
TEXT
  5
32B
  8
DIM
 10
76.156402345940734
 20
979.78521258988701
 30
0.0
 40
5.0
  1
(0.20")
 72
     4
 11
88.775449964988354
 21
981.92806973274423
 31
0.0
  0
TEXT
  5
32C
  8
DIM
 10
126.5309884826079
 20
813.98521258988706
 30
0.0
 40
5.0
  1
(0.20")
 72
     4
 11
139.1500361016555
 21
816.12806973274428
 31
0.0
  0
LINE
  5
32D
  8
DIM
 10
123.9288787102208
 20
821.12806973274417
 30
0.0
 11
135.9833694349885
 21
821.12806973274417
 31
0.0
  0
LINE
  5
32E
  8
DIM
 10
117.9288787102208
 20
886.1298731438452
 30
0.0
 11
117.9288787102208
 21
819.12806973274417
 31
0.0
  0
LINE
  5
32F
  8
DIM
 10
112.9288787102213
 20
849.12806973274428
 30
0.0
 11
112.9288787102213
 21
819.12806973274417
 31
0.0
  0
SOLID
  5
330
  8
DIM
 10
106.9288787102213
 20
822.12806973274417
 30
0.0
 11
106.9288787102213
 21
820.12806973274417
 31
0.0
 12
112.9288787102213
 22
821.12806973274417
 32
0.0
 13
112.9288787102213
 23
821.12806973274417
 33
0.0
  0
LINE
  5
331
  8
DIM
 10
106.9288787102213
 20
821.12806973274417
 30
0.0
 11
100.9288787102213
 21
821.12806973274417
 31
0.0
  0
SOLID
  5
332
  8
DIM
 10
123.9288787102208
 20
822.12806973274417
 30
0.0
 11
123.9288787102208
 21
820.12806973274417
 31
0.0
 12
117.9288787102208
 22
821.12806973274417
 32
0.0
 13
117.9288787102208
 23
821.12806973274417
 33
0.0
  0
LINE
  5
333
  8
DIM
 10
135.9833694349885
 20
821.12806973274417
 30
0.0
 11
152.284619476426
 21
821.12806973274417
 31
0.0
  0
TEXT
  5
334
  8
DIM
 10
137.48336943498879
 20
823.62806973274417
 30
0.0
 40
5.0
  1
5
 72
     1
 11
139.1500361016555
 21
826.12806973274428
 31
0.0
 73
     2
  0
LINE
  5
335
  8
DIM
 10
182.9288787102231
 20
1056.1280697327441
 30
0.0
 11
112.9288787102213
 21
1056.1280697327441
 31
0.0
  0
SOLID
  5
336
  8
DIM
 10
118.9288787102213
 20
1057.1280697327441
 30
0.0
 11
118.9288787102213
 21
1055.1280697327441
 31
0.0
 12
112.9288787102213
 22
1056.1280697327441
 32
0.0
 13
112.9288787102213
 23
1056.1280697327441
 33
0.0
  0
LINE
  5
337
  8
DIM
 10
182.9288787102231
 20
999.22666723692907
 30
0.0
 11
182.9288787102231
 21
1058.068249614887
 31
0.0
  0
TEXT
  5
338
  8
DIM
 10
135.3098310911746
 20
1047.5549777796241
 30
0.0
 40
5.0
  1
(2.76")
 72
     4
 11
147.92887871022219
 21
1049.697834922481
 31
0.0
  0
TEXT
  5
339
  8
DIM
 10
143.88125966260321
 20
1058.6280697327441
 30
0.0
 40
5.0
  1
70
 72
     4
 11
147.92887871022219
 21
1061.1280697327441
 31
0.0
  0
SOLID
  5
33A
  8
DIM
 10
176.9288787102231
 20
1057.1280697327441
 30
0.0
 11
176.9288787102231
 21
1055.1280697327441
 31
0.0
 12
182.9288787102231
 22
1056.1280697327441
 32
0.0
 13
182.9288787102231
 23
1056.1280697327441
 33
0.0
  0
LINE
  5
33E
  8
DRG
 10
182.9288787102229
 20
988.62806973274496
 30
0.0
 11
174.9038787102221
 21
988.62806973274508
 31
0.0
  0
CIRCLE
  5
344
  8
DRG
 10
565.99153278826952
 20
443.08550297423739
 30
0.0
 40
29.350000000000019
  0
LINE
  5
345
  8
CRS
  6
CENTRE
 10
530.07050830399294
 20
472.0197728958575
 30
0.0
 11
530.07050830399294
 21
485.99328202117061
 31
0.0
  0
LINE
  5
346
  8
CRS
  6
CENTRE
 10
524.10156103194913
 20
479.00652745851392
 30
0.0
 11
536.03945557603674
 21
479.00652745851392
 31
0.0
  0
LINE
  5
347
  8
CRS
  6
CENTRE
 10
537.05726286664935
 20
407.16447848996069
 30
0.0
 11
523.08375374133618
 21
407.16447848996069
 31
0.0
  0
LINE
  5
348
  8
CRS
  6
CENTRE
 10
530.07050830399294
 20
401.19553121791688
 30
0.0
 11
530.07050830399294
 21
413.13342576200461
 31
0.0
  0
LINE
  5
349
  8
CRS
  6
CENTRE
 10
601.91255727254611
 20
414.15123305261721
 30
0.0
 11
601.91255727254611
 21
400.1777239273041
 31
0.0
  0
LINE
  5
34A
  8
CRS
  6
CENTRE
 10
607.88150454458992
 20
407.1644784899608
 30
0.0
 11
595.9436100005023
 21
407.1644784899608
 31
0.0
  0
ARC
  5
34B
  8
DRG2
 10
601.91255727254611
 20
479.00652745851397
 30
0.0
 40
4.7625000000000002
 50
62.756689155005681
 51
19.28381986520176
  0
CIRCLE
  5
34C
  8
DRG2
 10
601.91255727254611
 20
479.00652745851397
 30
0.0
 40
3.9878
  0
ARC
  5
34D
  8
DRG2
 10
530.07050830399294
 20
479.00652745851392
 30
0.0
 40
4.7625000000000002
 50
62.756689155005681
 51
19.28381986520176
  0
CIRCLE
  5
34E
  8
DRG2
 10
530.07050830399294
 20
479.00652745851392
 30
0.0
 40
3.9878
  0
ARC
  5
34F
  8
DRG2
 10
530.07050830399294
 20
407.16447848996069
 30
0.0
 40
4.7625000000000002
 50
62.756689155005681
 51
19.28381986520176
  0
CIRCLE
  5
350
  8
DRG2
 10
530.07050830399294
 20
407.16447848996069
 30
0.0
 40
3.9878
  0
ARC
  5
351
  8
DRG2
 10
601.91255727254611
 20
407.1644784899608
 30
0.0
 40
4.7625000000000002
 50
62.756689155005681
 51
19.28381986520176
  0
CIRCLE
  5
352
  8
DRG2
 10
601.91255727254611
 20
407.1644784899608
 30
0.0
 40
3.9878
  0
TEXT
  5
354
  8
DIM
 10
549.68200897874567
 20
274.9426458313801
 30
0.0
 40
5.0
  1
(%%c10.31")
 72
     4
 11
565.99153278826952
 21
277.08550297423727
 31
0.0
  0
TEXT
  5
355
  8
DIM
 10
738.10619806658724
 20
663.72272342540657
 30
0.0
 40
5.0
  1
(2.36")
 50
90.0
 72
     4
 11
735.96334092373013
 21
676.34177104445405
 31
0.0
  0
TEXT
  5
356
  8
DIM
 10
738.10619806658724
 20
532.5905461570901
 30
0.0
 40
5.0
  1
(8.01")
 50
90.0
 72
     4
 11
735.96334092373013
 21
544.73340329994721
 31
0.0
  0
TEXT
  5
357
  8
DIM
 10
402.56652072029931
 20
481.11021429305669
 30
0.0
 40
5.0
  1
%%c125
 50
359.99999999999858
 72
     1
 11
410.78080643458509
 21
483.61021429305652
 31
0.0
 73
     2
  0
LINE
  5
358
  8
DIM
 10
433.4937965052506
 20
477.43946679429428
 30
0.0
 11
395.84511793679019
 21
477.43946679429479
 31
0.0
  0
TEXT
  5
359
  8
DIM
 10
395.89985405363262
 20
469.12586215267658
 30
0.0
 40
5.0
  1
(%%c4.92")
 50
359.99999999999881
 72
     4
 11
410.78080643458497
 21
471.26871929553351
 31
0.0
  0
ARC
  5
35A
  8
DIM
 10
565.99153278826884
 20
443.08550297423727
 30
0.0
 40
62.500000000000142
 50
143.055710105157
 51
172.2760671786798
  0
ARC
  5
35B
  8
DIM
 10
565.99153278826884
 20
443.08550297423727
 30
0.0
 40
62.500000000000142
 50
323.99288479565757
 51
349.27878893498621
  0
TEXT
  5
35C
  8
DIM
 10
233.57728046830681
 20
243.04605457463961
 30
0.0
 40
5.0
  1
(3.62")
 72
     4
 11
246.1963280873544
 21
245.18891171749669
 31
0.0
  0
TEXT
  5
35D
  8
DIM
 10
304.32780838128849
 20
243.04605457463961
 30
0.0
 40
5.0
  1
(0.11")
 72
     4
 11
315.99447504795518
 21
245.18891171749669
 31
0.0
  0
TEXT
  5
35E
  8
DIM
 10
252.0639152749518
 20
447.63931048564729
 30
0.0
 40
5.0
  1
(2.15")
 72
     4
 11
264.20677241780902
 21
449.7821676285044
 31
0.0
  0
TEXT
  5
35F
  8
DIM
 10
230.05324006779401
 20
759.02169638772045
 30
0.0
 40
5.0
  1
(3.62")
 72
     4
 11
242.6722876868416
 21
761.16455353057756
 31
0.0
  0
TEXT
  5
360
  8
DIM
 10
123.5452247987614
 20
759.44264583138045
 30
0.0
 40
5.0
  1
(4.76")
 72
     4
 11
136.16427241780909
 21
761.58550297423767
 31
0.0
  0
TEXT
  5
362
  8
DIM
 10
154.68690947292819
 20
729.28004935237379
 30
0.0
 40
5.0
  1
(0.32")
 72
     4
 11
167.30595709197581
 21
731.42290649523102
 31
0.0
  0
TEXT
  5
363
  8
DIM
 10
41.493528702755931
 20
729.28004935237379
 30
0.0
 40
5.0
  1
(0.20")
 72
     4
 11
54.112576321803552
 21
731.42290649523102
 31
0.0
  0
TEXT
  5
364
  8
DIM
 10
132.20975916982459
 20
711.61322387716609
 30
0.0
 40
5.0
  1
8x7x40
 72
     4
 11
145.0669020269674
 21
714.11322387716598
 31
0.0
  0
TEXT
  5
365
  8
DIM
 10
109.11452107458651
 20
703.39893816288054
 30
0.0
 40
5.0
  1
(0.31"x0.28"x1.57")
 72
     4
 11
145.0669020269674
 21
705.54179530573765
 31
0.0
  0
TEXT
  5
366
  8
DIM
 10
138.40023536030071
 20
694.47036673430887
 30
0.0
 40
5.0
  1
KEY
 72
     4
 11
145.0669020269674
 21
696.97036673430898
 31
0.0
  0
LINE
  5
367
  8
DIM
 10
106.4068898896098
 20
705.54179530573765
 30
0.0
 11
100.8854277275795
 21
705.54179530573765
 31
0.0
  0
POLYLINE
  5
36B
  8
BORT
 66
     1
 10
0.0
 20
0.0
 30
0.0
 39
1.8
  0
VERTEX
  5
E2B
  8
BORT
 10
166.0
 20
163.02903496723221
 30
0.0
  0
VERTEX
  5
E2C
  8
BORT
 10
166.0
 20
121.02903496723221
 30
0.0
  0
SEQEND
  5
E2D
  8
BORT
  0
POLYLINE
  5
36F
  8
BORT
 66
     1
 10
0.0
 20
0.0
 30
0.0
 39
1.8
  0
VERTEX
  5
E2E
  8
BORT
 10
38.0
 20
121.02903496723221
 30
0.0
  0
VERTEX
  5
E2F
  8
BORT
 10
38.0
 20
163.02903496723221
 30
0.0
  0
SEQEND
  5
E30
  8
BORT
  0
TEXT
  5
373
  8
DIM
 10
112.7896234338787
 20
412.6093124980469
 30
0.0
 40
5.0
  1
B.S.P. OR N.P.T.
 50
90.0
 72
     4
 11
110.2896234338787
 21
443.08550297423739
 31
0.0
  0
LINE
  5
374
  8
DIM
 10
332.16788000815183
 20
342.73874318638622
 30
0.0
 11
332.16788000815183
 21
472.43550297423729
 31
0.0
  0
LINE
  5
375
  8
DRG2
 10
711.88984517477195
 20
137.4850401785973
 30
0.0
 11
711.88984517477195
 21
222.4850401785973
 31
0.0
  0
LINE
  5
376
  8
DRG2
 10
411.8898451747724
 20
137.48504017859699
 30
0.0
 11
411.88984517477218
 21
222.48504017859699
 31
0.0
  0
TEXT
  5
377
  8
TXT
 10
473.67555946048668
 20
169.84218303573991
 30
0.0
 40
5.0
  1
(%%c2.754" -0.002") 
 72
     4
 11
511.8898451747724
 21
171.98504017859699
 31
0.0
  0
TEXT
  5
378
  8
TXT
 10
474.6279404128677
 20
143.34218303573991
 30
0.0
 40
5.0
  1
(%%c2.311" -0.002") 
 72
     4
 11
511.8898451747724
 21
145.48504017859699
 31
0.0
  0
TEXT
  5
379
  8
TXT
 10
485.93746422239138
 20
179.98504017859699
 30
0.0
 40
5.0
  1
%%c69.95 -0.05
 72
     4
 11
511.8898451747724
 21
182.48504017859699
 31
0.0
  0
TEXT
  5
37A
  8
TXT
 10
490.22317850810572
 20
195.98504017859699
 30
0.0
 40
5.0
  1
SPIGOT DIA.
 72
     4
 11
511.8898451747724
 21
198.48504017859699
 31
0.0
  0
TEXT
  5
37B
  8
TXT
 10
485.93746422239138
 20
153.48504017859699
 30
0.0
 40
5.0
  1
%%c58.70 -0.05
 72
     4
 11
511.8898451747724
 21
155.98504017859699
 31
0.0
  0
LINE
  5
37C
  8
DRG2
 10
411.88984517477218
 20
206.48504017859699
 30
0.0
 11
711.88984517477195
 21
206.48504017859699
 31
0.0
  0
LINE
  5
37D
  8
DRG2
 10
411.88984517477218
 20
190.48504017859699
 30
0.0
 11
711.88984517477195
 21
190.48504017859699
 31
0.0
  0
LINE
  5
37E
  8
DRG2
 10
411.88984517477218
 20
137.48504017859699
 30
0.0
 11
711.88984517477195
 21
137.48504017859699
 31
0.0
  0
LINE
  5
37F
  8
DRG2
 10
411.88984517477218
 20
163.98504017859699
 30
0.0
 11
711.88984517477195
 21
163.98504017859699
 31
0.0
  0
TEXT
  5
380
  8
TXT
 10
428.55651184143909
 20
148.23504017859699
 30
0.0
 40
5.0
  1
FA10
 72
     4
 11
436.8898451747724
 21
150.73504017859699
 31
0.0
  0
TEXT
  5
381
  8
TXT
 10
422.96127374620079
 20
174.73504017859699
 30
0.0
 40
5.0
  1
ISO F10
 72
     4
 11
436.88984517477218
 21
177.23504017859699
 31
0.0
  0
LINE
  5
382
  8
DRG2
 10
461.8898451747724
 20
137.4850401785971
 30
0.0
 11
461.88984517477218
 21
206.48504017859699
 31
0.0
  0
TEXT
  5
383
  8
TXT
 10
590.22317850810543
 20
169.84218303573991
 30
0.0
 40
5.0
  1
ON %%c102.0 (%%c4.02") P.C.
 72
     4
 11
636.88984517477195
 21
171.98504017859699
 31
0.0
  0
TEXT
  5
384
  8
TXT
 10
590.69936898429592
 20
143.34218303573991
 30
0.0
 40
5.0
  1
ON %%c101.6 (%%c4.00") P.C.
 72
     4
 11
636.88984517477195
 21
145.48504017859699
 31
0.0
  0
TEXT
  5
385
  8
TXT
 10
577.96127374620062
 20
180.34218303573991
 30
0.0
 40
5.0
  1
4 HOLES M10x15 (0.59") DEEP
 72
     4
 11
636.88984517477195
 21
182.48504017859699
 31
0.0
  0
TEXT
  5
386
  8
TXT
 10
568.19936898429592
 20
153.84218303573991
 30
0.0
 40
5.0
  1
4 HOLES 3/8"UNCx15 (0.59") DEEP
 72
     4
 11
636.88984517477195
 21
155.98504017859699
 31
0.0
  0
TEXT
  5
387
  8
TXT
 10
571.65174993667677
 20
196.34218303573991
 30
0.0
 40
5.0
  1
HOLE DETAILS (45%%d OFF CENTRES)
 72
     4
 11
636.88984517477195
 21
198.48504017859699
 31
0.0
  0
LINE
  5
388
  8
DRG2
 10
561.88984517477252
 20
137.4850401785971
 30
0.0
 11
561.88984517477252
 21
206.48504017859699
 31
0.0
  0
LINE
  5
389
  8
DRG2
 10
411.88984517477218
 20
222.48504017859699
 30
0.0
 11
711.88984517477195
 21
222.48504017859699
 31
0.0
  0
TEXT
  5
38A
  8
TXT
 10
524.15174993667665
 20
211.98504017859699
 30
0.0
 40
5.0
  1
BASEPLATE DETAILS
 72
     4
 11
561.88984517477195
 21
214.48504017859699
 31
0.0
  0
LINE
  5
38B
  8
DIM
 10
434.99153278826952
 20
343.33584969360692
 30
0.0
 11
434.99153278826952
 21
280.08550297423727
 31
0.0
  0
TEXT
  5
391
  8
TXT
 10
306.54761904761898
 20
968.16576718492695
 30
0.0
 40
5.0
  1
x 10 (0.39")
 72
     4
 11
330.0
 21
970.30862432778395
 31
0.0
  0
LINE
  5
392
  8
DRG2
 10
239.99999999999989
 20
1031.3086243277839
 30
0.0
 11
760.0
 21
1031.3086243277839
 31
0.0
  0
LINE
  5
393
  8
DRG2
 10
239.99999999999989
 20
1015.3086243277839
 30
0.0
 11
760.0
 21
1015.3086243277839
 31
0.0
  0
LINE
  5
394
  8
DRG2
 10
239.99999999999989
 20
988.80862432778395
 30
0.0
 11
760.0
 21
988.80862432778429
 31
0.0
  0
TEXT
  5
395
  8
TXT
 10
418.80952380952351
 20
1020.8086243277839
 30
0.0
 40
5.0
  1
INPUT FLANGE DETAILS
 72
     4
 11
462.49999999999977
 21
1023.3086243277839
 31
0.0
  0
LINE
  5
396
  8
DRG2
 10
239.99999999999989
 20
935.80862432778383
 30
0.0
 11
760.0
 21
935.80862432778417
 31
0.0
  0
LINE
  5
397
  8
DRG2
 10
239.99999999999989
 20
962.30862432778395
 30
0.0
 11
760.0
 21
962.3086243277844
 31
0.0
  0
LINE
  5
398
  8
DRG2
 10
290.0
 20
882.80862432778395
 30
0.0
 11
290.0
 21
1015.3086243277839
 31
0.0
  0
LINE
  5
399
  8
DRG2
 10
239.99999999999989
 20
882.80862432778395
 30
0.0
 11
239.99999999999989
 21
1031.3086243277839
 31
0.0
  0
TEXT
  5
39A
  8
TXT
 10
251.0714285714285
 20
973.05862432778395
 30
0.0
 40
5.0
  1
ISO F10
 72
     4
 11
265.0
 21
975.55862432778395
 31
0.0
  0
TEXT
  5
39B
  8
TXT
 10
256.66666666666657
 20
946.55862432778383
 30
0.0
 40
5.0
  1
FA10
 72
     4
 11
265.0
 21
949.05862432778395
 31
0.0
  0
TEXT
  5
39C
  8
TXT
 10
303.92857142857139
 20
978.66576718492672
 30
0.0
 40
5.0
  1
%%c125 (%%c4.92")
 72
     4
 11
330.0
 21
980.80862432778395
 31
0.0
  0
TEXT
  5
39D
  8
TXT
 10
305.0
 20
994.30862432778395
 30
0.0
 40
5.0
  1
& THICKNESS
 72
     4
 11
330.0
 21
996.80862432778395
 31
0.0
  0
LINE
  5
39E
  8
DRG2
 10
459.99999999999972
 20
882.80862432778406
 30
0.0
 11
459.99999999999972
 21
1015.3086243277839
 31
0.0
  0
LINE
  5
39F
  8
DRG2
 10
370.0
 20
882.80862432778406
 30
0.0
 11
370.0
 21
1015.3086243277839
 31
0.0
  0
TEXT
  5
3A0
  8
TXT
 10
389.04761904761898
 20
978.30862432778395
 30
0.0
 40
5.0
  1
%%c20.00 -0.05
 72
     4
 11
415.0
 21
980.80862432778395
 31
0.0
  0
TEXT
  5
3A1
  8
TXT
 10
408.6904761904762
 20
994.30862432778395
 30
0.0
 40
5.0
  1
DIA.
 72
     4
 11
415.0
 21
996.80862432778395
 31
0.0
  0
TEXT
  5
3A2
  8
TXT
 10
702.14285714285711
 20
978.30862432778395
 30
0.0
 40
5.0
  1
6x6x40
 72
     4
 11
715.0
 21
980.80862432778395
 31
0.0
  0
TEXT
  5
3A3
  8
TXT
 10
678.57142857142856
 20
968.16576718492695
 30
0.0
 40
5.0
  1
(0.24"x0.24"x1.57")
 72
     4
 11
715.0
 21
970.30862432778395
 31
0.0
  0
LINE
  5
3A4
  8
DRG2
 10
550.00000000000023
 20
882.80862432778406
 30
0.0
 11
549.99999999999977
 21
1015.3086243277839
 31
0.0
  0
TEXT
  5
3A5
  8
TXT
 10
573.69047619047615
 20
994.66576718492672
 30
0.0
 40
5.0
  1
(45%%d OFF CENTRES)
 72
     4
 11
610.0
 21
996.80862432778395
 31
0.0
  0
TEXT
  5
3A6
  8
TXT
 10
564.40476190476181
 20
978.66576718492672
 30
0.0
 40
5.0
  1
4 HOLES %%c10.5 (%%c0.41")
 72
     4
 11
610.0
 21
980.80862432778395
 31
0.0
  0
TEXT
  5
3A7
  8
TXT
 10
563.33333333333326
 20
968.16576718492695
 30
0.0
 40
5.0
  1
ON %%c102.0 (%%c4.02") P.C.
 72
     4
 11
610.0
 21
970.30862432778395
 31
0.0
  0
LINE
  5
3A8
  8
DRG2
 10
670.0
 20
882.80862432778406
 30
0.0
 11
670.0
 21
1015.3086243277839
 31
0.0
  0
TEXT
  5
3A9
  8
TXT
 10
700.83333333333326
 20
994.30862432778395
 30
0.0
 40
5.0
  1
DETAILS
 72
     4
 11
715.0
 21
996.80862432778395
 31
0.0
  0
LINE
  5
3AA
  8
DRG2
 10
760.0
 20
882.80862432778406
 30
0.0
 11
760.0
 21
1031.3086243277839
 31
0.0
  0
TEXT
  5
3AB
  8
TXT
 10
498.69047619047592
 20
994.30862432778395
 30
0.0
 40
5.0
  1
DIA.
 72
     4
 11
504.99999999999977
 21
996.80862432778395
 31
0.0
  0
TEXT
  5
3AC
  8
TXT
 10
708.33333333333326
 20
1004.8086243277839
 30
0.0
 40
5.0
  1
KEY
 72
     4
 11
715.0
 21
1007.3086243277839
 31
0.0
  0
TEXT
  5
3AD
  8
TXT
 10
584.04761904761904
 20
1004.8086243277839
 30
0.0
 40
5.0
  1
HOLE DETAILS
 72
     4
 11
610.0
 21
1007.3086243277839
 31
0.0
  0
TEXT
  5
3AE
  8
TXT
 10
491.4285714285711
 20
1004.8086243277839
 30
0.0
 40
5.0
  1
RECESS
 72
     4
 11
504.99999999999977
 21
1007.3086243277839
 31
0.0
  0
TEXT
  5
3AF
  8
TXT
 10
403.5714285714285
 20
1004.8086243277839
 30
0.0
 40
5.0
  1
SHAFT
 72
     4
 11
415.0
 21
1007.3086243277839
 31
0.0
  0
TEXT
  5
3B0
  8
TXT
 10
302.02380952380952
 20
1005.165767184926
 30
0.0
 40
5.0
  1
FLANGE O/DIA.
 72
     4
 11
330.0
 21
1007.3086243277839
 31
0.0
  0
TEXT
  5
3B1
  8
TXT
 10
303.92857142857139
 20
952.16576718492684
 30
0.0
 40
5.0
  1
%%c125 (%%c4.92")
 72
     4
 11
330.0
 21
954.30862432778395
 31
0.0
  0
TEXT
  5
3B2
  8
TXT
 10
306.54761904761898
 20
941.66576718492684
 30
0.0
 40
5.0
  1
x 10 (0.39")
 72
     4
 11
330.0
 21
943.80862432778383
 31
0.0
  0
TEXT
  5
3B3
  8
TXT
 10
389.04761904761898
 20
951.80862432778395
 30
0.0
 40
5.0
  1
%%c20.00 -0.05
 72
     4
 11
415.0
 21
954.30862432778395
 31
0.0
  0
TEXT
  5
3B4
  8
TXT
 10
466.78571428571399
 20
968.16576718492695
 30
0.0
 40
5.0
  1
(%%c2.758" +0.002") 
 72
     4
 11
504.99999999999977
 21
970.30862432778395
 31
0.0
  0
TEXT
  5
3B5
  8
TXT
 10
479.04761904761881
 20
978.30862432778395
 30
0.0
 40
5.0
  1
%%c70.05 +0.05
 72
     4
 11
504.99999999999977
 21
980.80862432778395
 31
0.0
  0
TEXT
  5
3B6
  8
TXT
 10
467.26190476190447
 20
941.66576718492684
 30
0.0
 40
5.0
  1
(%%c2.313" +0.002") 
 72
     4
 11
504.99999999999977
 21
943.80862432778383
 31
0.0
  0
TEXT
  5
3B7
  8
TXT
 10
479.04761904761881
 20
951.80862432778395
 30
0.0
 40
5.0
  1
%%c58.75 +0.05
 72
     4
 11
504.99999999999977
 21
954.30862432778395
 31
0.0
  0
TEXT
  5
3B8
  8
TXT
 10
564.40476190476181
 20
952.16576718492684
 30
0.0
 40
5.0
  1
4 HOLES %%c10.5 (%%c0.41")
 72
     4
 11
610.0
 21
954.30862432778395
 31
0.0
  0
TEXT
  5
3B9
  8
TXT
 10
563.33333333333326
 20
941.66576718492684
 30
0.0
 40
5.0
  1
ON %%c102.0 (%%c4.02") P.C.
 72
     4
 11
610.0
 21
943.80862432778383
 31
0.0
  0
TEXT
  5
3BA
  8
TXT
 10
678.57142857142856
 20
941.66576718492684
 30
0.0
 40
5.0
  1
(0.24"x0.24"x1.57")
 72
     4
 11
715.0
 21
943.80862432778383
 31
0.0
  0
TEXT
  5
3BB
  8
TXT
 10
702.14285714285711
 20
951.80862432778395
 30
0.0
 40
5.0
  1
6x6x40
 72
     4
 11
715.0
 21
954.30862432778395
 31
0.0
  0
TEXT
  5
3BC
  8
TXT
 10
379.88095238095229
 20
968.16576718492695
 30
0.0
 40
5.0
  1
(%%c0.787" -0.002")
 72
     4
 11
415.0
 21
970.30862432778395
 31
0.0
  0
TEXT
  5
3BD
  8
TXT
 10
379.88095238095229
 20
941.66576718492684
 30
0.0
 40
5.0
  1
(%%c0.787" -0.002")
 72
     4
 11
415.0
 21
943.80862432778383
 31
0.0
  0
TEXT
  5
3BE
  8
TXT
 10
479.04761904761881
 20
898.80862432778395
 30
0.0
 40
5.0
  1
%%c95.27 +0.05
 72
     4
 11
504.99999999999977
 21
901.30862432778395
 31
0.0
  0
TEXT
  5
3BF
  8
TXT
 10
477.14285714285683
 20
925.30862432778395
 30
0.0
 40
5.0
  1
%%c100.05 +0.05
 72
     4
 11
504.99999999999977
 21
927.80862432778383
 31
0.0
  0
LINE
  5
3C0
  8
DRG2
 10
239.99999999999989
 20
882.80862432778395
 30
0.0
 11
760.0
 21
882.80862432778406
 31
0.0
  0
LINE
  5
3C1
  8
DRG2
 10
239.99999999999989
 20
935.80862432778383
 30
0.0
 11
760.0
 21
935.80862432778417
 31
0.0
  0
LINE
  5
3C2
  8
DRG2
 10
239.99999999999989
 20
909.30862432778395
 30
0.0
 11
760.0
 21
909.30862432778406
 31
0.0
  0
TEXT
  5
3C3
  8
TXT
 10
467.26190476190447
 20
888.66576718492695
 30
0.0
 40
5.0
  1
(%%c3.751" +0.002") 
 72
     4
 11
504.99999999999977
 21
890.80862432778395
 31
0.0
  0
TEXT
  5
3C4
  8
TXT
 10
466.78571428571399
 20
915.16576718492672
 30
0.0
 40
5.0
  1
(%%c3.939" +0.002") 
 72
     4
 11
504.99999999999977
 21
917.30862432778395
 31
0.0
  0
TEXT
  5
3C5
  8
TXT
 10
256.54761904761898
 20
893.55862432778395
 30
0.0
 40
5.0
  1
FA14
 72
     4
 11
265.0
 21
896.05862432778395
 31
0.0
  0
TEXT
  5
3C6
  8
TXT
 10
250.95238095238091
 20
920.05862432778395
 30
0.0
 40
5.0
  1
ISO F14
 72
     4
 11
265.0
 21
922.55862432778395
 31
0.0
  0
TEXT
  5
3C7
  8
TXT
 10
381.30952380952368
 20
915.16576718492672
 30
0.0
 40
5.0
  1
(%%c1.181" -0.002")
 72
     4
 11
415.0
 21
917.30862432778395
 31
0.0
  0
TEXT
  5
3C8
  8
TXT
 10
381.30952380952368
 20
888.66576718492695
 30
0.0
 40
5.0
  1
(%%c1.181" -0.002")
 72
     4
 11
415.0
 21
890.80862432778395
 31
0.0
  0
TEXT
  5
3C9
  8
TXT
 10
389.04761904761898
 20
925.30862432778395
 30
0.0
 40
5.0
  1
%%c30.00 -0.05
 72
     4
 11
415.0
 21
927.80862432778383
 31
0.0
  0
TEXT
  5
3CA
  8
TXT
 10
389.04761904761898
 20
898.80862432778395
 30
0.0
 40
5.0
  1
%%c30.00 -0.05
 72
     4
 11
415.0
 21
901.30862432778395
 31
0.0
  0
TEXT
  5
3CB
  8
TXT
 10
303.92857142857139
 20
899.16576718492672
 30
0.0
 40
5.0
  1
%%c175 (%%c6.89")
 72
     4
 11
330.0
 21
901.30862432778395
 31
0.0
  0
TEXT
  5
3CC
  8
TXT
 10
306.54761904761898
 20
888.66576718492695
 30
0.0
 40
5.0
  1
x 15 (0.59")
 72
     4
 11
330.0
 21
890.80862432778395
 31
0.0
  0
TEXT
  5
3CD
  8
TXT
 10
306.54761904761898
 20
915.16576718492672
 30
0.0
 40
5.0
  1
x 15 (0.59")
 72
     4
 11
330.0
 21
917.30862432778395
 31
0.0
  0
TEXT
  5
3CE
  8
TXT
 10
303.92857142857139
 20
925.66576718492684
 30
0.0
 40
5.0
  1
%%c175 (%%c6.89")
 72
     4
 11
330.0
 21
927.80862432778383
 31
0.0
  0
TEXT
  5
3CF
  8
TXT
 10
679.04761904761904
 20
888.66576718492695
 30
0.0
 40
5.0
  1
(0.31"x0.28"x1.57")
 72
     4
 11
715.0
 21
890.80862432778395
 31
0.0
  0
TEXT
  5
3D0
  8
TXT
 10
679.04761904761904
 20
915.16576718492672
 30
0.0
 40
5.0
  1
(0.31"x0.28"x1.57")
 72
     4
 11
715.0
 21
917.30862432778395
 31
0.0
  0
TEXT
  5
3D1
  8
TXT
 10
702.14285714285711
 20
898.80862432778395
 30
0.0
 40
5.0
  1
8x7x40
 72
     4
 11
715.0
 21
901.30862432778395
 31
0.0
  0
TEXT
  5
3D2
  8
TXT
 10
702.14285714285711
 20
925.30862432778395
 30
0.0
 40
5.0
  1
8x7x40
 72
     4
 11
715.0
 21
927.80862432778383
 31
0.0
  0
TEXT
  5
3D3
  8
TXT
 10
563.80952380952385
 20
888.66576718492695
 30
0.0
 40
5.0
  1
ON %%c140.0 (%%c5.51") P.C.
 72
     4
 11
610.0
 21
890.80862432778395
 31
0.0
  0
TEXT
  5
3D4
  8
TXT
 10
563.80952380952385
 20
915.16576718492672
 30
0.0
 40
5.0
  1
ON %%c140.0 (%%c5.51") P.C.
 72
     4
 11
610.0
 21
917.30862432778395
 31
0.0
  0
TEXT
  5
3D5
  8
TXT
 10
563.92857142857144
 20
899.16576718492672
 30
0.0
 40
5.0
  1
4 HOLES %%c16.5 (%%c0.65")
 72
     4
 11
610.0
 21
901.30862432778395
 31
0.0
  0
TEXT
  5
3D6
  8
TXT
 10
563.92857142857144
 20
925.66576718492684
 30
0.0
 40
5.0
  1
4 HOLES %%c16.5 (%%c0.65")
 72
     4
 11
610.0
 21
927.80862432778383
 31
0.0
  0
LINE
  5
3D7
  8
DIM
 10
112.9288787102213
 20
1031.1280697327441
 30
0.0
 11
112.9288787102213
 21
1058.1280697327441
 31
0.0
  0
LINE
  5
3D8
  8
DIM
 10
61.92887871022225
 20
957.12806973274428
 30
0.0
 11
61.92887871022225
 21
1022.3635541979
 31
0.0
  0
LINE
  5
3D9
  8
DIM
 10
106.9288787102213
 20
1056.1280697327441
 30
0.0
 11
67.92887871022225
 21
1056.1280697327441
 31
0.0
  0
SOLID
  5
3DA
  8
DIM
 10
106.9288787102213
 20
1057.1280697327441
 30
0.0
 11
106.9288787102213
 21
1055.1280697327441
 31
0.0
 12
112.9288787102213
 22
1056.1280697327441
 32
0.0
 13
112.9288787102213
 23
1056.1280697327441
 33
0.0
  0
SOLID
  5
3DB
  8
DIM
 10
67.92887871022225
 20
1057.1280697327441
 30
0.0
 11
67.92887871022225
 21
1055.1280697327441
 31
0.0
 12
61.92887871022225
 22
1056.1280697327441
 32
0.0
 13
61.92887871022225
 23
1056.1280697327441
 33
0.0
  0
TEXT
  5
3DC
  8
DIM
 10
84.452688234031314
 20
1058.6280697327441
 30
0.0
 40
5.0
  1
51
 72
     1
 11
87.428878710221795
 21
1061.1280697327441
 31
0.0
 73
     2
  0
TEXT
  5
3DD
  8
DIM
 10
75.286021567364656
 20
1048.9852125898869
 30
0.0
 40
5.0
  1
(2.01")
 72
     4
 11
87.428878710221795
 21
1051.1280697327441
 31
0.0
  0
LINE
  5
3DE
  8
DIM
 10
61.92887871022225
 20
1030.04498895956
 30
0.0
 11
61.92887871022225
 21
1058.1280697327441
 31
0.0
  0
TEXT
  5
44C
  8
BORT
 10
51.999999999999993
 20
153.52903496723221
 30
0.0
 40
5.0
  1
CN1413   D.S.   24.10.02
 72
     4
 11
102.0
 21
156.02903496723221
 31
0.0
  0
TEXT
  5
44D
  8
BORT
 10
23.404761904761902
 20
153.52903496723221
 30
0.0
 40
5.0
  1
1
 72
     4
 11
24.0
 21
156.02903496723221
 31
0.0
  0
POLYLINE
  5
44E
  8
BORT
 66
     1
 10
0.0
 20
0.0
 30
0.0
 39
1.8
  0
VERTEX
  5
E34
  8
BORT
 10
166.0
 20
163.02903496723221
 30
0.0
  0
VERTEX
  5
E35
  8
BORT
 10
10.0
 20
163.02903496723221
 30
0.0
  0
SEQEND
  5
E36
  8
BORT
  0
POLYLINE
  8
0
  5
10B7
  66
     1
 10
0.000000
 20
0.000000
 30
0.000000
  70
     8
  0
VERTEX
  8
0
  5
10B8
 10
180.152
 20
601.462
 30
0.000000
  70
    32
  0
VERTEX
  8
0
  5
10B9
 10
140.706
 20
544.073
 30
0.000000
  70
    32
  0
VERTEX
  8
0
  5
10BA
 10
122.206
 20
544.073
 30
0.000000
  70
    32
  0
SEQEND
  8
0
  5
10BB
  0
LINE
  5
6D1
  8
DRG
 10
261.67677241780899
 20
706.58550297423744
 30
0.0
 11
217.67677241780891
 21
706.58550297423744
 31
0.0
  0
LINE
  5
6D4
  8
DRG
 10
196.67677241780899
 20
702.58550297423744
 30
0.0
 11
196.67677241780899
 21
590.58550297423744
 31
0.0
  0
LINE
  5
6D9
  8
DRG
 10
188.6517724178089
 20
596.58550297423744
 30
0.0
 11
196.67677241780899
 21
596.58550297423744
 31
0.0
  0
LINE
  5
6EA
  8
DRG
 10
288.67677241780871
 20
601.28550297423737
 30
0.0
 11
288.67677241780922
 21
697.58550297423744
 31
0.0
  0
LINE
  5
710
  8
DRG
 10
266.67677241780899
 20
701.58550297423631
 30
0.0
 11
266.6767724177887
 21
612.16315423179526
 31
0.0
  0
DIMENSION
  5
777
  8
DIM
  2
*D0
 10
288.67677241780922
 20
766.58550297423744
 30
0.0
 11
242.6767724178091
 21
770.58550297423744
 31
0.0
 70
     0
 13
196.67677241780899
 23
702.58550297423744
 33
0.0
 14
288.67677241780922
 24
697.58550297423744
 34
0.0
  0
LINE
  5
7B6
  8
DRG2
  6
PHANTOM
 10
353.7017724178092
 20
664.58550297423756
 30
0.0
 11
393.70177241780891
 21
664.58550297423756
 31
0.0
  0
LINE
  5
7B7
  8
DRG2
  6
PHANTOM
 10
398.70177241780908
 20
660.08550297423756
 30
0.0
 11
398.7017724178092
 21
633.08550297423767
 31
0.0
  0
LINE
  5
7B8
  8
DRG2
  6
PHANTOM
 10
397.20177241780908
 20
661.58550297423767
 30
0.0
 11
397.2017724178092
 21
631.58550297423756
 31
0.0
  0
LINE
  5
7B9
  8
DRG2
  6
PHANTOM
 10
398.7017724178092
 20
633.08550297423767
 30
0.0
 11
397.2017724178092
 21
631.58550297423756
 31
0.0
  0
LINE
  5
7BA
  8
DRG2
  6
PHANTOM
 10
393.70177241780891
 20
661.58550297423767
 30
0.0
 11
393.70177241780891
 21
664.58550297423756
 31
0.0
  0
LINE
  5
7BB
  8
DRG2
  6
PHANTOM
 10
397.20177241780908
 20
661.58550297423767
 30
0.0
 11
398.70177241780908
 21
660.08550297423756
 31
0.0
  0
LINE
  5
7BD
  8
DRG2
  6
PHANTOM
 10
353.7017724178092
 20
661.58550297423767
 30
0.0
 11
353.7017724178092
 21
664.58550297423756
 31
0.0
  0
LINE
  5
7BE
  8
DRG2
  6
PHANTOM
 10
288.6767724178091
 20
661.58550297423756
 30
0.0
 11
397.20177241780908
 21
661.58550297423767
 31
0.0
  0
LINE
  5
7BF
  8
DRG2
  6
PHANTOM
 10
288.67677241780888
 20
631.58550297423744
 30
0.0
 11
397.2017724178092
 21
631.58550297423756
 31
0.0
  0
POLYLINE
  8
0
  5
10BC
  66
     1
 10
0.000000
 20
0.000000
 30
0.000000
  70
     8
  0
VERTEX
  8
0
  5
10BD
 10
514.831
 20
558.437
 30
0.000000
  70
    32
  0
VERTEX
  8
0
  5
10BE
 10
473.518
 20
601.786
 30
0.000000
  70
    32
  0
VERTEX
  8
0
  5
10BF
 10
462.196
 20
601.786
 30
0.000000
  70
    32
  0
SEQEND
  8
0
  5
10C0
  0
TEXT
  5
7CF
  8
DIM
 10
331.05601979843777
 20
759.04687992625531
 30
0.0
 40
5.0
  1
(4.33")
 72
     4
 11
343.67506741748548
 21
761.18973706911243
 31
0.0
  0
DIMENSION
  5
9E0
  8
DIM
  2
*D1
 10
398.70177241780908
 20
766.58550297423744
 30
0.0
 11
343.68927241780909
 21
770.58550297423744
 31
0.0
 70
     0
 13
288.67677241780922
 23
697.58550297423744
 33
0.0
 14
398.70177241780908
 24
660.08550297423756
 34
0.0
  0
ARC
  5
A3E
  8
DRG
 10
565.99153278826952
 20
646.58550297423744
 30
0.0
 40
56.0
 50
331.3793676034411
 51
28.62063239655884
  0
ARC
  5
A43
  8
DRG
 10
605.58951253471628
 20
686.18348272068408
 30
0.0
 40
10.0
 50
336.47353512890271
 51
113.5264648710975
  0
ARC
  5
A45
  8
DRG
 10
526.39355304182266
 20
686.18348272068408
 30
0.0
 40
10.0
 50
66.473535128901844
 51
203.52646487109811
  0
ARC
  5
A46
  8
DRG
 10
526.39355304182266
 20
606.98752322779058
 30
0.0
 40
10.0
 50
156.4735351289018
 51
293.52646487109809
  0
ARC
  5
A47
  8
DRG
 10
605.58951253471628
 20
606.98752322779058
 30
0.0
 40
10.0
 50
246.4735351289018
 51
23.526464871097559
  0
ARC
  5
A49
  8
DRG
 10
565.99153278826975
 20
646.58550297423744
 30
0.0
 40
56.0
 50
61.37936760344126
 51
118.6206323965588
  0
ARC
  5
A4A
  8
DRG
 10
565.99153278826964
 20
646.58550297423733
 30
0.0
 40
56.0
 50
151.37936760344121
 51
208.62063239655859
  0
ARC
  5
A4B
  8
DRG
 10
565.99153278826952
 20
646.58550297423756
 30
0.0
 40
56.0
 50
241.37936760344141
 51
253.16312592455361
  0
ARC
  5
A4C
  8
DRG
 10
534.37700535442684
 20
704.52099861494798
 30
0.0
 40
10.0
 50
246.4735351289012
 51
298.6206323965589
  0
ARC
  5
A4D
  8
DRG
 10
508.05603714755898
 20
678.20003040808012
 30
0.0
 40
10.0
 50
331.37936760344138
 51
23.52646487109876
  0
ARC
  5
A4E
  8
DRG
 10
508.05603714755892
 20
614.97097554039465
 30
0.0
 40
10.0
 50
336.47353512890191
 51
28.620632396558729
  0
ARC
  5
A4F
  8
DRG
 10
534.37700535442684
 20
588.6500073335269
 30
0.0
 40
10.0
 50
61.379367603441111
 51
113.5264648710987
  0
ARC
  5
A50
  8
DRG
 10
597.60606022211221
 20
588.6500073335269
 30
0.0
 40
10.0
 50
66.473535128901247
 51
118.6206323965588
  0
ARC
  5
A51
  8
DRG
 10
623.92702842898007
 20
614.97097554039453
 30
0.0
 40
10.0
 50
151.37936760344141
 51
203.5264648710978
  0
ARC
  5
A52
  8
DRG
 10
597.60606022211255
 20
704.5209986149481
 30
0.0
 40
10.0
 50
241.37936760344141
 51
293.52646487109752
  0
ARC
  5
A53
  8
DRG
 10
623.92702842898007
 20
678.20003040808035
 30
0.0
 40
10.0
 50
156.47353512890211
 51
208.62063239655859
  0
ARC
  5
A54
  8
DRG
 10
625.41895934753791
 20
683.57713679247752
 30
0.0
 40
10.0
 50
172.51207195963411
 51
211.90091629294531
  0
ARC
  5
A55
  8
DRG
 10
602.9831666065096
 20
706.01292953350583
 30
0.0
 40
10.0
 50
238.09908370705469
 51
277.48792804036577
  0
ARC
  5
A56
  8
DRG
 10
528.99989897002945
 20
706.01292953350583
 30
0.0
 40
10.0
 50
262.51207195963411
 51
301.90091629294528
  0
ARC
  5
A57
  8
DRG
 10
506.56410622900108
 20
683.57713679247752
 30
0.0
 40
10.0
 50
328.09908370705472
 51
7.4879280403658974
  0
ARC
  5
A58
  8
DRG
 10
565.99153278826952
 20
646.58550297423756
 30
0.0
 40
56.0
 50
286.83687407544642
 51
298.62063239655851
  0
LINE
  5
A59
  8
DRG
 10
288.67677241780871
 20
601.28550297423737
 30
0.0
 11
270.976772417809
 21
601.28550297423737
 31
0.0
  0
ARC
  5
A5A
  8
DRG
 10
270.976772417809
 20
600.48550297423753
 30
0.0
 40
0.8
 50
90.0
 51
180.0
  0
LINE
  5
A5B
  8
DRG
 10
245.17677241780899
 20
586.67916744565684
 30
0.0
 11
245.17677241780899
 21
461.81648264637198
 31
0.0
  0
DIMENSION
  5
A5C
  8
DIM
  2
*D2
 10
288.67677241780871
 20
589.01180487680267
 30
0.0
 11
306.16828309545139
 21
589.01180487680267
 31
0.0
 70
   128
 13
280.17677241780899
 23
574.08550297423744
 33
0.0
 14
288.67677241780871
 24
601.28550297423737
 34
0.0
1001
ACAD
1000
DSTYLE
1002
{
1070
   287
1070
     3
1070
   279
1070
     0
1002
}
  0
DIMENSION
  5
A6A
  8
DIM
  2
*D3
 10
288.17597241780919
 20
527.01947961178485
 30
0.0
 11
306.64897839475492
 21
527.01947961178485
 31
0.0
 70
   128
 13
280.17677241780899
 23
574.0855029742371
 33
0.0
 14
288.17597241780919
 24
548.49287562139909
 34
0.0
1001
ACAD
1000
DSTYLE
1002
{
1070
   287
1070
     3
1070
    75
1070
     1
1070
   279
1070
     0
1002
}
  0
TEXT
  5
AF0
  8
DIM
 10
294.18011642593149
 20
518.99162987910574
 30
0.0
 40
5.0
  1
(0.32")
 72
     4
 11
306.79916404497902
 21
521.13448702196297
 31
0.0
  0
TEXT
  5
AF1
  8
DIM
 10
295.1496126486964
 20
581.36525546462815
 30
0.0
 40
5.0
  1
(0.35")
 72
     4
 11
307.768660267744
 21
583.50811260748526
 31
0.0
  0
LINE
  5
AF2
  8
DRG
 10
283.67677241780922
 20
702.58550297423744
 30
0.0
 11
268.60497564808452
 21
702.58550297423744
 31
0.0
  0
LINE
  5
AF3
  8
DRG
 10
197.17677241780899
 20
590.58550297423744
 30
0.0
 11
196.67677241780899
 21
590.58550297423744
 31
0.0
  0
ARC
  5
AF5
  8
DRG
 10
283.67677241780922
 20
697.58550297423744
 30
0.0
 40
5.0
 50
359.99999999999972
 51
90.0
  0
ARC
  5
AF7
  8
DRG
 10
197.17677241780899
 20
587.58550297423744
 30
0.0
 40
3.0
 50
0.0000000000003562
 51
90.0
  0
LINE
  5
B14
  8
DRG
 10
210.74856918753341
 20
702.58550297423744
 30
0.0
 11
196.67677241780899
 21
702.58550297423744
 31
0.0
  0
ARC
  5
B15
  8
DRG
 10
217.67677241780891
 20
701.58550297423744
 30
0.0
 40
5.0
 50
90.000000000000171
 51
180.0
  0
ARC
  5
B16
  8
DRG
 10
261.67677241780899
 20
701.58550297423744
 30
0.0
 40
5.0
 50
359.99999999998693
 51
90.0
  0
ARC
  5
B17
  8
DRG
 10
268.60497564808452
 20
705.58550297423744
 30
0.0
 40
3.0
 50
210.0000000000004
 51
270.0
  0
ARC
  5
B18
  8
DRG
 10
210.74856918753341
 20
705.58550297423744
 30
0.0
 40
3.0
 50
270.0
 51
330.00000000000023
  0
ARC
  5
B4F
  8
DRG2
  6
PHANTOM
 10
565.99153278826952
 20
646.58550297423744
 30
0.0
 40
15.0
 50
105.4660099534205
 51
74.533990046579447
  0
LINE
  5
B50
  8
DRG2
  6
PHANTOM
 10
561.99153278826941
 20
664.58550297423756
 30
0.0
 11
569.99153278826952
 21
664.58550297423756
 31
0.0
  0
LINE
  5
B51
  8
DRG2
  6
PHANTOM
 10
561.99153278826941
 20
664.58550297423756
 30
0.0
 11
561.99153278826941
 21
657.58550297423756
 31
0.0
  0
LINE
  5
B52
  8
DRG2
  6
PHANTOM
 10
569.99153278826952
 20
664.58550297423756
 30
0.0
 11
569.99153278826952
 21
657.58550297423767
 31
0.0
  0
LINE
  5
B56
  8
DRG2
  6
PHANTOM
 10
561.99153278826964
 20
657.58550297423756
 30
0.0
 11
569.99153278826964
 21
657.58550297423767
 31
0.0
  0
LINE
  5
B57
  8
DIM
 10
306.50930575114251
 20
527.01947961178485
 30
0.0
 11
318.40702063775677
 21
527.01947961178485
 31
0.0
  0
LINE
  5
B59
  8
DIM
 10
309.21590214307042
 20
589.01180487680267
 30
0.0
 11
319.3695207165938
 21
589.01180487680267
 31
0.0
  0
TEXT
  5
BA8
  8
DIM
 10
309.8923788527656
 20
740.50579069673881
 30
0.0
 40
5.0
  1
FACING SHAFT IS
  0
TEXT
  5
BA9
  8
DIM
 10
311.95584997551322
 20
731.74000783073802
 30
0.0
 40
5.0
  1
NON-STANDARD
  0
TEXT
  5
BAA
  8
DIM
 10
309.29730851401359
 20
714.49495144597154
 30
0.0
 40
5.0
  1
OPTIONAL EXTRA
  0
TEXT
  5
BAB
  8
DIM
 10
322.49252524522649
 20
723.55375748211031
 30
0.0
 40
5.0
  1
BUT IS AN 
  0
TEXT
  5
BAC
  8
DIM
 10
323.02301964708221
 20
748.75705061077804
 30
0.0
 40
5.0
  1
DOWNWARD 
  0
LINE
  5
BAD
  8
DRG
 10
197.00067547994649
 20
994.62806973274428
 30
0.0
 11
182.92887871022211
 21
994.62806973274428
 31
0.0
  0
ARC
  5
BAE
  8
DRG
 10
203.92887871022199
 20
993.62806973274428
 30
0.0
 40
5.0
 50
90.000000000000171
 51
180.0
  0
ARC
  5
BAF
  8
DRG
 10
197.00067547994649
 20
997.62806973274417
 30
0.0
 40
3.0
 50
270.0
 51
330.00000000000023
  0
LINE
  5
BB0
  8
DRG
 10
222.3014683025317
 20
998.62806973274417
 30
0.0
 11
203.92887871022199
 21
998.62806973274417
 31
0.0
  0
LINE
  5
BB1
  8
DRG
 10
198.92887871022199
 20
993.62806973274428
 30
0.0
 11
198.92887871022211
 21
834.07660688278872
 31
0.0
  0
LINE
  5
BB4
  8
DRG
 10
195.80964665018089
 20
845.39930787212302
 30
0.0
 11
189.42887871022231
 21
845.39930787212302
 31
0.0
  0
LINE
  5
BB5
  8
DRG
 10
186.42887871022231
 20
848.39930787212302
 30
0.0
 11
186.42887871022211
 21
879.62806973274428
 31
0.0
  0
ARC
  5
BB6
  8
DRG
 10
189.42887871022231
 20
848.39930787212302
 30
0.0
 40
3.0
 50
180.0
 51
270.0
  0
ARC
  5
BB7
  8
DRG
 10
183.42887871022211
 20
879.62806973274428
 30
0.0
 40
3.0
 50
0.0000000000003562
 51
90.0
  0
LINE
  5
BB8
  8
DRG
 10
183.42887871022211
 20
882.62806973274417
 30
0.0
 11
182.92887871022211
 21
882.62806973274417
 31
0.0
  0
ARC
  5
BB9
  8
DRG
 10
195.80964665018089
 20
842.3993078721229
 30
0.0
 40
3.0
 50
0.0
 51
90.0
  0
DIMENSION
  5
BC3
  8
DIM
  2
*D4
 10
200.17677241780899
 20
282.72031358684711
 30
0.0
 11
240.17677241780919
 21
286.72031358684711
 31
0.0
 70
     0
 13
280.17677241780927
 23
312.08550297423727
 33
0.0
 14
200.17677241780899
 24
393.08550297423739
 34
0.0
  0
TEXT
  5
BD0
  8
DIM
 10
228.00159898975829
 20
274.19546965178421
 30
0.0
 40
5.0
  1
(3.15")
 72
     4
 11
240.1444561326154
 21
276.33832679464132
 31
0.0
  0
LINE
  5
BE3
  8
DRG
 10
270.17677241780899
 20
436.64557890531609
 30
0.0
 11
270.17677241780899
 21
312.08550297423727
 31
0.0
  0
LINE
  5
BE4
  8
DRG
 10
280.1767724178091
 20
436.46955706165949
 30
0.0
 11
280.17677241780927
 21
312.08550297423727
 31
0.0
  0
LINE
  5
BE5
  8
DRG
 10
245.17677241780899
 20
448.08689835302579
 30
0.0
 11
245.17677241780899
 21
312.08550297423727
 31
0.0
  0
INSERT
  5
D7C
  8
0
  2
ROTORK_GEARS_LOGO
 10
12.70066427072515
 20
39.490463296805977
 30
0.0
 41
0.70000000000001
 42
0.70000000000001
 43
0.7000000000000001
  0
VIEWPORT
  5
32
 67
     1
  8
0
 10
210.00000022409631
 20
152.0942409999999
 30
0.0
 40
420.00000044819268
 41
304.18848199999991
 68
     1
 69
     1
1001
ACAD
1000
MVIEW
1002
{
1070
    16
1010
0.0
1020
0.0
1030
0.0
1010
0.0
1020
0.0
1030
1.0
1040
0.0
1040
304.18848199999991
1040
210.00000022409631
1040
152.0942409999999
1040
50.0
1040
0.0
1040
0.0
1070
     0
1070
  2000
1070
     1
1070
     1
1070
     1
1070
     0
1070
     0
1070
     1
1040
0.0
1040
0.0
1040
0.0
1040
5.0
1040
5.0
1040
10.0
1040
10.0
1070
     0
1002
{
1002
}
1002
}
  0
ENDSEC
  0
EOF
