  0
SECTION
  2
HEADER
  9
$ACADVER
  1
AC1014
  9
$ACADMAINTVER
 70
     9
  9
$DWGCODEPAGE
  3
ANSI_1252
  9
$INSBASE
 10
0.0
 20
0.0
 30
0.0
  9
$EXTMIN
 10
10.0
 20
29.15194523181486
 30
0.0
  9
$EXTMAX
 10
760.0
 20
1055.750979997326
 30
1.8
  9
$LIMMIN
 10
0.0
 20
0.0
  9
$LIMMAX
 10
840.0
 20
1188.0
  9
$ORTHOMODE
 70
     1
  9
$REGENMODE
 70
     1
  9
$FILLMODE
 70
     1
  9
$QTEXTMODE
 70
     0
  9
$MIRRTEXT
 70
     0
  9
$DRAGMODE
 70
     2
  9
$LTSCALE
 40
0.5
  9
$OSMODE
 70
    39
  9
$ATTMODE
 70
     1
  9
$TEXTSIZE
 40
5.0
  9
$TRACEWID
 40
10.0
  9
$TEXTSTYLE
  7
STANDARD
  9
$CLAYER
  8
DIM
  9
$CELTYPE
  6
BYLAYER
  9
$CECOLOR
 62
   256
  9
$CELTSCALE
 40
1.0
  9
$DELOBJ
 70
     1
  9
$DISPSILH
 70
     0
  9
$DIMSCALE
 40
1.0
  9
$DIMASZ
 40
6.0
  9
$DIMEXO
 40
5.0
  9
$DIMDLI
 40
10.0
  9
$DIMRND
 40
0.0
  9
$DIMDLE
 40
1.25
  9
$DIMEXE
 40
2.0
  9
$DIMTP
 40
0.0
  9
$DIMTM
 40
0.0
  9
$DIMTXT
 40
5.0
  9
$DIMCEN
 40
-3.0
  9
$DIMTSZ
 40
0.0
  9
$DIMTOL
 70
     0
  9
$DIMLIM
 70
     0
  9
$DIMTIH
 70
     0
  9
$DIMTOH
 70
     0
  9
$DIMSE1
 70
     0
  9
$DIMSE2
 70
     0
  9
$DIMTAD
 70
     1
  9
$DIMZIN
 70
     0
  9
$DIMBLK
  1

  9
$DIMASO
 70
     1
  9
$DIMSHO
 70
     0
  9
$DIMPOST
  1

  9
$DIMAPOST
  1

  9
$DIMALT
 70
     0
  9
$DIMALTD
 70
     2
  9
$DIMALTF
 40
0.039
  9
$DIMLFAC
 40
1.0
  9
$DIMTOFL
 70
     0
  9
$DIMTVP
 40
1.5
  9
$DIMTIX
 70
     0
  9
$DIMSOXD
 70
     0
  9
$DIMSAH
 70
     0
  9
$DIMBLK1
  1

  9
$DIMBLK2
  1

  9
$DIMSTYLE
  2
STD
  9
$DIMCLRD
 70
   256
  9
$DIMCLRE
 70
   256
  9
$DIMCLRT
 70
   256
  9
$DIMTFAC
 40
0.75
  9
$DIMGAP
 40
1.5
  9
$DIMJUST
 70
     0
  9
$DIMSD1
 70
     0
  9
$DIMSD2
 70
     0
  9
$DIMTOLJ
 70
     1
  9
$DIMTZIN
 70
     0
  9
$DIMALTZ
 70
     0
  9
$DIMALTTZ
 70
     0
  9
$DIMFIT
 70
     5
  9
$DIMUPT
 70
     0
  9
$DIMUNIT
 70
     2
  9
$DIMDEC
 70
     2
  9
$DIMTDEC
 70
     2
  9
$DIMALTU
 70
     2
  9
$DIMALTTD
 70
     2
  9
$DIMTXSTY
  7
STANDARD
  9
$DIMAUNIT
 70
     0
  9
$LUNITS
 70
     2
  9
$LUPREC
 70
     2
  9
$SKETCHINC
 40
1.0
  9
$FILLETRAD
 40
3.0
  9
$AUNITS
 70
     0
  9
$AUPREC
 70
     2
  9
$MENU
  1
ACAD
  9
$ELEVATION
 40
0.0
  9
$PELEVATION
 40
0.0
  9
$THICKNESS
 40
0.0
  9
$LIMCHECK
 70
     0
  9
$BLIPMODE
 70
     0
  9
$CHAMFERA
 40
0.0
  9
$CHAMFERB
 40
0.0
  9
$CHAMFERC
 40
0.0
  9
$CHAMFERD
 40
0.0
  9
$SKPOLY
 70
     1
  9
$TDCREATE
 40
2449626.477632639
  9
$TDUPDATE
 40
2452741.570905694
  9
$TDINDWG
 40
0.2984587616
  9
$TDUSRTIMER
 40
0.2984587616
  9
$USRTIMER
 70
     1
  9
$ANGBASE
 50
0.0
  9
$ANGDIR
 70
     0
  9
$PDMODE
 70
     3
  9
$PDSIZE
 40
0.0
  9
$PLINEWID
 40
0.0
  9
$COORDS
 70
     1
  9
$SPLFRAME
 70
     0
  9
$SPLINETYPE
 70
     6
  9
$SPLINESEGS
 70
     6
  9
$ATTDIA
 70
     0
  9
$ATTREQ
 70
     1
  9
$HANDLING
 70
-16383
  9
$HANDSEED
  5
D6B
  9
$SURFTAB1
 70
    18
  9
$SURFTAB2
 70
    18
  9
$SURFTYPE
 70
     6
  9
$SURFU
 70
    18
  9
$SURFV
 70
    18
  9
$UCSNAME
  2

  9
$UCSORG
 10
0.0
 20
0.0
 30
0.0
  9
$UCSXDIR
 10
1.0
 20
0.0
 30
0.0
  9
$UCSYDIR
 10
0.0
 20
1.0
 30
0.0
  9
$PUCSNAME
  2

  9
$PUCSORG
 10
0.0
 20
0.0
 30
0.0
  9
$PUCSXDIR
 10
1.0
 20
0.0
 30
0.0
  9
$PUCSYDIR
 10
0.0
 20
1.0
 30
0.0
  9
$USERI1
 70
     0
  9
$USERI2
 70
     0
  9
$USERI3
 70
     0
  9
$USERI4
 70
     0
  9
$USERI5
 70
     0
  9
$USERR1
 40
0.0
  9
$USERR2
 40
0.0
  9
$USERR3
 40
0.0
  9
$USERR4
 40
0.0
  9
$USERR5
 40
0.0
  9
$WORLDVIEW
 70
     0
  9
$SHADEDGE
 70
     3
  9
$SHADEDIF
 70
    70
  9
$TILEMODE
 70
     1
  9
$MAXACTVP
 70
    16
  9
$PINSBASE
 10
0.0
 20
0.0
 30
0.0
  9
$PLIMCHECK
 70
     0
  9
$PEXTMIN
 10
1.000000000000000E+20
 20
1.000000000000000E+20
 30
1.000000000000000E+20
  9
$PEXTMAX
 10
-1.000000000000000E+20
 20
-1.000000000000000E+20
 30
-1.000000000000000E+20
  9
$PLIMMIN
 10
0.0
 20
0.0
  9
$PLIMMAX
 10
420.0
 20
297.0
  9
$UNITMODE
 70
     0
  9
$VISRETAIN
 70
     0
  9
$PLINEGEN
 70
     0
  9
$PSLTSCALE
 70
     0
  9
$TREEDEPTH
 70
  3020
  9
$PICKSTYLE
 70
     0
  9
$CMLSTYLE
  2
STANDARD
  9
$CMLJUST
 70
     0
  9
$CMLSCALE
 40
1.0
  9
$PROXYGRAPHICS
 70
     1
  9
$MEASUREMENT
 70
     0
  0
ENDSEC
  0
SECTION
  2
CLASSES
  0
CLASS
  1
ACDBDICTIONARYWDFLT
  2
AcDbDictionaryWithDefault
  3
AutoCAD 2000
 90
        0
280
     0
281
     0
  0
CLASS
  1
ACDBPLACEHOLDER
  2
AcDbPlaceHolder
  3
AutoCAD 2000
 90
        0
280
     0
281
     0
  0
CLASS
  1
LAYOUT
  2
AcDbLayout
  3
AutoCAD 2000
 90
        0
280
     0
281
     0
  0
CLASS
  1
ACME_DOCUMENT
  2
AcMeDbDoc
  3
AcMeServices
 90
        0
280
     0
281
     0
  0
CLASS
  1
AMGSETTINGSOBJ
  2
AmgSettingsObj
  3
"AcadM|Product Description: AutoCAD Mechanical 2000|Company: Autodesk"
 90
        0
280
     0
281
     0
  0
CLASS
  1
ACMESCOPE
  2
AcMeScope
  3
AcMeServices
 90
        0
280
     0
281
     0
  0
CLASS
  1
ACMECOMMANDHISTORY
  2
AcMeCommandHistory
  3
AcMeServices
 90
        0
280
     0
281
     0
  0
CLASS
  1
DICTIONARYVAR
  2
AcDbDictionaryVar
  3
AutoCAD 2000
 90
        0
280
     0
281
     0
  0
CLASS
  1
ACIMSYSVARMAN
  2
AcImSysVarManager
  3
AcMeServices
 90
        0
280
     0
281
     0
  0
CLASS
  1
ACIMREALSYSVAR
  2
AcImRealSysVar
  3
AcMeServices
 90
        0
280
     0
281
     0
  0
CLASS
  1
ACIMINTSYSVAR
  2
AcImIntSysVar
  3
AcMeServices
 90
        0
280
     0
281
     0
  0
CLASS
  1
ACMEDRAWINGMAN
  2
AcMeDrawingMan
  3
AcMeServices
 90
        0
280
     0
281
     0
  0
CLASS
  1
ACMEVIEW
  2
AcMeView
  3
AcMeServices
 90
        0
280
     0
281
     0
  0
CLASS
  1
ACDBENTITYCACHE
  2
AcMeEntityCache
  3
AcMeServices
 90
        0
280
     0
281
     0
  0
CLASS
  1
GSMANAGER
  2
AcMeGSManager
  3
AcMeServices
 90
        0
280
     0
281
     0
  0
CLASS
  1
AmdtInternalReactor
  2
AmdtInternalReactor
  3
AcMeServices
 90
        0
280
     0
281
     0
  0
CLASS
  1
ACMESTATEMGR
  2
AcMeStateMgr
  3
AcMeServices
 90
        0
280
     0
281
     0
  0
CLASS
  1
ACGREFMASTER
  2
AcGrefMaster
  3
AcAttribServices
 90
        0
280
     0
281
     0
  0
CLASS
  1
AM_DRAWING_MGR
  2
AcDmDwgMgr
  3
AcMechDwgViewMgmt
 90
        0
280
     0
281
     0
  0
CLASS
  1
AM_DWG_DOCUMENT
  2
AcDmDwgDocument
  3
AcMechDwgViewMgmt
 90
        0
280
     0
281
     0
  0
CLASS
  1
AM_DWG_SHEET
  2
AcDmSheet
  3
AcMechDwgViewMgmt
 90
        0
280
     0
281
     0
  0
CLASS
  1
AM_VIEWDIMPARMAP
  2
AcDmViewDimParMap
  3
AcMechDwgViewMgmt
 90
        0
280
     0
281
     0
  0
CLASS
  1
AM_DWGMGR_NAME
  2
AcDmDwgMgrName
  3
AcMechDwgViewMgmt
 90
        0
280
     0
281
     0
  0
CLASS
  1
ACME_DATABASE
  2
AcMeDbDatabase
  3
AcMeServices
 90
        0
280
     0
281
     0
  0
CLASS
  1
ACRFINSADJUSTERMGR
  2
AcRfInsAdjusterMgr
  3
AcMeServices
 90
        0
280
     0
281
     0
  0
CLASS
  1
ACGREFMASTER
  2
AcGrefacadMaster
  3
AcGrefServices
 90
        0
280
     0
281
     0
  0
CLASS
  1
AMDTMENUSTATEMGR
  2
AmdtMenuStateMgr
  3
McadcomServices
 90
        0
280
     0
281
     0
  0
CLASS
  1
AMDTMCOMMENUSTATE
  2
AmdtMcomMenuState
  3
McadcomServices
 90
        0
280
     0
281
     0
  0
CLASS
  1
AMIMASTER
  2
AmiMaster
  3
AmiServices
 90
        0
280
     0
281
     0
  0
CLASS
  1
ASAPP
  2
AcAsAppObject
  3
AutoSurfServices
 90
        0
280
     0
281
     0
  0
CLASS
  1
IM_STATIC_MAN
  2
AcImStaticVarManager
  3
AcMeServices
 90
        0
280
     0
281
     0
  0
CLASS
  1
ACIMSTRSYSVAR
  2
AcImStrSysVar
  3
AcMeServices
 90
        0
280
     0
281
     0
  0
CLASS
  1
ACIMDBLSTATICVAR
  2
AcImDblStaticVar
  3
AcMeServices
 90
        0
280
     0
281
     0
  0
CLASS
  1
ACIMSTRSTATICVAR
  2
AcImStrStaticVar
  3
AcMeServices
 90
        0
280
     0
281
     0
  0
CLASS
  1
ACIMINTSTATICVAR
  2
AcImIntStaticVar
  3
AcMeServices
 90
        0
280
     0
281
     0
  0
CLASS
  1
ACASGREFMASTER
  2
AcAsGrefMaster
  3
AutoSurfResolverServices
 90
        0
280
     0
281
     0
  0
CLASS
  1
ACADGREFMODULE
  2
AcAdGrefModule
  3
AdGrefServices
 90
        0
280
     0
281
     0
  0
CLASS
  1
AmdtMApiSurfModule
  2
AmdtMApiSurfModule
  3
MApiSurfServices
 90
        0
280
     0
281
     0
  0
CLASS
  1
MAPIAMMOUDLE
  2
MApiAmModule
  3
MApiAmServices
 90
        0
280
     0
281
     0
  0
CLASS
  1
AMDTADMENUSTATE
  2
AmdtAdMenuState
  3
DesignerServices
 90
        0
280
     0
281
     0
  0
CLASS
  1
ADAPPL
  2
AcAdAppl
  3
DesignerServices
 90
        0
280
     0
281
     0
  0
CLASS
  1
DEPMGR
  2
AcAdDepMgr
  3
DesignerServices
 90
        0
280
     0
281
     0
  0
CLASS
  1
PARAMMGR
  2
AcAdParamMgr
  3
DesignerServices
 90
        0
280
     0
281
     0
  0
CLASS
  1
PARAMSCOPE
  2
AcAdParamScope
  3
DesignerServices
 90
        0
280
     0
281
     0
  0
CLASS
  1
NAMEDAPPL
  2
AcAdNamedAppl
  3
DesignerServices
 90
        0
280
     0
281
     0
  0
CLASS
  1
ADHNTMPLT
  2
AdHoleNoteTemplateMgr
  3
DesignerServices
 90
        0
280
     0
281
     0
  0
CLASS
  1
AM_HNTEMPLATE_MGR_NAME
  2
AdHoleNoteTemplateMgrName
  3
DesignerServices
 90
        0
280
     0
281
     0
  0
CLASS
  1
AMDTDMMENUSTATE
  2
AmdtDmMenuState
  3
AcMechDwgViewMgmt
 90
        0
280
     0
281
     0
  0
CLASS
  1
MAPIADMODULE
  2
MApiAdModule
  3
MApiAdServices
 90
        0
280
     0
281
     0
  0
CLASS
  1
AMDTAMMENUSTATE
  2
AmdtAmMenuState
  3
DesignerAssemblies
 90
        0
280
     0
281
     0
  0
CLASS
  1
ACAMPROJECT
  2
AcAmProject
  3
DesignerAssemblies
 90
        0
280
     0
281
     0
  0
CLASS
  1
ACAMGRCOMPDEF
  2
AcAmGrCompDef
  3
DesignerAssemblies
 90
        0
280
     0
281
     0
  0
CLASS
  1
ACCMCONTEXT
  2
AcCmContext
  3
DesignerAssemblies
 90
        0
280
     0
281
     0
  0
CLASS
  1
ACAMCOMPDEF
  2
AcAmCompDef
  3
DesignerAssemblies
 90
        0
280
     0
281
     0
  0
CLASS
  1
ACAMCOMPDEFMGR
  2
AcAmCompDefMgr
  3
DesignerAssemblies
 90
        0
280
     0
281
     0
  0
CLASS
  1
AMCONTEXTMGR
  2
AcAmContextMgr
  3
DesignerAssemblies
 90
        0
280
     0
281
     0
  0
CLASS
  1
ACAMCONTEXTMODELER
  2
AcAmContextModeler
  3
DesignerAssemblies
 90
        0
280
     0
281
     0
  0
CLASS
  1
ACMDATADICTIONARY
  2
AcmDataDictionary
  3
"AcmSymBB|Product Description: AutoCAD Mechanical 2000|Company: Autodesk"
 90
        0
280
     0
281
     0
  0
CLASS
  1
ACMDATAENTRYBLOCK
  2
AcmDataEntryBlock
  3
"AcmSymBB|Product Description: AutoCAD Mechanical 2000|Company: Autodesk"
 90
        0
280
     0
281
     0
  0
CLASS
  1
CATALOGSTATE
  2
AcAmCatalogState
  3
DesignerAssemblies
 90
        0
280
     0
281
     0
  0
CLASS
  1
ACAMGRCOMPDEFSET
  2
AcAmGrCompDefSet
  3
DesignerAssemblies
 90
        0
280
     0
281
     0
  0
CLASS
  1
AMDTBROWSERDBTAB
  2
AmdtBrowserDbTab
  3
McadcomServices
 90
        0
280
     0
281
     0
  0
CLASS
  1
CBROWSERAPPOBJECT
  2
CBrowserAppObject
  3
McadcomServices
 90
        0
280
     0
281
     0
  0
CLASS
  1
DM_PLACEHOLDER
  2
AcDmSelsetPlaceholder
  3
AcMechDwgViewMgmt
 90
        0
280
     0
281
     0
  0
CLASS
  1
AMGOBJPROPCFG
  2
AmgObjPropCfg
  3
"AmgLay|Product Description: AutoCAD Mechanical 2000|Company: Autodesk"
 90
        1
280
     0
281
     0
  0
CLASS
  1
ACAMGFILTERDAT
  2
AcAmgFilterDat
  3
"AcadM|Product Description: AutoCAD Mechanical 2000|Company: Autodesk"
 90
        0
280
     0
281
     0
  0
CLASS
  1
AMDTFORMULAUPDATEDISPATCHER
  2
AmdtFormulaUpdateDispatcher
  3
AcMeServices
 90
        0
280
     0
281
     0
  0
CLASS
  1
LAYER_INDEX
  2
AcDbLayerIndex
  3
AutoCAD 2000
 90
        0
280
     0
281
     0
  0
CLASS
  1
IDBUFFER
  2
AcDbIdBuffer
  3
AutoCAD 2000
 90
        0
280
     0
281
     0
  0
CLASS
  1
ACAD_PROXY_OBJECT_WRAPPER
  2
AcDbProxyObjectWrapper
  3
AutoCAD 2000
 90
        0
280
     0
281
     0
  0
CLASS
  1
LONG_TRANSACTION
  2
AcDbLongTransaction
  3
AutoCAD 2000
 90
        0
280
     0
281
     0
  0
CLASS
  1
LWPOLYLINE
  2
AcDbPolyline
  3
AutoCAD 2000
 90
        0
280
     0
281
     1
  0
CLASS
  1
HATCH
  2
AcDbHatch
  3
AutoCAD 2000
 90
        0
280
     0
281
     1
  0
CLASS
  1
XRECORD
  2
AcDbXrecord
  3
AutoCAD 2000
 90
        0
280
     0
281
     0
  0
ENDSEC
  0
SECTION
  2
TABLES
  0
TABLE
  2
VPORT
  5
43B
330
0
100
AcDbSymbolTable
 70
     2
  0
VPORT
  5
D27
330
43B
100
AcDbSymbolTableRecord
100
AcDbViewportTableRecord
  2
*ACTIVE
 70
     0
 10
0.0
 20
0.0
 11
1.0
 21
1.0
 12
-62.27708481472792
 22
0.0
 13
0.0
 23
0.0
 14
5.0
 24
5.0
 15
50.0
 25
50.0
 16
0.0
 26
0.0
 36
1.0
 17
496.4832165533637
 27
542.4727505087767
 37
0.0
 40
1034.033598127469
 41
1.577749683944374
 42
50.0
 43
0.0
 44
0.0
 50
0.0
 51
0.0
 71
     0
 72
  2000
 73
     1
 74
     2
 75
     0
 76
     0
 77
     0
 78
     1
  0
ENDTAB
  0
TABLE
  2
LTYPE
  5
438
330
0
100
AcDbSymbolTable
 70
    14
  0
LTYPE
  5
446
330
438
100
AcDbSymbolTableRecord
100
AcDbLinetypeTableRecord
  2
BYBLOCK
 70
     0
  3

 72
    65
 73
     0
 40
0.0
  0
LTYPE
  5
447
330
438
100
AcDbSymbolTableRecord
100
AcDbLinetypeTableRecord
  2
BYLAYER
 70
     0
  3

 72
    65
 73
     0
 40
0.0
  0
LTYPE
  5
448
330
438
100
AcDbSymbolTableRecord
100
AcDbLinetypeTableRecord
  2
CONTINUOUS
 70
     0
  3
Solid line
 72
    65
 73
     0
 40
0.0
  0
LTYPE
  5
455
330
438
100
AcDbSymbolTableRecord
100
AcDbLinetypeTableRecord
  2
CENTER
 70
     0
  3
____ _ ____ _ ____ _ ____ _ ____ _ ____ _ ____ 
 72
    65
 73
     4
 40
50.0
 49
31.25
 74
     0
 49
-6.25
 74
     0
 49
6.25
 74
     0
 49
-6.25
 74
     0
  0
LTYPE
  5
456
330
438
100
AcDbSymbolTableRecord
100
AcDbLinetypeTableRecord
  2
HIDDEN
 70
     0
  3
_ _ _ _ _ _ _ _ _ _ _ _ _ _ _ _ _ _ _ _ _ _ _ _
 72
    65
 73
     2
 40
9.375
 49
6.25
 74
     0
 49
-3.125
 74
     0
  0
LTYPE
  5
4AD
330
438
100
AcDbSymbolTableRecord
100
AcDbLinetypeTableRecord
  2
PHANTOM
 70
     0
  3
Phantom ______  __  __  ______  __  __  ______
 72
    65
 73
     6
 40
2.5
 49
1.25
 74
     0
 49
-0.25
 74
     0
 49
0.25
 74
     0
 49
-0.25
 74
     0
 49
0.25
 74
     0
 49
-0.25
 74
     0
  0
LTYPE
  5
BA9
330
438
100
AcDbSymbolTableRecord
100
AcDbLinetypeTableRecord
  2
PHANTOM2
 70
     0
  3
Phantom (.5x) ___ _ _ ___ _ _ ___ _ _ ___ _ _
 72
    65
 73
     6
 40
1.25
 49
0.625
 74
     0
 49
-0.125
 74
     0
 49
0.125
 74
     0
 49
-0.125
 74
     0
 49
0.125
 74
     0
 49
-0.125
 74
     0
  0
LTYPE
  5
C09
330
438
100
AcDbSymbolTableRecord
100
AcDbLinetypeTableRecord
  2
ASULTYPE
 70
     0
  3
Solid line
 72
    65
 73
     2
 40
3.0
 49
2.5
 74
     0
 49
0.5
 74
     0
  0
LTYPE
  5
C0A
330
438
100
AcDbSymbolTableRecord
100
AcDbLinetypeTableRecord
  2
ASVLTYPE
 70
     0
  3
__ __ __ __ __ __ __ __ __ __ __ __ __ __ __ __ __ __ __ __ __
 72
    65
 73
     2
 40
0.75
 49
0.5
 74
     0
 49
-0.25
 74
     0
  0
LTYPE
  5
C4D
330
438
100
AcDbSymbolTableRecord
100
AcDbLinetypeTableRecord
  2
AM_ISO02W050
 70
     0
  3
__ __ __ __ __ __ __ __ __ __ __ __ __ __ __
 72
    65
 73
     2
 40
7.5
 49
6.0
 74
     0
 49
-1.5
 74
     0
  0
LTYPE
  5
C4E
330
438
100
AcDbSymbolTableRecord
100
AcDbLinetypeTableRecord
  2
AM_ISO08W050
 70
     0
  3
____ . ____ . ____ . ____ . ____ . ____ . ____
 72
    65
 73
     4
 40
18.0
 49
12.0
 74
     0
 49
-1.5
 74
     0
 49
3.0
 74
     0
 49
-1.5
 74
     0
  0
LTYPE
  5
C4F
330
438
100
AcDbSymbolTableRecord
100
AcDbLinetypeTableRecord
  2
AM_ISO09W050
 70
     0
  3
_____ . . _____ . . _____ . . ____ .. ____
 72
    65
 73
     6
 40
22.5
 49
12.0
 74
     0
 49
-1.5
 74
     0
 49
3.0
 74
     0
 49
-1.5
 74
     0
 49
3.0
 74
     0
 49
-1.5
 74
     0
  0
LTYPE
  5
C50
330
438
100
AcDbSymbolTableRecord
100
AcDbLinetypeTableRecord
  2
AMCONSTR
 70
     0
  3
_______________________
 72
    65
 73
     2
 40
9999.0
 49
9999.0
 74
     0
 49
0.0
 74
     0
  0
LTYPE
  5
C51
330
438
100
AcDbSymbolTableRecord
100
AcDbLinetypeTableRecord
  2
AM_ISO08W050X2
 70
     0
  3
__ . __ . __ . __ . __ . __
 72
    65
 73
     4
 40
9.0
 49
6.0
 74
     0
 49
-0.75
 74
     0
 49
1.5
 74
     0
 49
-0.75
 74
     0
  0
LTYPE
  5
C52
330
438
100
AcDbSymbolTableRecord
100
AcDbLinetypeTableRecord
  2
AM_ISO02W050X2
 70
     0
  3
 _ _ _ _ _ _ _ _ _ _ _ _
 72
    65
 73
     2
 40
3.75
 49
3.0
 74
     0
 49
-0.75
 74
     0
  0
LTYPE
  5
C55
330
438
100
AcDbSymbolTableRecord
100
AcDbLinetypeTableRecord
  2
AMZIGZAG
 70
     0
  3
/\/-/\/-/\/-/\/-/\/-/\/
 72
    65
 73
     2
 40
11.00009999999999
 49
0.0001
 74
     4
 75
   135
340
C54
 46
0.04
 50
0.0
 44
0.0
 45
0.0
 49
-11.0
 74
     0
  0
ENDTAB
  0
TABLE
  2
LAYER
  5
435
330
0
100
AcDbSymbolTable
 70
     9
  0
LAYER
  5
443
330
435
100
AcDbSymbolTableRecord
100
AcDbLayerTableRecord
  2
0
 70
     0
 62
     7
  6
CONTINUOUS
  0
LAYER
  5
45D
330
435
100
AcDbSymbolTableRecord
100
AcDbLayerTableRecord
  2
DRG
 70
     0
 62
     1
  6
CONTINUOUS
  0
LAYER
  5
45E
330
435
100
AcDbSymbolTableRecord
100
AcDbLayerTableRecord
  2
CRS
 70
     0
 62
     3
  6
CENTER
  0
LAYER
  5
45F
330
435
100
AcDbSymbolTableRecord
100
AcDbLayerTableRecord
  2
HID
 70
     0
 62
     6
  6
HIDDEN
  0
LAYER
  5
460
330
435
100
AcDbSymbolTableRecord
100
AcDbLayerTableRecord
  2
BORT
 70
     0
 62
     7
  6
CONTINUOUS
  0
LAYER
  5
461
330
435
100
AcDbSymbolTableRecord
100
AcDbLayerTableRecord
  2
TXT
 70
     0
 62
     4
  6
CONTINUOUS
  0
LAYER
  5
462
330
435
100
AcDbSymbolTableRecord
100
AcDbLayerTableRecord
  2
DIM
 70
     0
 62
     2
  6
CONTINUOUS
  0
LAYER
  5
463
330
435
100
AcDbSymbolTableRecord
100
AcDbLayerTableRecord
  2
DRG2
 70
     0
 62
     8
  6
CONTINUOUS
  0
LAYER
  5
466
330
435
100
AcDbSymbolTableRecord
100
AcDbLayerTableRecord
  2
DEFPOINTS
 70
     0
 62
     7
  6
CONTINUOUS
  0
ENDTAB
  0
TABLE
  2
STYLE
  5
436
330
0
100
AcDbSymbolTable
 70
     3
  0
STYLE
  5
444
330
436
100
AcDbSymbolTableRecord
100
AcDbTextStyleTableRecord
  2
STANDARD
 70
     0
 40
0.0
 41
1.0
 50
0.0
 71
     0
 42
5.0
  3
SIMPLEX
  4

  0
STYLE
  5
4AE
330
436
100
AcDbSymbolTableRecord
100
AcDbTextStyleTableRecord
  2
ROMANS
 70
     0
 40
5.0
 41
1.0
 50
0.0
 71
     0
 42
5.0
  3
romans
  4

  0
STYLE
  5
C54
330
436
100
AcDbSymbolTableRecord
100
AcDbTextStyleTableRecord
  2

 70
     1
 40
0.0
 41
1.0
 50
0.0
 71
     0
 42
5.0
  3
ltypeshp.shx
  4

  0
ENDTAB
  0
TABLE
  2
VIEW
  5
439
330
0
100
AcDbSymbolTable
 70
     0
  0
ENDTAB
  0
TABLE
  2
UCS
  5
43A
330
0
100
AcDbSymbolTable
 70
     0
  0
ENDTAB
  0
TABLE
  2
APPID
  5
43C
330
0
100
AcDbSymbolTable
 70
    12
  0
APPID
  5
445
330
43C
100
AcDbSymbolTableRecord
100
AcDbRegAppTableRecord
  2
ACAD
 70
     0
  0
APPID
  5
B86
330
43C
100
AcDbSymbolTableRecord
100
AcDbRegAppTableRecord
  2
GENIUS_GENDIM_13
 70
     0
  0
APPID
  5
B87
330
43C
100
AcDbSymbolTableRecord
100
AcDbRegAppTableRecord
  2
GENIUS_GENDTOL_13
 70
     0
  0
APPID
  5
B88
330
43C
100
AcDbSymbolTableRecord
100
AcDbRegAppTableRecord
  2
GENIUS_GE3DTOL_13
 70
     0
  0
APPID
  5
B8A
330
43C
100
AcDbSymbolTableRecord
100
AcDbRegAppTableRecord
  2
MCAD_NO_VIS
 70
     0
  0
APPID
  5
B8B
330
43C
100
AcDbSymbolTableRecord
100
AcDbRegAppTableRecord
  2
ACAD_TEMP_GRAPHIC
 70
     0
  0
APPID
  5
BBC
330
43C
100
AcDbSymbolTableRecord
100
AcDbRegAppTableRecord
  2
AD_DRAW
 70
     0
  0
APPID
  5
BBF
330
43C
100
AcDbSymbolTableRecord
100
AcDbRegAppTableRecord
  2
ACATTRIBSERVICES
 70
     0
  0
APPID
  5
C0B
330
43C
100
AcDbSymbolTableRecord
100
AcDbRegAppTableRecord
  2
ASURF_PCURVE_APPNAME
 70
     0
  0
APPID
  5
C3D
330
43C
100
AcDbSymbolTableRecord
100
AcDbRegAppTableRecord
  2
DESIGNERASSEMBLIES
 70
     0
  0
APPID
  5
C45
330
43C
100
AcDbSymbolTableRecord
100
AcDbRegAppTableRecord
  2
ACADM_DIM_EDIT
 70
     0
  0
APPID
  5
D6A
330
43C
100
AcDbSymbolTableRecord
100
AcDbRegAppTableRecord
  2
CONTENTBLOCKICON
 70
     0
  0
ENDTAB
  0
TABLE
  2
DIMSTYLE
  5
43D
330
0
100
AcDbSymbolTable
 70
     2
  0
DIMSTYLE
105
45A
102
{ACAD_REACTORS
330
9AF
330
9BB
330
A87
330
9D4
330
B12
102
}
330
43D
100
AcDbSymbolTableRecord
100
AcDbDimStyleTableRecord
  2
STD
 70
     0
  3

  4

  5

  6

  7

 40
1.0
 41
6.0
 42
5.0
 43
10.0
 44
2.0
 45
0.0
 46
1.25
 47
0.0
 48
0.0
140
5.0
141
-3.0
142
0.0
143
0.039
144
1.0
145
1.5
146
0.75
147
1.5
 71
     0
 72
     0
 73
     0
 74
     0
 75
     0
 76
     0
 77
     1
 78
     0
170
     0
171
     2
172
     0
173
     0
174
     0
175
     0
176
   256
177
   256
178
   256
270
     2
271
     2
272
     2
273
     2
274
     2
340
444
275
     0
280
     0
281
     0
282
     0
283
     1
284
     0
285
     0
286
     0
287
     5
288
     0
  0
DIMSTYLE
105
4AF
330
43D
100
AcDbSymbolTableRecord
100
AcDbDimStyleTableRecord
  2
STANDARD
 70
     0
  3

  4

  5

  6

  7

 40
1.0
 41
6.0
 42
2.5
 43
10.0
 44
2.5
 45
0.0
 46
1.25
 47
0.0
 48
0.0
140
3.0
141
-3.0
142
0.0
143
0.039
144
1.0
145
1.5
146
0.75
147
1.5
 71
     0
 72
     0
 73
     0
 74
     0
 75
     0
 76
     0
 77
     0
 78
     0
170
     0
171
     2
172
     0
173
     0
174
     0
175
     0
176
     0
177
     0
178
     0
270
     2
271
     2
272
     2
273
     2
274
     2
340
4AE
275
     0
280
     0
281
     0
282
     0
283
     1
284
     0
285
     0
286
     0
287
     5
288
     0
  0
ENDTAB
  0
TABLE
  2
BLOCK_RECORD
  5
434
330
0
100
AcDbSymbolTable
 70
     8
  0
BLOCK_RECORD
  5
451
102
{ACAD_XDICTIONARY
360
D16
102
}
330
434
100
AcDbSymbolTableRecord
100
AcDbBlockTableRecord
  2
*MODEL_SPACE
  0
BLOCK_RECORD
  5
44D
102
{ACAD_XDICTIONARY
360
D49
102
}
330
434
100
AcDbSymbolTableRecord
100
AcDbBlockTableRecord
  2
*PAPER_SPACE
  0
BLOCK_RECORD
  5
9FD
330
434
100
AcDbSymbolTableRecord
100
AcDbBlockTableRecord
  2
*D0
  0
BLOCK_RECORD
  5
A09
330
434
100
AcDbSymbolTableRecord
100
AcDbBlockTableRecord
  2
*D1
  0
BLOCK_RECORD
  5
A15
330
434
100
AcDbSymbolTableRecord
100
AcDbBlockTableRecord
  2
*D2
  0
BLOCK_RECORD
  5
A89
330
434
100
AcDbSymbolTableRecord
100
AcDbBlockTableRecord
  2
*D3
  0
BLOCK_RECORD
  5
B13
330
434
100
AcDbSymbolTableRecord
100
AcDbBlockTableRecord
  2
*D4
  0
BLOCK_RECORD
  5
C34
330
434
100
AcDbSymbolTableRecord
100
AcDbBlockTableRecord
  2
*U5
  0
BLOCK_RECORD
  5
C60
330
434
100
AcDbSymbolTableRecord
100
AcDbBlockTableRecord
  2
LOGO
1001
ACAD
1000
DesignCenter Data
1002
{
1070
     1
1070
     4
1002
}
1001
CONTENTBLOCKICON
1071
        0
1004
2800000020000000200000000100080000000000000400000000000000000000000000000000000000000000000080000080000000808000800000008000800080800000C0C0C000C0DCC000F0CAA6000020400000206000002080000020A0000020C0000020E00000400000004020000040400000406000004080000040A0
1004
000040C0000040E00000600000006020000060400000606000006080000060A0000060C0000060E00000800000008020000080400000806000008080000080A0000080C0000080E00000A0000000A0200000A0400000A0600000A0800000A0A00000A0C00000A0E00000C0000000C0200000C0400000C0600000C0800000C0
1004
A00000C0C00000C0E00000E0000000E0200000E0400000E0600000E0800000E0A00000E0C00000E0E00040000000400020004000400040006000400080004000A0004000C0004000E00040200000402020004020400040206000402080004020A0004020C0004020E000404000004040200040404000404060004040800040
1004
40A0004040C0004040E00040600000406020004060400040606000406080004060A0004060C0004060E00040800000408020004080400040806000408080004080A0004080C0004080E00040A0000040A0200040A0400040A0600040A0800040A0A00040A0C00040A0E00040C0000040C0200040C0400040C0600040C08000
1004
40C0A00040C0C00040C0E00040E0000040E0200040E0400040E0600040E0800040E0A00040E0C00040E0E00080000000800020008000400080006000800080008000A0008000C0008000E00080200000802020008020400080206000802080008020A0008020C0008020E00080400000804020008040400080406000804080
1004
008040A0008040C0008040E00080600000806020008060400080606000806080008060A0008060C0008060E00080800000808020008080400080806000808080008080A0008080C0008080E00080A0000080A0200080A0400080A0600080A0800080A0A00080A0C00080A0E00080C0000080C0200080C0400080C0600080C0
1004
800080C0A00080C0C00080C0E00080E0000080E0200080E0400080E0600080E0800080E0A00080E0C00080E0E000C0000000C0002000C0004000C0006000C0008000C000A000C000C000C000E000C0200000C0202000C0204000C0206000C0208000C020A000C020C000C020E000C0400000C0402000C0404000C0406000C0
1004
408000C040A000C040C000C040E000C0600000C0602000C0604000C0606000C0608000C060A000C060C000C060E000C0800000C0802000C0804000C0806000C0808000C080A000C080C000C080E000C0A00000C0A02000C0A04000C0A06000C0A08000C0A0A000C0A0C000C0A0E000C0C00000C0C02000C0C04000C0C06000
1004
C0C08000C0C0A000F0FBFF00A4A0A000808080000000FF0000FF000000FFFF00FF000000FF00FF00FFFF0000FFFFFF00FFFFFFFFFFFFFFFFFFFFFFFFFFFFFFFFFFFFFFFFFFFFFFFFFFFFFFFFFFFFFFFFFFFFFFFFFFFFFFFFFFFFFFFFFFFFFFFFFFFFFFFFFFFFFFFFFFFFFFFFFFFFFFFFFFFFFFFFFFFFFFFFFFFFFFFFFFFFFF
1004
FFFFFFFFFFFFFFFFFFFFFFFFFFFFFFFFFFFFFFFFFFFFFFFFFFFFFFFFFFFFFFFFFFFFFFFFFFFFFFFFFFFFFFFFFFFFFFFFFFFFFFFFFFFFFFFFFFFFFFFFFFFFFFFFFFFFFFFFFFFFFFFFFFFFFFFFFFFFFFFFFFFFFFFFFFFFFFFFFFFFFFFFFFFFFFFFFFFFFFFFFFFFFFFFFFFFFFFFFFFFFFFFFFFFFFFFFFFFFFFFFFFFFFFFFFFFFF
1004
FFFFFFFFFFFFFFFFFFFFFFFFFFFFFFFFFFFFFFFF00000000FFFFFFFFFFFFFFFFFFFFFFFFFFFFFFFFFFFFFFFFFFFFFFFFFFFFFFFF0000000000FFFFFFFFFFFFFFFFFFFFFFFFFFFFFFFFFFFFFFFFFFFFFFFFFFFFFF00000000FF00FF00000000FF0000000000000000FFFFFF00000000FFFFFFFFFF00FF0000FF000000000000
1004
FF00FF0000FF000000FFFF0000000000FFFFFFFF00FF000000FF0000000000000000FF0000FF000000FFFF00000000FF00FFFFFF00FF00FF00FF0000000000000000FF0000FF000000FFFFFF00000000FFFFFFFF00FF00FF00FF0000000000FF0000000000FF000000FFFF00000000FFFFFFFFFF00FF00FF00FF0000000000
1004
FF0000000000FF0000FF000000FF00000000FFFFFFFF00000000FF000000000000FF0000000000FF0000FF00FF0000FF00FFFFFFFFFF0000000000000000000000000000000000FF00000000FFFF000000FFFFFFFFFF0000FF0000FFFF0000FF00FF000000FF0000000000FF000000000000FFFFFFFF0000FF00FF0000FF00
1004
00FF0000000000000000FF00FF00FF0000FF00FFFFFFFF0000FF00FF0000FF0000FF00FF0000FF000000FF00FF00FF00FF000000FFFFFF0000FF00FF0000FF0000FF00000000FF000000FF00FF00FF00FFFFFF00FFFFFF00000000FF0000FF0000FF00FF000000000000FF00FF00FF00FF000000FFFFFF00FF000000000000
1004
0000FF0000000000000000FF000000FF0000FF00FFFFFFFF0000000000000000FF00FF000000000000FF00000000000000000000FFFFFFFFFFFFFFFFFFFFFFFFFF000000FFFFFFFFFFFFFFFFFFFFFFFFFFFFFFFFFFFFFFFFFFFFFFFFFFFFFFFFFFFFFFFFFFFFFFFFFFFFFFFFFFFFFFFFFFFFFFFFFFFFFFFFFFFFFFFFFFFFFF
1004
FFFFFFFFFFFFFFFFFFFFFFFFFFFFFFFFFFFFFFFFFFFFFFFFFFFFFFFFFFFFFFFFFFFFFFFFFFFFFFFFFFFFFFFFFFFFFFFFFFFFFFFFFFFFFFFFFFFFFFFFFFFFFFFFFFFFFFFFFFFFFFFFFFFFFFFFFFFFFFFFFFFFFFFFFFFFFFFFFFFFFFFFFFFFFFFFFFFFFFFFFFFFFFFFFFFFFFFFFFFFFFFFFFFFFFFFFFFFFFFFFFFFFFFFFFFFFF
1004
FFFFFFFFFFFFFFFFFFFFFFFFFFFFFFFFFFFFFFFFFFFFFFFFFFFFFFFFFFFFFFFFFFFFFFFFFFFFFFFFFFFFFFFFFFFFFFFFFFFFFFFFFFFFFFFF
  0
BLOCK_RECORD
  5
D0A
330
434
100
AcDbSymbolTableRecord
100
AcDbBlockTableRecord
  2
ROTORK_GEARS_LOGO
1001
ACAD
1000
DesignCenter Data
1002
{
1070
     1
1070
     4
1002
}
  0
ENDTAB
  0
ENDSEC
  0
SECTION
  2
BLOCKS
  0
BLOCK
  5
469
330
451
100
AcDbEntity
  8
0
100
AcDbBlockBegin
  2
*MODEL_SPACE
 70
     0
 10
0.0
 20
0.0
 30
0.0
  3
*MODEL_SPACE
  1

  0
ENDBLK
  5
46A
330
451
100
AcDbEntity
  8
0
100
AcDbBlockEnd
  0
BLOCK
  5
467
330
44D
100
AcDbEntity
 67
     1
  8
0
100
AcDbBlockBegin
  2
*PAPER_SPACE
 70
     0
 10
0.0
 20
0.0
 30
0.0
  3
*PAPER_SPACE
  1

  0
ENDBLK
  5
468
330
44D
100
AcDbEntity
 67
     1
  8
0
100
AcDbBlockEnd
  0
BLOCK
  5
A07
330
9FD
100
AcDbEntity
  8
0
100
AcDbBlockBegin
  2
*D0
 70
     1
 10
0.0
 20
0.0
 30
0.0
  3
*D0
  1

  0
LINE
  5
AC9
330
9FD
100
AcDbEntity
  8
DIM
100
AcDbLine
 10
196.6767724178092
 20
699.70841323882
 30
0.0
 11
196.6767724178092
 21
760.7084132388199
 31
0.0
  0
LINE
  5
ACA
330
9FD
100
AcDbEntity
  8
DIM
100
AcDbLine
 10
288.6767724178095
 20
694.7084132388199
 30
0.0
 11
288.6767724178095
 21
760.7084132388199
 31
0.0
  0
LINE
  5
ACB
330
9FD
100
AcDbEntity
  8
DIM
100
AcDbLine
 10
202.6767724178092
 20
758.7084132388199
 30
0.0
 11
282.6767724178095
 21
758.7084132388199
 31
0.0
  0
SOLID
  5
ACC
330
9FD
100
AcDbEntity
  8
DIM
100
AcDbTrace
 10
202.6767724178092
 20
759.7084132388199
 30
0.0
 11
202.6767724178092
 21
757.70841323882
 31
0.0
 12
196.6767724178092
 22
758.7084132388199
 32
0.0
 13
196.6767724178092
 23
758.7084132388199
 33
0.0
  0
SOLID
  5
ACD
330
9FD
100
AcDbEntity
  8
DIM
100
AcDbTrace
 10
282.6767724178095
 20
759.7084132388199
 30
0.0
 11
282.6767724178095
 21
757.70841323882
 31
0.0
 12
288.6767724178095
 22
758.7084132388199
 32
0.0
 13
288.6767724178095
 23
758.7084132388199
 33
0.0
  0
MTEXT
  5
ACE
330
9FD
100
AcDbEntity
  8
DIM
100
AcDbMText
 10
242.6767724178093
 20
762.7084132388199
 30
0.0
 40
5.0
 41
0.0
 71
     5
 72
     1
  1
\A1;92
1001
ACAD
1000
MTEXTBEGIN
1070
    73
1070
     1
1070
    44
1040
1.0
1070
    74
1070
     0
1000
MTEXTEND
  0
POINT
  5
ACF
330
9FD
100
AcDbEntity
  8
DEFPOINTS
 62
     0
100
AcDbPoint
 10
196.6767724178092
 20
694.7084132388199
 30
0.0
  0
POINT
  5
AD0
330
9FD
100
AcDbEntity
  8
DEFPOINTS
 62
     0
100
AcDbPoint
 10
288.6767724178095
 20
689.7084132388199
 30
0.0
  0
POINT
  5
AD1
330
9FD
100
AcDbEntity
  8
DEFPOINTS
 62
     0
100
AcDbPoint
 10
288.6767724178095
 20
758.7084132388199
 30
0.0
  0
ENDBLK
  5
A08
330
9FD
100
AcDbEntity
  8
0
100
AcDbBlockEnd
  0
BLOCK
  5
A13
330
A09
100
AcDbEntity
  8
0
100
AcDbBlockBegin
  2
*D1
 70
     1
 10
0.0
 20
0.0
 30
0.0
  3
*D1
  1

  0
LINE
  5
AD2
330
A09
100
AcDbEntity
  8
DIM
100
AcDbLine
 10
288.6767724178095
 20
694.7084132388199
 30
0.0
 11
288.6767724178095
 21
760.7084132388199
 31
0.0
  0
LINE
  5
AD3
330
A09
100
AcDbEntity
  8
DIM
100
AcDbLine
 10
398.7017724178093
 20
657.2084132388201
 30
0.0
 11
398.7017724178093
 21
760.7084132388199
 31
0.0
  0
LINE
  5
AD4
330
A09
100
AcDbEntity
  8
DIM
100
AcDbLine
 10
294.6767724178095
 20
758.7084132388199
 30
0.0
 11
392.7017724178093
 21
758.7084132388199
 31
0.0
  0
SOLID
  5
AD5
330
A09
100
AcDbEntity
  8
DIM
100
AcDbTrace
 10
294.6767724178095
 20
759.7084132388199
 30
0.0
 11
294.6767724178095
 21
757.70841323882
 31
0.0
 12
288.6767724178095
 22
758.7084132388199
 32
0.0
 13
288.6767724178095
 23
758.7084132388199
 33
0.0
  0
SOLID
  5
AD6
330
A09
100
AcDbEntity
  8
DIM
100
AcDbTrace
 10
392.7017724178093
 20
759.7084132388199
 30
0.0
 11
392.7017724178093
 21
757.70841323882
 31
0.0
 12
398.7017724178093
 22
758.7084132388199
 32
0.0
 13
398.7017724178093
 23
758.7084132388199
 33
0.0
  0
MTEXT
  5
AD7
330
A09
100
AcDbEntity
  8
DIM
100
AcDbMText
 10
343.6892724178094
 20
762.7084132388199
 30
0.0
 40
5.0
 41
0.0
 71
     5
 72
     1
  1
\A1;110
1001
ACAD
1000
MTEXTBEGIN
1070
    73
1070
     1
1070
    44
1040
1.0
1070
    74
1070
     0
1000
MTEXTEND
  0
POINT
  5
AD8
330
A09
100
AcDbEntity
  8
DEFPOINTS
 62
     0
100
AcDbPoint
 10
288.6767724178095
 20
689.7084132388199
 30
0.0
  0
POINT
  5
AD9
330
A09
100
AcDbEntity
  8
DEFPOINTS
 62
     0
100
AcDbPoint
 10
398.7017724178093
 20
652.2084132388202
 30
0.0
  0
POINT
  5
ADA
330
A09
100
AcDbEntity
  8
DEFPOINTS
 62
     0
100
AcDbPoint
 10
398.7017724178093
 20
758.7084132388199
 30
0.0
  0
ENDBLK
  5
A14
330
A09
100
AcDbEntity
  8
0
100
AcDbBlockEnd
  0
BLOCK
  5
A20
330
A15
100
AcDbEntity
  8
0
100
AcDbBlockBegin
  2
*D2
 70
     1
 10
0.0
 20
0.0
 30
0.0
  3
*D2
  1

  0
LINE
  5
D4C
330
A15
100
AcDbEntity
  8
DIM
100
AcDbLine
 10
280.176772417809
 20
571.2084132388199
 30
0.0
 11
280.176772417809
 21
580.7002041865748
 31
0.0
  0
LINE
  5
D4D
330
A15
100
AcDbEntity
  8
DIM
100
AcDbLine
 10
288.6767724178088
 20
588.40841323882
 30
0.0
 11
288.6767724178088
 21
576.7002041865748
 31
0.0
  0
LINE
  5
D4E
330
A15
100
AcDbEntity
  8
DIM
100
AcDbLine
 10
274.176772417809
 20
578.7002041865748
 30
0.0
 11
268.176772417809
 21
578.7002041865748
 31
0.0
  0
LINE
  5
D4F
330
A15
100
AcDbEntity
  8
DIM
100
AcDbLine
 10
294.6767724178087
 20
578.7002041865748
 30
0.0
 11
312.8434390844754
 21
578.7002041865748
 31
0.0
  0
SOLID
  5
D50
330
A15
100
AcDbEntity
  8
DIM
100
AcDbTrace
 10
274.176772417809
 20
579.7002041865749
 30
0.0
 11
274.176772417809
 21
577.7002041865748
 31
0.0
 12
280.176772417809
 22
578.7002041865748
 32
0.0
 13
280.176772417809
 23
578.7002041865748
 33
0.0
  0
SOLID
  5
D51
330
A15
100
AcDbEntity
  8
DIM
100
AcDbTrace
 10
294.6767724178087
 20
579.7002041865749
 30
0.0
 11
294.6767724178087
 21
577.7002041865748
 31
0.0
 12
288.6767724178088
 22
578.7002041865748
 32
0.0
 13
288.6767724178088
 23
578.7002041865748
 33
0.0
  0
MTEXT
  5
D52
330
A15
100
AcDbEntity
  8
DIM
100
AcDbMText
 10
309.7958200368564
 20
582.7002041865748
 30
0.0
 40
5.0
 41
0.0
 71
     5
 72
     1
  1
\A1;9
  0
POINT
  5
D53
330
A15
100
AcDbEntity
  8
DEFPOINTS
 62
     0
100
AcDbPoint
 10
280.176772417809
 20
566.20841323882
 30
0.0
  0
POINT
  5
D54
330
A15
100
AcDbEntity
  8
DEFPOINTS
 62
     0
100
AcDbPoint
 10
288.6767724178088
 20
593.40841323882
 30
0.0
  0
POINT
  5
D55
330
A15
100
AcDbEntity
  8
DEFPOINTS
 62
     0
100
AcDbPoint
 10
288.6767724178088
 20
578.7002041865748
 30
0.0
  0
ENDBLK
  5
A21
330
A15
100
AcDbEntity
  8
0
100
AcDbBlockEnd
  0
BLOCK
  5
A94
330
A89
100
AcDbEntity
  8
0
100
AcDbBlockBegin
  2
*D3
 70
     1
 10
0.0
 20
0.0
 30
0.0
  3
*D3
  1

  0
LINE
  5
D56
330
A89
100
AcDbEntity
  8
DIM
100
AcDbLine
 10
280.1767724178091
 20
518.9168866667615
 30
0.0
 11
280.1767724178091
 21
526.9235048506016
 31
0.0
  0
LINE
  5
D57
330
A89
100
AcDbEntity
  8
DIM
100
AcDbLine
 10
288.1759724178093
 20
535.6157858859817
 30
0.0
 11
288.1759724178093
 21
522.9235048506016
 31
0.0
  0
LINE
  5
D58
330
A89
100
AcDbEntity
  8
DIM
100
AcDbLine
 10
274.1767724178091
 20
524.9235048506015
 30
0.0
 11
268.1767724178091
 21
524.9235048506015
 31
0.0
  0
LINE
  5
D59
330
A89
100
AcDbEntity
  8
DIM
100
AcDbLine
 10
294.1759724178093
 20
524.9235048506015
 30
0.0
 11
312.962486703523
 21
524.9235048506015
 31
0.0
  0
SOLID
  5
D5A
330
A89
100
AcDbEntity
  8
DIM
100
AcDbTrace
 10
274.1767724178091
 20
525.9235048506016
 30
0.0
 11
274.1767724178091
 21
523.9235048506015
 31
0.0
 12
280.1767724178091
 22
524.9235048506015
 32
0.0
 13
280.1767724178091
 23
524.9235048506015
 33
0.0
  0
SOLID
  5
D5B
330
A89
100
AcDbEntity
  8
DIM
100
AcDbTrace
 10
294.1759724178093
 20
525.9235048506016
 30
0.0
 11
294.1759724178093
 21
523.9235048506015
 31
0.0
 12
288.1759724178093
 22
524.9235048506015
 32
0.0
 13
288.1759724178093
 23
524.9235048506015
 33
0.0
  0
MTEXT
  5
D5C
330
A89
100
AcDbEntity
  8
DIM
100
AcDbMText
 10
309.7958200368564
 20
528.9235048506015
 30
0.0
 40
5.0
 41
0.0
 71
     5
 72
     1
  1
\A1;8
  0
POINT
  5
D5D
330
A89
100
AcDbEntity
  8
DEFPOINTS
 62
     0
100
AcDbPoint
 10
280.1767724178091
 20
513.9168866667615
 30
0.0
  0
POINT
  5
D5E
330
A89
100
AcDbEntity
  8
DEFPOINTS
 62
     0
100
AcDbPoint
 10
288.1759724178093
 20
540.6157858859817
 30
0.0
  0
POINT
  5
D5F
330
A89
100
AcDbEntity
  8
DEFPOINTS
 62
     0
100
AcDbPoint
 10
288.1759724178093
 20
524.9235048506015
 30
0.0
  0
ENDBLK
  5
A95
330
A89
100
AcDbEntity
  8
0
100
AcDbBlockEnd
  0
BLOCK
  5
B1D
330
B13
100
AcDbEntity
  8
0
100
AcDbBlockBegin
  2
*D4
 70
     1
 10
0.0
 20
0.0
 30
0.0
  3
*D4
  1

  0
LINE
  5
D60
330
B13
100
AcDbEntity
  8
DIM
100
AcDbLine
 10
315.076772417809
 20
585.1202071124252
 30
0.0
 11
315.076772417809
 21
610.6879515108261
 31
0.0
  0
LINE
  5
D61
330
B13
100
AcDbEntity
  8
DIM
100
AcDbLine
 10
288.6767724178088
 20
598.40841323882
 30
0.0
 11
288.6767724178088
 21
610.6879515108261
 31
0.0
  0
LINE
  5
D62
330
B13
100
AcDbEntity
  8
DIM
100
AcDbLine
 10
294.6767724178087
 20
608.6879515108262
 30
0.0
 11
309.076772417809
 21
608.6879515108262
 31
0.0
  0
LINE
  5
D63
330
B13
100
AcDbEntity
  8
DIM
100
AcDbLine
 10
315.076772417809
 20
608.6879515108262
 30
0.0
 11
335.5414911666868
 21
608.6879515108262
 31
0.0
  0
SOLID
  5
D64
330
B13
100
AcDbEntity
  8
DIM
100
AcDbTrace
 10
294.6767724178087
 20
609.6879515108262
 30
0.0
 11
294.6767724178087
 21
607.6879515108262
 31
0.0
 12
288.6767724178088
 22
608.6879515108262
 32
0.0
 13
288.6767724178088
 23
608.6879515108262
 33
0.0
  0
SOLID
  5
D65
330
B13
100
AcDbEntity
  8
DIM
100
AcDbTrace
 10
309.076772417809
 20
609.6879515108262
 30
0.0
 11
309.076772417809
 21
607.6879515108262
 31
0.0
 12
315.076772417809
 22
608.6879515108262
 32
0.0
 13
315.076772417809
 23
608.6879515108262
 33
0.0
  0
MTEXT
  5
D66
330
B13
100
AcDbEntity
  8
DIM
100
AcDbMText
 10
330.1129197381154
 20
612.6879515108262
 30
0.0
 40
5.0
 41
0.0
 71
     5
 72
     1
  1
\A1;26
  0
POINT
  5
D67
330
B13
100
AcDbEntity
  8
DEFPOINTS
 62
     0
100
AcDbPoint
 10
315.076772417809
 20
580.1202071124252
 30
0.0
  0
POINT
  5
D68
330
B13
100
AcDbEntity
  8
DEFPOINTS
 62
     0
100
AcDbPoint
 10
288.6767724178088
 20
593.40841323882
 30
0.0
  0
POINT
  5
D69
330
B13
100
AcDbEntity
  8
DEFPOINTS
 62
     0
100
AcDbPoint
 10
288.6767724178088
 20
608.6879515108262
 30
0.0
  0
ENDBLK
  5
B1E
330
B13
100
AcDbEntity
  8
0
100
AcDbBlockEnd
  0
BLOCK
  5
C35
330
C34
100
AcDbEntity
  8
0
100
AcDbBlockBegin
  2
*U5
 70
     1
 10
0.0
 20
0.0
 30
0.0
  3
*U5
  1

  0
ENDBLK
  5
C36
330
C34
100
AcDbEntity
  8
0
100
AcDbBlockEnd
  0
BLOCK
  5
D08
330
C60
100
AcDbEntity
  8
0
100
AcDbBlockBegin
  2
LOGO
 70
     0
 10
0.0
 20
0.0
 30
0.0
  3
LOGO
  1

  0
HATCH
  5
C61
330
C60
100
AcDbEntity
  8
DRG
 62
     7
100
AcDbHatch
 10
0.0
 20
0.0
 30
0.0
210
0.0
220
0.0
230
1.0
  2
SOLID
 70
     1
 71
     1
 91
       17
 92
        7
 72
     1
 73
     1
 93
        9
 10
18.82166172721144
 20
85.56942787503272
 42
-0.4142135623730951
 10
26.82166172721144
 20
93.56942787503271
 42
0.0
 10
28.19127941113356
 20
93.56942787503273
 42
0.0
 10
28.19127941113356
 20
102.0369718403326
 42
0.2674368359602434
 10
18.82166172721144
 20
97.91585750406591
 42
0.0
 10
18.82166172721144
 20
102.0369718403326
 42
0.0
 10
7.780267321405972
 20
102.0369718403326
 42
0.0
 10
7.780267321405972
 20
62.11569608183867
 42
0.0
 10
18.82166172721144
 20
62.11569608183868
 42
0.0
 97
        9
330
C84
330
C8B
330
C8A
330
C89
330
C88
330
C83
330
C73
330
C75
330
C71
 92
        7
 72
     1
 73
     1
 93
        8
 10
29.83814289966585
 20
72.89733173546719
 42
0.4142135623730863
 10
41.83814289966585
 20
60.89733173546756
 42
0.0
 10
47.65019692711667
 20
60.89733173546756
 42
0.4142126981028046
 10
59.65019692706442
 20
72.89729632581657
 42
0.0348233422700972
 10
59.65019692706442
 20
90.09633711169437
 42
0.4142126981028142
 10
47.65019692711667
 20
102.0963017020437
 42
0.0
 10
41.83814289966585
 20
102.0963017020437
 42
0.4142135623730893
 10
29.83814289966585
 20
90.09630170204401
 42
0.0348231985322414
 97
        8
330
C65
330
C8C
330
C87
330
C86
330
C72
330
C82
330
C64
330
CC3
 92
       22
 72
     1
 73
     1
 93
        4
 10
40.8829718255497
 20
90.33799008833417
 42
-1.0
 10
48.60537047033449
 20
90.33799008833474
 42
-0.0248818291691539
 10
48.60537047033449
 20
72.65564334917549
 42
-1.0
 10
40.8829718255497
 20
72.65564334917759
 42
-0.0248818291691501
 97
        4
330
C67
330
CC2
330
C66
330
C85
 92
        7
 72
     1
 73
     1
 93
       18
 10
67.3311912101517
 20
68.89733173546756
 42
0.4142135623730951
 10
75.3311912101517
 20
60.89733173546756
 42
0.0
 10
80.67580292826269
 20
60.89733173546756
 42
0.1450058980834471
 10
84.50114225615108
 20
62.07251817888529
 42
0.0
 10
84.50114225615108
 20
70.21476458140918
 42
-0.0833071563303517
 10
83.50114225615126
 20
69.87605596530011
 42
0.0
 10
80.48255603357892
 20
69.87605596530011
 42
-0.4142135623730951
 10
77.48255603357893
 20
72.87605596530011
 42
0.0
 10
77.48255603357893
 20
94.59335286083614
 42
0.0
 10
84.55362300688102
 20
94.59335286083614
 42
0.0
 10
84.55362300688102
 20
101.9948050433795
 42
0.0
 10
77.48255603357893
 20
101.9948050433795
 42
0.0
 10
77.48255603357893
 20
107.1280725498991
 42
0.0
 10
67.3311912101517
 20
107.1280725498991
 42
0.0
 10
67.3311912101517
 20
101.9948050433795
 42
0.0
 10
62.47898963726856
 20
101.9948050433795
 42
0.0
 10
62.47898963726857
 20
94.59335286083614
 42
0.0
 10
67.33119121015168
 20
94.59335286083614
 42
0.0
 97
       18
330
CC0
330
CD4
330
CC1
330
CCC
330
CCA
330
CCB
330
CC7
330
CC9
330
CC8
330
CC4
330
C96
330
CAA
330
C99
330
C97
330
CD1
330
CBF
330
CC6
330
CC5
 92
        7
 72
     1
 73
     1
 93
        8
 10
85.84978273670003
 20
72.89733173546747
 42
0.4142135623730931
 10
97.84978273670004
 20
60.89733173546756
 42
0.0
 10
103.6618367641508
 20
60.89733173546756
 42
0.4142126981028048
 10
115.6618367640986
 20
72.89729632581657
 42
0.0348233422700971
 10
115.6618367640986
 20
90.09633711169433
 42
0.4142126981028151
 10
103.6618367641508
 20
102.0963017020437
 42
0.0
 10
97.84978273670004
 20
102.0963017020437
 42
0.4142135623730893
 10
85.84978273670003
 20
90.09630170204401
 42
0.0348231985322409
 97
        8
330
C95
330
CD5
330
CD3
330
CCF
330
C98
330
CBE
330
C94
330
CFC
 92
       22
 72
     1
 73
     1
 93
        4
 10
96.89461166258389
 20
90.33799008833504
 42
-1.0
 10
104.6170103073686
 20
90.33799008833476
 42
-0.0248818291691539
 10
104.6170103073686
 20
72.6556433491755
 42
-1.0
 10
96.89461166258389
 20
72.65564334917759
 42
-0.0248818291691514
 97
        4
330
CD2
330
CCD
330
CD0
330
CCE
 92
        7
 72
     1
 73
     1
 93
        9
 10
119.0096173095521
 20
62.11569608183868
 42
0.0
 10
130.0510117153576
 20
62.11569608183867
 42
0.0
 10
130.0510117153576
 20
85.56942787503272
 42
-0.4142135623730946
 10
138.0510117153576
 20
93.56942787503271
 42
0.0
 10
139.4206293992797
 20
93.56942787503273
 42
0.0
 10
139.4206293992797
 20
102.0369718403325
 42
0.2674368359602435
 10
130.0510117153576
 20
97.91585750406586
 42
0.0
 10
130.0510117153576
 20
102.0369718403326
 42
0.0
 10
119.0096173095521
 20
102.0369718403326
 42
0.0
 97
        9
330
CFB
330
D01
330
D00
330
CFD
330
CFF
330
CFE
330
CD7
330
CE6
330
CD6
 92
        7
 72
     0
 73
     1
 93
        4
 10
153.2899770207527
 20
102.0369718403326
 10
142.1198708269066
 20
102.0369718403326
 10
142.1198708269066
 20
62.11569608183868
 10
153.2899770207527
 20
62.11569608183868
 97
        4
330
CFA
330
CDB
330
CDF
330
CDA
 92
        7
 72
     0
 73
     1
 93
        9
 10
161.3332883364622
 20
62.11569608183868
 10
171.7807280496357
 20
62.11569608183868
 10
165.4162645291251
 20
78.31140447718237
 10
176.9709164189357
 20
78.31140447718235
 10
176.9709164189357
 20
86.85576308449686
 10
165.4162645291251
 20
86.85576308449688
 10
171.3820578717338
 20
102.0369718403326
 10
160.9346181585602
 20
102.0369718403326
 10
153.2899770207527
 20
82.58358378083958
 97
        9
330
D07
330
D06
330
D05
330
D02
330
CD9
330
CF5
330
CD8
330
D04
330
D03
 92
        7
 72
     1
 73
     1
 93
       21
 10
152.5251578409421
 20
47.64815409973752
 42
-0.8501159182110916
 10
160.0474582370225
 20
46.42128852621929
 42
0.0
 10
160.0474582370225
 20
45.21828747592599
 42
0.0
 10
171.0912486890569
 20
45.21828747592599
 42
0.4103700463812956
 10
159.0922846938046
 20
57.06060729124669
 42
0.0
 10
153.2802306663538
 20
57.06060729124669
 42
0.3231315706904765
 10
141.8917942032017
 20
48.84260609145101
 42
0.1954153765693974
 10
142.3184035466634
 20
43.11500550983492
 42
0.2113556324406552
 10
155.7287307174323
 20
33.14535460410344
 42
-0.2264685134690167
 10
160.0474582370225
 20
29.30023062658355
 42
0.0
 10
160.0474582370225
 20
27.61994893837936
 42
-1.0
 10
152.3250595922377
 20
27.61994893837936
 42
0.0
 10
152.3250595922377
 20
29.95929893143897
 42
0.0
 10
141.2802306663538
 20
29.95929893143898
 42
0.0
 10
141.2802306663538
 20
27.86163732467048
 42
0.4142135623730951
 10
153.2802306663538
 20
15.86163732467048
 42
0.0
 10
159.0922846938046
 20
15.86163732467048
 42
0.4142135623730951
 10
171.0922846938046
 20
27.86163732467048
 42
0.0
 10
171.0922846938046
 20
29.95929893143904
 42
0.3201720163042325
 10
161.4128172083947
 20
39.98989916707626
 42
-0.1549843570040388
 10
153.4809683549079
 20
44.58575616110543
 42
-0.2969707756967668
 97
       21
330
CF6
330
CF8
330
CF3
330
CF4
330
CF9
330
CDE
330
CEB
330
CDC
330
CF1
330
CEE
330
CF0
330
CEF
330
CDD
330
CE3
330
C8E
330
C92
330
C8F
330
CF2
330
CED
330
CEC
330
CF7
 92
        7
 72
     1
 73
     1
 93
        9
 10
116.1931408131939
 20
17.28637227261407
 42
0.0
 10
127.2345352189994
 20
17.28637227261407
 42
0.0
 10
127.2345352189994
 20
40.7401040658081
 42
-0.4142135623730953
 10
135.2345352189994
 20
48.74010406580811
 42
0.0
 10
136.6041529029215
 20
48.74010406580811
 42
0.0
 10
136.6041529029215
 20
57.20764803110802
 42
0.2674368359602446
 10
127.2345352189994
 20
53.08653369484122
 42
0.0
 10
127.2345352189994
 20
57.20764803110802
 42
0.0
 10
116.1931408131939
 20
57.20764803110802
 42
0.0
 97
        9
330
CE4
330
CE8
330
CE7
330
CE1
330
CE2
330
CE0
330
CE5
330
CEA
330
CE9
 92
        7
 72
     1
 73
     1
 93
       18
 10
111.2523129779601
 20
45.06060729124669
 42
0.4142135623730951
 10
99.25231297796017
 20
57.06060729124669
 42
0.0
 10
93.44025895050934
 20
57.06060729124669
 42
0.3935971290544443
 10
81.47040574452452
 20
45.91067448104673
 42
0.0
 10
92.48508787639321
 20
45.91067448104673
 42
0.0
 10
92.48508787639321
 20
47.31312997766827
 42
-1.0
 10
100.2074865211779
 20
47.31312997766827
 42
0.0
 10
100.207486521178
 20
42.94819642727492
 42
0.0
 10
93.35817406851878
 20
42.94819642727492
 42
0.3803366342075343
 10
81.44025895050935
 20
32.34937423181021
 42
0.0
 10
81.44025895050935
 20
27.86163732467048
 42
0.212203934851876
 10
85.39866332968484
 20
18.95474449545469
 42
0.2715779457989354
 10
94.99174926948997
 20
17.83940845859731
 42
0.2212147422997974
 10
102.1211660476033
 20
23.542010892025
 42
0.0
 10
102.1211660476033
 20
21.10260096837428
 42
0.048558820350044
 10
102.6710305977499
 20
17.89352120355198
 42
0.0
 10
111.8021775281067
 20
17.89352120355201
 42
-0.0850534761391249
 10
111.2523129779601
 20
23.54201089202471
 42
0.0
 97
       18
330
C93
330
CBA
330
C9C
330
CBB
330
CBC
330
CB9
330
CBD
330
CB8
330
C9A
330
CB0
330
C9B
330
C8D
330
CAC
330
CB4
330
CB3
330
CB2
330
CB5
330
CAB
 92
       22
 72
     1
 73
     1
 93
        6
 10
101.5095597489034
 20
37.38473087155557
 42
0.0
 10
101.5095597489034
 20
29.98485601437275
 42
-0.4101584254678068
 10
95.86348651398072
 20
23.75874961598697
 42
-0.4142135623730822
 10
92.00228719158848
 20
27.61994893837936
 42
0.0
 10
92.00228719158848
 20
33.04132650368984
 42
-0.3592987923427892
 10
97.96902139366869
 20
37.38473087155557
 42
0.0
 97
        6
330
CB6
330
CAE
330
CB1
330
CAF
330
CAD
330
CB7
 92
        7
 72
     1
 73
     1
 93
       14
 10
74.28053642153918
 20
35.62972293482085
 42
0.0
 10
74.28053642153918
 20
45.06060729124669
 42
0.4142135623730951
 10
62.28053642153918
 20
57.06060729124669
 42
0.0
 10
56.46848239408837
 20
57.06060729124669
 42
0.4142135623730892
 10
44.46848239408836
 20
45.06060729124694
 42
0.0348231985322411
 10
44.46848239408836
 20
27.86163732467029
 42
0.4142135623730907
 10
56.46848239408837
 20
15.86163732467048
 42
0.0
 10
62.28053642153918
 20
15.86163732467048
 42
0.4142135623730951
 10
74.28053642153918
 20
27.86163732467048
 42
0.0
 10
74.28053642153919
 20
30.81688778835383
 42
0.0
 10
63.235709964757
 20
30.81688778835381
 42
0.0
 10
63.23570996475701
 20
27.61994893837937
 42
-1.0
 10
55.51331131997222
 20
27.61994893837937
 42
0.0
 10
55.51331131997223
 20
35.62972293482085
 42
0.0
 97
       14
330
CA4
330
CA9
330
C63
330
C77
330
C62
330
C91
330
C90
330
CA3
330
C9E
330
CA0
330
CA2
330
CA1
330
C9F
330
C9D
 92
       22
 72
     1
 73
     1
 93
        4
 10
63.23570996475697
 20
41.92343128252765
 42
0.0
 10
55.51331131997221
 20
41.92343128252764
 42
0.0
 10
55.51331131997222
 20
46.69061407390314
 42
-1.0
 10
63.23570996475701
 20
46.69061407390313
 42
0.0
 97
        4
330
CA5
330
CA7
330
CA6
330
CA8
 92
        7
 72
     1
 73
     1
 93
       15
 10
37.63977994729383
 20
57.06060729124669
 42
0.0
 10
27.26712190889703
 20
57.06060729124669
 42
0.0
 10
27.26712190889702
 20
51.25583855281898
 42
0.3392741364964821
 10
18.58303542025671
 20
58.12788850233393
 42
0.3975671648689696
 10
7.030577403887583
 20
46.17022669896298
 42
0.0322586733839356
 10
7.056593447358274
 20
30.23514359210488
 42
0.381674351628262
 10
18.58303542025671
 20
18.94514662680511
 42
0.3392741364964824
 10
27.26712190889702
 20
25.81719657632006
 42
0.0
 10
27.26712190889702
 20
13.51984597021351
 42
-1.0
 10
19.54472326411223
 20
13.51984597021351
 42
0.0
 10
19.54472326411224
 20
14.84602730693677
 42
0.0
 10
7.727927309456848
 20
14.84602730693677
 42
0.435111756420548
 10
18.10058534785312
 20
3.392610111620797
 42
0.0
 10
25.69916102541525
 20
3.392610111620797
 42
0.3589835117613411
 10
37.63977994729384
 20
13.76096717561878
 42
0.0
 97
       15
330
C7D
330
C81
330
C80
330
C74
330
C76
330
C68
330
C7C
330
C69
330
C6F
330
C70
330
C6B
330
C6C
330
C6E
330
C6D
330
C6A
 92
       22
 72
     1
 73
     1
 93
        6
 10
27.38773257517141
 20
32.08643432044938
 42
-0.3635850888704513
 10
22.68385486292616
 20
25.45550925308858
 42
-0.4081657147783189
 10
17.25630080752625
 20
30.5191262631974
 42
0.0
 10
17.25630080752625
 20
46.31278398378763
 42
-0.4081657147783226
 10
22.68385486292628
 20
51.3764009938964
 42
-0.3635850888704468
 10
27.38773257517141
 20
44.74547592653561
 42
0.0
 97
        6
330
C7B
330
C7A
330
C79
330
C7E
330
C7F
330
C78
 75
     0
 76
     1
 47
0.2228598800114194
 98
       17
 10
17.63743802729277
 20
76.62690565101775
 10
33.91754890401171
 20
77.74120568802209
 10
33.91754890401171
 20
77.74120568802209
 10
69.15394598228295
 20
79.30122538255886
 10
91.45546541714201
 20
80.86124329075188
 10
91.45546541714201
 20
80.86124329075188
 10
120.6704539372731
 20
80.86124329075188
 10
151.4465515081656
 20
79.74694504009176
 10
157.6909751980888
 20
82.19840226335032
 10
149.4394153221187
 20
47.20940110847481
 10
122.2315629880345
 20
49.21514046054449
 10
107.7355731655798
 20
43.19792419067948
 10
107.7355731655798
 20
43.19792419067948
 10
69.37696111406603
 20
40.30074552354403
 10
69.37696111406603
 20
40.30074552354403
 10
30.57231879898608
 20
42.3064830892697
 10
30.57231879898608
 20
42.3064830892697
  0
ARC
  5
C62
102
{ACAD_REACTORS
330
C61
102
}
330
C60
100
AcDbEntity
  8
DRG
 62
     7
100
AcDbCircle
 10
56.46848239408837
 20
27.86163732467048
 30
0.0
 40
12.0
100
AcDbArc
 50
180.0
 51
270.0
  0
ARC
  5
C63
102
{ACAD_REACTORS
330
C61
102
}
330
C60
100
AcDbEntity
  8
DRG
 62
     7
100
AcDbCircle
 10
56.46848239408837
 20
45.06060729124669
 30
0.0
 40
12.0
100
AcDbArc
 50
90.0
 51
180.0
  0
ARC
  5
C64
102
{ACAD_REACTORS
330
C61
102
}
330
C60
100
AcDbEntity
  8
DRG
 62
     7
100
AcDbCircle
 10
47.65019692711667
 20
72.89733173546756
 30
0.0
 40
12.0
100
AcDbArc
 50
270.0
 51
0.0
  0
ARC
  5
C65
102
{ACAD_REACTORS
330
C61
102
}
330
C60
100
AcDbEntity
  8
DRG
 62
     7
100
AcDbCircle
 10
47.65019692711667
 20
90.09630170204378
 30
0.0
 40
12.0
100
AcDbArc
 50
0.0
 51
90.0
  0
ARC
  5
C66
102
{ACAD_REACTORS
330
C61
102
}
330
C60
100
AcDbEntity
  8
DRG
 62
     7
100
AcDbCircle
 10
44.74417114794209
 20
72.65564334917645
 30
0.0
 40
3.861199322392394
100
AcDbArc
 50
180.0
 51
0.0
  0
ARC
  5
C67
102
{ACAD_REACTORS
330
C61
102
}
330
C60
100
AcDbEntity
  8
DRG
 62
     7
100
AcDbCircle
 10
44.74417114794209
 20
90.33799008833488
 30
0.0
 40
3.861199322392394
100
AcDbArc
 50
0.0
 51
180.0
  0
ARC
  5
C68
102
{ACAD_REACTORS
330
C61
102
}
330
C60
100
AcDbEntity
  8
DRG
 62
     7
100
AcDbCircle
 10
19.13758448341457
 20
31.0402274344309
 30
0.0
 40
12.10778693264987
100
AcDbArc
 50
183.8125848658395
 51
267.3748761693095
  0
LINE
  5
C69
102
{ACAD_REACTORS
330
C61
102
}
330
C60
100
AcDbEntity
  8
DRG
 62
     7
100
AcDbLine
 10
27.26712190889702
 20
13.51984597021351
 30
0.0
 11
27.26712190889702
 21
25.81719657631998
 31
0.0
  0
LINE
  5
C6A
102
{ACAD_REACTORS
330
C61
102
}
330
C60
100
AcDbEntity
  8
DRG
 62
     7
100
AcDbLine
 10
37.63977994729384
 20
13.76096717561859
 30
0.0
 11
37.63977994729384
 21
57.06060729124669
 31
0.0
  0
LINE
  5
C6B
102
{ACAD_REACTORS
330
C61
102
}
330
C60
100
AcDbEntity
  8
DRG
 62
     7
100
AcDbLine
 10
7.727927309456845
 20
14.84602730693677
 30
0.0
 11
19.54472326411223
 21
14.84602730693677
 31
0.0
  0
ARC
  5
C6C
102
{ACAD_REACTORS
330
C61
102
}
330
C60
100
AcDbEntity
  8
DRG
 62
     7
100
AcDbCircle
 10
18.24911022115702
 20
13.95076893658401
 30
0.0
 40
10.55920344586364
100
AcDbArc
 50
175.136358468359
 51
269.1940557757168
  0
ARC
  5
C6D
102
{ACAD_REACTORS
330
C61
102
}
330
C60
100
AcDbEntity
  8
DRG
 62
     7
100
AcDbCircle
 10
25.37935180063346
 20
15.82074347040526
 30
0.0
 40
12.43224745265258
100
AcDbArc
 50
271.4740488718647
 51
350.4632534986161
  0
LINE
  5
C6E
102
{ACAD_REACTORS
330
C61
102
}
330
C60
100
AcDbEntity
  8
DRG
 62
     7
100
AcDbLine
 10
18.10058534785412
 20
3.392610111620797
 30
0.0
 11
25.69916102541464
 21
3.392610111620797
 31
0.0
  0
ARC
  5
C6F
102
{ACAD_REACTORS
330
C61
102
}
330
C60
100
AcDbEntity
  8
DRG
 62
     7
100
AcDbCircle
 10
23.40592258650463
 20
13.51984597021351
 30
0.0
 40
3.861199322392394
100
AcDbArc
 50
180.0
 51
0.0
  0
LINE
  5
C70
102
{ACAD_REACTORS
330
C61
102
}
330
C60
100
AcDbEntity
  8
DRG
 62
     7
100
AcDbLine
 10
19.54472326411223
 20
13.51984597021351
 30
0.0
 11
19.54472326411223
 21
14.84602730693677
 31
0.0
  0
LINE
  5
C71
102
{ACAD_REACTORS
330
C61
102
}
330
C60
100
AcDbEntity
  8
DRG
 62
     7
100
AcDbLine
 10
18.82166172721144
 20
62.11569608183868
 30
0.0
 11
18.82166172721144
 21
85.56942787503272
 31
0.0
  0
ARC
  5
C72
102
{ACAD_REACTORS
330
C61
102
}
330
C60
100
AcDbEntity
  8
DRG
 62
     7
100
AcDbCircle
 10
41.83814289966585
 20
72.89733173546756
 30
0.0
 40
12.0
100
AcDbArc
 50
180.0
 51
270.0
  0
LINE
  5
C73
102
{ACAD_REACTORS
330
C61
102
}
330
C60
100
AcDbEntity
  8
DRG
 62
     7
100
AcDbLine
 10
7.780267321405972
 20
102.0369718403326
 30
0.0
 11
7.780267321405972
 21
62.11569608183868
 31
0.0
  0
ARC
  5
C74
102
{ACAD_REACTORS
330
C61
102
}
330
C60
100
AcDbEntity
  8
DRG
 62
     7
100
AcDbCircle
 10
19.13758448341457
 20
46.03280769470813
 30
0.0
 40
12.10778693264987
100
AcDbArc
 50
92.62512383069042
 51
179.3496996553125
  0
LINE
  5
C75
102
{ACAD_REACTORS
330
C61
102
}
330
C60
100
AcDbEntity
  8
DRG
 62
     7
100
AcDbLine
 10
7.780267321405972
 20
62.11569608183868
 30
0.0
 11
18.82166172721144
 21
62.11569608183868
 31
0.0
  0
ARC
  5
C76
102
{ACAD_REACTORS
330
C61
102
}
330
C60
100
AcDbEntity
  8
DRG
 62
     7
100
AcDbCircle
 10
130.4096373956734
 20
38.40409586610189
 30
0.0
 40
123.6232390473968
100
AcDbArc
 50
176.3982523105059
 51
183.7888327716102
  0
ARC
  5
C77
102
{ACAD_REACTORS
330
C61
102
}
330
C60
100
AcDbEntity
  8
DRG
 62
     7
100
AcDbCircle
 10
167.7922598686371
 20
36.46112230795859
 30
0.0
 40
123.6232390473968
100
AcDbArc
 50
176.0111672283904
 51
183.9888327716096
  0
LINE
  5
C78
102
{ACAD_REACTORS
330
C61
102
}
330
C60
100
AcDbEntity
  8
DRG
 62
     7
100
AcDbLine
 10
27.38773257517141
 20
32.08643432044937
 30
0.0
 11
27.38773257517141
 21
44.74547592653562
 31
0.0
  0
LINE
  5
C79
102
{ACAD_REACTORS
330
C61
102
}
330
C60
100
AcDbEntity
  8
DRG
 62
     7
100
AcDbLine
 10
17.25630080752625
 20
30.5191262631979
 30
0.0
 11
17.25630080752625
 21
46.3127839837872
 31
0.0
  0
ARC
  5
C7A
102
{ACAD_REACTORS
330
C61
102
}
330
C60
100
AcDbEntity
  8
DRG
 62
     7
100
AcDbCircle
 10
22.55482592742026
 20
30.75783929679181
 30
0.0
 40
5.303899731193612
100
AcDbArc
 50
182.5795870531665
 51
271.3939823904844
  0
ARC
  5
C7B
102
{ACAD_REACTORS
330
C61
102
}
330
C60
100
AcDbEntity
  8
DRG
 62
     7
100
AcDbCircle
 10
21.07911620370663
 20
31.57777882951055
 30
0.0
 40
6.329089265508557
100
AcDbArc
 50
284.6876648134145
 51
4.609711835222401
  0
ARC
  5
C7C
102
{ACAD_REACTORS
330
C61
102
}
330
C60
100
AcDbEntity
  8
DRG
 62
     7
100
AcDbCircle
 10
18.44416731867534
 20
28.04361904615444
 30
0.0
 40
9.099532115185777
100
AcDbArc
 50
270.8744257294084
 51
345.8374079854939
  0
LINE
  5
C7D
102
{ACAD_REACTORS
330
C61
102
}
330
C60
100
AcDbEntity
  8
DRG
 62
     7
100
AcDbLine
 10
37.63977994729384
 20
57.06060729124669
 30
0.0
 11
27.26712190889702
 21
57.06060729124669
 31
0.0
  0
ARC
  5
C7E
102
{ACAD_REACTORS
330
C61
102
}
330
C60
100
AcDbEntity
  8
DRG
 62
     7
100
AcDbCircle
 10
22.55482592742026
 20
46.07407095019317
 30
0.0
 40
5.303899731193612
100
AcDbArc
 50
88.60601760951558
 51
177.4204129468334
  0
ARC
  5
C7F
102
{ACAD_REACTORS
330
C61
102
}
330
C60
100
AcDbEntity
  8
DRG
 62
     7
100
AcDbCircle
 10
21.07911620370663
 20
45.25413141747447
 30
0.0
 40
6.329089265508557
100
AcDbArc
 50
355.3902881647776
 51
75.31233518658556
  0
ARC
  5
C80
102
{ACAD_REACTORS
330
C61
102
}
330
C60
100
AcDbEntity
  8
DRG
 62
     7
100
AcDbCircle
 10
18.44416731867534
 20
49.02941608298459
 30
0.0
 40
9.099532115185777
100
AcDbArc
 50
14.16259201450603
 51
89.12557427059157
  0
LINE
  5
C81
102
{ACAD_REACTORS
330
C61
102
}
330
C60
100
AcDbEntity
  8
DRG
 62
     7
100
AcDbLine
 10
27.26712190889702
 20
51.25583855281911
 30
0.0
 11
27.26712190889702
 21
57.06060729124669
 31
0.0
  0
LINE
  5
C82
102
{ACAD_REACTORS
330
C61
102
}
330
C60
100
AcDbEntity
  8
DRG
 62
     7
100
AcDbLine
 10
41.83814289966585
 20
60.89733173546756
 30
0.0
 11
47.65019692711667
 21
60.89733173546756
 31
0.0
  0
LINE
  5
C83
102
{ACAD_REACTORS
330
C61
102
}
330
C60
100
AcDbEntity
  8
DRG
 62
     7
100
AcDbLine
 10
7.780267321405972
 20
102.0369718403326
 30
0.0
 11
18.82166172721144
 21
102.0369718403326
 31
0.0
  0
ARC
  5
C84
102
{ACAD_REACTORS
330
C61
102
}
330
C60
100
AcDbEntity
  8
DRG
 62
     7
100
AcDbCircle
 10
26.82166172721144
 20
85.56942787503272
 30
0.0
 40
8.0
100
AcDbArc
 50
90.0
 51
180.0
  0
ARC
  5
C85
102
{ACAD_REACTORS
330
C61
102
}
330
C60
100
AcDbEntity
  8
DRG
 62
     7
100
AcDbCircle
 10
218.4362314981995
 20
81.49681671875567
 30
0.0
 40
177.7732442380865
100
AcDbArc
 50
177.1493405932254
 51
182.8506594067746
  0
ARC
  5
C86
102
{ACAD_REACTORS
330
C61
102
}
330
C60
100
AcDbEntity
  8
DRG
 62
     7
100
AcDbCircle
 10
153.1619203742146
 20
81.49681671875567
 30
0.0
 40
123.6232390473968
100
AcDbArc
 50
176.0111672283904
 51
183.9888327716096
  0
ARC
  5
C87
102
{ACAD_REACTORS
330
C61
102
}
330
C60
100
AcDbEntity
  8
DRG
 62
     7
100
AcDbCircle
 10
41.83814289966585
 20
90.09630170204378
 30
0.0
 40
12.0
100
AcDbArc
 50
90.0
 51
180.0
  0
LINE
  5
C88
102
{ACAD_REACTORS
330
C61
102
}
330
C60
100
AcDbEntity
  8
DRG
 62
     7
100
AcDbLine
 10
18.82166172721144
 20
97.91585750406591
 30
0.0
 11
18.82166172721144
 21
102.0369718403326
 31
0.0
  0
ARC
  5
C89
102
{ACAD_REACTORS
330
C61
102
}
330
C60
100
AcDbEntity
  8
DRG
 62
     7
100
AcDbCircle
 10
27.08335451093995
 20
91.84413968550684
 30
0.0
 40
10.2528691067876
100
AcDbArc
 50
83.7965056449153
 51
143.6869340446688
  0
LINE
  5
C8A
102
{ACAD_REACTORS
330
C61
102
}
330
C60
100
AcDbEntity
  8
DRG
 62
     7
100
AcDbLine
 10
28.19127941113356
 20
102.0369718403326
 30
0.0
 11
28.19127941113356
 21
93.56942787503271
 31
0.0
  0
LINE
  5
C8B
102
{ACAD_REACTORS
330
C61
102
}
330
C60
100
AcDbEntity
  8
DRG
 62
     7
100
AcDbLine
 10
28.19127941113356
 20
93.56942787503271
 30
0.0
 11
26.82166172721144
 21
93.56942787503271
 31
0.0
  0
LINE
  5
C8C
102
{ACAD_REACTORS
330
C61
102
}
330
C60
100
AcDbEntity
  8
DRG
 62
     7
100
AcDbLine
 10
41.83814289966585
 20
102.0963017020437
 30
0.0
 11
47.65019692711667
 21
102.0963017020437
 31
0.0
  0
ARC
  5
C8D
102
{ACAD_REACTORS
330
C61
102
}
330
C60
100
AcDbEntity
  8
DRG
 62
     7
100
AcDbCircle
 10
91.14619929364506
 20
26.57663601663594
 30
0.0
 40
9.546067253988459
100
AcDbArc
 50
232.98068850611
 51
293.7559213557168
  0
ARC
  5
C8E
102
{ACAD_REACTORS
330
C61
102
}
330
C60
100
AcDbEntity
  8
DRG
 62
     7
100
AcDbCircle
 10
153.2802306663538
 20
27.86163732467048
 30
0.0
 40
12.0
100
AcDbArc
 50
180.0
 51
270.0
  0
ARC
  5
C8F
102
{ACAD_REACTORS
330
C61
102
}
330
C60
100
AcDbEntity
  8
DRG
 62
     7
100
AcDbCircle
 10
159.0922846938046
 20
27.86163732467048
 30
0.0
 40
12.0
100
AcDbArc
 50
270.0
 51
0.0
  0
ARC
  5
C90
102
{ACAD_REACTORS
330
C61
102
}
330
C60
100
AcDbEntity
  8
DRG
 62
     7
100
AcDbCircle
 10
62.28053642153918
 20
27.86163732467048
 30
0.0
 40
12.0
100
AcDbArc
 50
270.0
 51
0.0
  0
LINE
  5
C91
102
{ACAD_REACTORS
330
C61
102
}
330
C60
100
AcDbEntity
  8
DRG
 62
     7
100
AcDbLine
 10
56.46848239408837
 20
15.86163732467048
 30
0.0
 11
62.28053642153918
 21
15.86163732467048
 31
0.0
  0
LINE
  5
C92
102
{ACAD_REACTORS
330
C61
102
}
330
C60
100
AcDbEntity
  8
DRG
 62
     7
100
AcDbLine
 10
153.2802306663538
 20
15.86163732467048
 30
0.0
 11
159.0922846938046
 21
15.86163732467048
 31
0.0
  0
ARC
  5
C93
102
{ACAD_REACTORS
330
C61
102
}
330
C60
100
AcDbEntity
  8
DRG
 62
     7
100
AcDbCircle
 10
99.25231297796017
 20
45.06060729124669
 30
0.0
 40
12.0
100
AcDbArc
 50
0.0
 51
90.0
  0
ARC
  5
C94
102
{ACAD_REACTORS
330
C61
102
}
330
C60
100
AcDbEntity
  8
DRG
 62
     7
100
AcDbCircle
 10
103.6618367641508
 20
72.89733173546756
 30
0.0
 40
12.0
100
AcDbArc
 50
270.0
 51
0.0
  0
ARC
  5
C95
102
{ACAD_REACTORS
330
C61
102
}
330
C60
100
AcDbEntity
  8
DRG
 62
     7
100
AcDbCircle
 10
103.6618367641508
 20
90.09630170204378
 30
0.0
 40
12.0
100
AcDbArc
 50
0.0
 51
90.0
  0
ARC
  5
C96
102
{ACAD_REACTORS
330
C61
102
}
330
C60
100
AcDbEntity
  8
DRG
 62
     7
100
AcDbCircle
 10
75.3311912101517
 20
68.89733173546756
 30
0.0
 40
8.0
100
AcDbArc
 50
180.0
 51
270.0
  0
LINE
  5
C97
102
{ACAD_REACTORS
330
C61
102
}
330
C60
100
AcDbEntity
  8
DRG
 62
     7
100
AcDbLine
 10
84.50114225615108
 20
62.07251817888527
 30
0.0
 11
84.50114225615108
 21
70.21476458140921
 31
0.0
  0
ARC
  5
C98
102
{ACAD_REACTORS
330
C61
102
}
330
C60
100
AcDbEntity
  8
DRG
 62
     7
100
AcDbCircle
 10
97.84978273670004
 20
72.89733173546756
 30
0.0
 40
12.0
100
AcDbArc
 50
180.0
 51
270.0
  0
ARC
  5
C99
102
{ACAD_REACTORS
330
C61
102
}
330
C60
100
AcDbEntity
  8
DRG
 62
     7
100
AcDbCircle
 10
80.60497372505892
 20
67.94139513331003
 30
0.0
 40
7.044419488421358
100
AcDbArc
 50
270.5760989671356
 51
303.5789717876612
  0
ARC
  5
C9A
102
{ACAD_REACTORS
330
C61
102
}
330
C60
100
AcDbEntity
  8
DRG
 62
     7
100
AcDbCircle
 10
93.35817406851878
 20
30.94819642727492
 30
0.0
 40
12.0
100
AcDbArc
 50
90.0
 51
173.2945725200373
  0
ARC
  5
C9B
102
{ACAD_REACTORS
330
C61
102
}
330
C60
100
AcDbEntity
  8
DRG
 62
     7
100
AcDbCircle
 10
93.44025895050936
 20
27.86163732467048
 30
0.0
 40
12.0
100
AcDbArc
 50
180.0
 51
227.9226718038604
  0
ARC
  5
C9C
102
{ACAD_REACTORS
330
C61
102
}
330
C60
100
AcDbEntity
  8
DRG
 62
     7
100
AcDbCircle
 10
93.44025895050936
 20
45.06060729124669
 30
0.0
 40
12.0
100
AcDbArc
 50
90.0
 51
175.9378258643453
  0
LINE
  5
C9D
102
{ACAD_REACTORS
330
C61
102
}
330
C60
100
AcDbEntity
  8
DRG
 62
     7
100
AcDbLine
 10
74.28053642153918
 20
45.06060729124669
 30
0.0
 11
74.28053642153918
 21
35.62972293482085
 31
0.0
  0
LINE
  5
C9E
102
{ACAD_REACTORS
330
C61
102
}
330
C60
100
AcDbEntity
  8
DRG
 62
     7
100
AcDbLine
 10
63.23570996475701
 20
30.81688778835382
 30
0.0
 11
74.28053642153918
 21
30.81688778835382
 31
0.0
  0
LINE
  5
C9F
102
{ACAD_REACTORS
330
C61
102
}
330
C60
100
AcDbEntity
  8
DRG
 62
     7
100
AcDbLine
 10
55.51331131997222
 20
35.62972293482085
 30
0.0
 11
74.28053642153918
 21
35.62972293482085
 31
0.0
  0
LINE
  5
CA0
102
{ACAD_REACTORS
330
C61
102
}
330
C60
100
AcDbEntity
  8
DRG
 62
     7
100
AcDbLine
 10
63.23570996475701
 20
30.81688778835382
 30
0.0
 11
63.23570996475701
 21
27.61994893837936
 31
0.0
  0
LINE
  5
CA1
102
{ACAD_REACTORS
330
C61
102
}
330
C60
100
AcDbEntity
  8
DRG
 62
     7
100
AcDbLine
 10
55.51331131997222
 20
35.62972293482085
 30
0.0
 11
55.51331131997222
 21
27.61994893837936
 31
0.0
  0
ARC
  5
CA2
102
{ACAD_REACTORS
330
C61
102
}
330
C60
100
AcDbEntity
  8
DRG
 62
     7
100
AcDbCircle
 10
59.37451064236461
 20
27.61994893837936
 30
0.0
 40
3.861199322392394
100
AcDbArc
 50
180.0
 51
0.0
  0
LINE
  5
CA3
102
{ACAD_REACTORS
330
C61
102
}
330
C60
100
AcDbEntity
  8
DRG
 62
     7
100
AcDbLine
 10
74.28053642153918
 20
30.81688778835382
 30
0.0
 11
74.28053642153918
 21
27.86163732467048
 31
0.0
  0
ARC
  5
CA4
102
{ACAD_REACTORS
330
C61
102
}
330
C60
100
AcDbEntity
  8
DRG
 62
     7
100
AcDbCircle
 10
62.28053642153918
 20
45.06060729124669
 30
0.0
 40
12.0
100
AcDbArc
 50
0.0
 51
90.0
  0
LINE
  5
CA5
102
{ACAD_REACTORS
330
C61
102
}
330
C60
100
AcDbEntity
  8
DRG
 62
     7
100
AcDbLine
 10
55.51331131997222
 20
41.92343128252765
 30
0.0
 11
63.23570996475701
 21
41.92343128252765
 31
0.0
  0
ARC
  5
CA6
102
{ACAD_REACTORS
330
C61
102
}
330
C60
100
AcDbEntity
  8
DRG
 62
     7
100
AcDbCircle
 10
59.37451064236461
 20
46.69061407390313
 30
0.0
 40
3.861199322392394
100
AcDbArc
 50
0.0
 51
180.0
  0
LINE
  5
CA7
102
{ACAD_REACTORS
330
C61
102
}
330
C60
100
AcDbEntity
  8
DRG
 62
     7
100
AcDbLine
 10
55.51331131997222
 20
46.69061407390313
 30
0.0
 11
55.51331131997222
 21
41.92343128252765
 31
0.0
  0
LINE
  5
CA8
102
{ACAD_REACTORS
330
C61
102
}
330
C60
100
AcDbEntity
  8
DRG
 62
     7
100
AcDbLine
 10
63.23570996475701
 20
46.69061407390313
 30
0.0
 11
63.23570996475701
 21
41.92343128252765
 31
0.0
  0
LINE
  5
CA9
102
{ACAD_REACTORS
330
C61
102
}
330
C60
100
AcDbEntity
  8
DRG
 62
     7
100
AcDbLine
 10
56.46848239408837
 20
57.06060729124669
 30
0.0
 11
62.28053642153918
 21
57.06060729124669
 31
0.0
  0
LINE
  5
CAA
102
{ACAD_REACTORS
330
C61
102
}
330
C60
100
AcDbEntity
  8
DRG
 62
     7
100
AcDbLine
 10
75.3311912101517
 20
60.89733173546756
 30
0.0
 11
80.67580292826482
 21
60.89733173546756
 31
0.0
  0
LINE
  5
CAB
102
{ACAD_REACTORS
330
C61
102
}
330
C60
100
AcDbEntity
  8
DRG
 62
     7
100
AcDbLine
 10
111.2523129779601
 20
45.06060729124669
 30
0.0
 11
111.2523129779601
 21
21.10260096837424
 31
0.0
  0
ARC
  5
CAC
102
{ACAD_REACTORS
330
C61
102
}
330
C60
100
AcDbEntity
  8
DRG
 62
     7
100
AcDbCircle
 10
92.42718702330535
 20
28.35354877633903
 30
0.0
 40
10.82239003805156
100
AcDbArc
 50
283.7076696554303
 51
333.6028219757398
  0
ARC
  5
CAD
102
{ACAD_REACTORS
330
C61
102
}
330
C60
100
AcDbEntity
  8
DRG
 62
     7
100
AcDbCircle
 10
97.61764886040623
 20
31.59733678395474
 30
0.0
 40
5.798050791630608
100
AcDbArc
 50
86.52564160507871
 51
165.5788481051405
  0
ARC
  5
CAE
102
{ACAD_REACTORS
330
C61
102
}
330
C60
100
AcDbEntity
  8
DRG
 62
     7
100
AcDbCircle
 10
95.53000566863948
 20
29.73425450198635
 30
0.0
 40
5.984803097580735
100
AcDbArc
 50
273.1942481591633
 51
2.399846403601458
  0
LINE
  5
CAF
102
{ACAD_REACTORS
330
C61
102
}
330
C60
100
AcDbEntity
  8
DRG
 62
     7
100
AcDbLine
 10
92.00228719158848
 20
27.61994893837936
 30
0.0
 11
92.00228719158848
 21
33.04132650368979
 31
0.0
  0
LINE
  5
CB0
102
{ACAD_REACTORS
330
C61
102
}
330
C60
100
AcDbEntity
  8
DRG
 62
     7
100
AcDbLine
 10
81.44025895050935
 20
32.34937423180986
 30
0.0
 11
81.44025895050935
 21
27.86163732467048
 31
0.0
  0
ARC
  5
CB1
102
{ACAD_REACTORS
330
C61
102
}
330
C60
100
AcDbEntity
  8
DRG
 62
     7
100
AcDbCircle
 10
95.86348651398088
 20
27.61994893837936
 30
0.0
 40
3.861199322392394
100
AcDbArc
 50
180.0
 51
270.0
  0
LINE
  5
CB2
102
{ACAD_REACTORS
330
C61
102
}
330
C60
100
AcDbEntity
  8
DRG
 62
     7
100
AcDbLine
 10
102.6710305977499
 20
17.89352120355198
 30
0.0
 11
111.8021775281067
 21
17.89352120355201
 31
0.0
  0
ARC
  5
CB3
102
{ACAD_REACTORS
330
C61
102
}
330
C60
100
AcDbEntity
  8
DRG
 62
     7
100
AcDbCircle
 10
118.8787520564477
 20
22.32230593019949
 30
0.0
 40
16.80191563595413
100
AcDbArc
 50
175.8370537707021
 51
195.2830733070363
  0
LINE
  5
CB4
102
{ACAD_REACTORS
330
C61
102
}
330
C60
100
AcDbEntity
  8
DRG
 62
     7
100
AcDbLine
 10
102.1211660476033
 20
23.54201089202507
 30
0.0
 11
102.1211660476033
 21
21.10260096837433
 31
0.0
  0
ARC
  5
CB5
102
{ACAD_REACTORS
330
C61
102
}
330
C60
100
AcDbEntity
  8
DRG
 62
     7
100
AcDbCircle
 10
128.0098989868046
 20
22.32230593019952
 30
0.0
 40
16.80191563595413
100
AcDbArc
 50
175.8370537707021
 51
195.2830733070363
  0
LINE
  5
CB6
102
{ACAD_REACTORS
330
C61
102
}
330
C60
100
AcDbEntity
  8
DRG
 62
     7
100
AcDbLine
 10
101.5095597489034
 20
37.38473087155557
 30
0.0
 11
101.5095597489034
 21
29.48365298960027
 31
0.0
  0
LINE
  5
CB7
102
{ACAD_REACTORS
330
C61
102
}
330
C60
100
AcDbEntity
  8
DRG
 62
     7
100
AcDbLine
 10
101.5095597489034
 20
37.38473087155557
 30
0.0
 11
97.26627632714361
 21
37.38473087155557
 31
0.0
  0
LINE
  5
CB8
102
{ACAD_REACTORS
330
C61
102
}
330
C60
100
AcDbEntity
  8
DRG
 62
     7
100
AcDbLine
 10
100.2074865211779
 20
42.94819642727492
 30
0.0
 11
93.35817406851878
 21
42.94819642727492
 31
0.0
  0
ARC
  5
CB9
102
{ACAD_REACTORS
330
C61
102
}
330
C60
100
AcDbEntity
  8
DRG
 62
     7
100
AcDbCircle
 10
96.34628719878561
 20
47.31312997766827
 30
0.0
 40
3.861199322392394
100
AcDbArc
 50
0.0
 51
180.0
  0
LINE
  5
CBA
102
{ACAD_REACTORS
330
C61
102
}
330
C60
100
AcDbEntity
  8
DRG
 62
     7
100
AcDbLine
 10
93.44025895050936
 20
57.06060729124669
 30
0.0
 11
99.25231297796017
 21
57.06060729124669
 31
0.0
  0
LINE
  5
CBB
102
{ACAD_REACTORS
330
C61
102
}
330
C60
100
AcDbEntity
  8
DRG
 62
     7
100
AcDbLine
 10
92.48508787639321
 20
45.91067448104673
 30
0.0
 11
81.47040574452455
 21
45.91067448104673
 31
0.0
  0
LINE
  5
CBC
102
{ACAD_REACTORS
330
C61
102
}
330
C60
100
AcDbEntity
  8
DRG
 62
     7
100
AcDbLine
 10
92.48508787639321
 20
47.31312997766827
 30
0.0
 11
92.48508787639321
 21
45.91067448104673
 31
0.0
  0
LINE
  5
CBD
102
{ACAD_REACTORS
330
C61
102
}
330
C60
100
AcDbEntity
  8
DRG
 62
     7
100
AcDbLine
 10
100.2074865211779
 20
47.31312997766827
 30
0.0
 11
100.2074865211779
 21
42.94819642727492
 31
0.0
  0
LINE
  5
CBE
102
{ACAD_REACTORS
330
C61
102
}
330
C60
100
AcDbEntity
  8
DRG
 62
     7
100
AcDbLine
 10
97.84978273670004
 20
60.89733173546756
 30
0.0
 11
103.6618367641508
 21
60.89733173546756
 31
0.0
  0
LINE
  5
CBF
102
{ACAD_REACTORS
330
C61
102
}
330
C60
100
AcDbEntity
  8
DRG
 62
     7
100
AcDbLine
 10
80.48255603357892
 20
69.87605596530011
 30
0.0
 11
83.50114225615106
 21
69.87605596530011
 31
0.0
  0
LINE
  5
CC0
102
{ACAD_REACTORS
330
C61
102
}
330
C60
100
AcDbEntity
  8
DRG
 62
     7
100
AcDbLine
 10
77.48255603357893
 20
94.59335286083614
 30
0.0
 11
84.55362300688102
 21
94.59335286083614
 31
0.0
  0
LINE
  5
CC1
102
{ACAD_REACTORS
330
C61
102
}
330
C60
100
AcDbEntity
  8
DRG
 62
     7
100
AcDbLine
 10
77.48255603357893
 20
101.9948050433795
 30
0.0
 11
84.55362300688102
 21
101.9948050433795
 31
0.0
  0
ARC
  5
CC2
102
{ACAD_REACTORS
330
C61
102
}
330
C60
100
AcDbEntity
  8
DRG
 62
     7
100
AcDbCircle
 10
-128.9478892023152
 20
81.49681671875567
 30
0.0
 40
177.7732442380865
100
AcDbArc
 50
357.1493405932253
 51
2.850659406774618
  0
ARC
  5
CC3
102
{ACAD_REACTORS
330
C61
102
}
330
C60
100
AcDbEntity
  8
DRG
 62
     7
100
AcDbCircle
 10
-63.67357807833042
 20
81.49681671875567
 30
0.0
 40
123.6232390473968
100
AcDbArc
 50
356.0111672283904
 51
3.988832771609578
  0
LINE
  5
CC4
102
{ACAD_REACTORS
330
C61
102
}
330
C60
100
AcDbEntity
  8
DRG
 62
     7
100
AcDbLine
 10
67.3311912101517
 20
94.59335286083614
 30
0.0
 11
67.3311912101517
 21
68.89733173546756
 31
0.0
  0
LINE
  5
CC5
102
{ACAD_REACTORS
330
C61
102
}
330
C60
100
AcDbEntity
  8
DRG
 62
     7
100
AcDbLine
 10
77.48255603357893
 20
94.59335286083614
 30
0.0
 11
77.48255603357893
 21
72.87605596530011
 31
0.0
  0
ARC
  5
CC6
102
{ACAD_REACTORS
330
C61
102
}
330
C60
100
AcDbEntity
  8
DRG
 62
     7
100
AcDbCircle
 10
80.48255603357892
 20
72.87605596530011
 30
0.0
 40
3.0
100
AcDbArc
 50
180.0
 51
270.0
  0
LINE
  5
CC7
102
{ACAD_REACTORS
330
C61
102
}
330
C60
100
AcDbEntity
  8
DRG
 62
     7
100
AcDbLine
 10
62.47898963726857
 20
101.9948050433795
 30
0.0
 11
67.3311912101517
 21
101.9948050433795
 31
0.0
  0
LINE
  5
CC8
102
{ACAD_REACTORS
330
C61
102
}
330
C60
100
AcDbEntity
  8
DRG
 62
     7
100
AcDbLine
 10
62.47898963726857
 20
94.59335286083614
 30
0.0
 11
67.3311912101517
 21
94.59335286083614
 31
0.0
  0
LINE
  5
CC9
102
{ACAD_REACTORS
330
C61
102
}
330
C60
100
AcDbEntity
  8
DRG
 62
     7
100
AcDbLine
 10
62.47898963726857
 20
94.59335286083614
 30
0.0
 11
62.47898963726857
 21
101.9948050433795
 31
0.0
  0
LINE
  5
CCA
102
{ACAD_REACTORS
330
C61
102
}
330
C60
100
AcDbEntity
  8
DRG
 62
     7
100
AcDbLine
 10
67.3311912101517
 20
107.1280725498991
 30
0.0
 11
77.48255603357893
 21
107.1280725498991
 31
0.0
  0
LINE
  5
CCB
102
{ACAD_REACTORS
330
C61
102
}
330
C60
100
AcDbEntity
  8
DRG
 62
     7
100
AcDbLine
 10
67.3311912101517
 20
107.1280725498991
 30
0.0
 11
67.3311912101517
 21
101.9948050433795
 31
0.0
  0
LINE
  5
CCC
102
{ACAD_REACTORS
330
C61
102
}
330
C60
100
AcDbEntity
  8
DRG
 62
     7
100
AcDbLine
 10
77.48255603357893
 20
101.9948050433795
 30
0.0
 11
77.48255603357893
 21
107.1280725498991
 31
0.0
  0
ARC
  5
CCD
102
{ACAD_REACTORS
330
C61
102
}
330
C60
100
AcDbEntity
  8
DRG
 62
     7
100
AcDbCircle
 10
-72.93624936528107
 20
81.49681671875567
 30
0.0
 40
177.7732442380865
100
AcDbArc
 50
357.1493405932253
 51
2.850659406774618
  0
ARC
  5
CCE
102
{ACAD_REACTORS
330
C61
102
}
330
C60
100
AcDbEntity
  8
DRG
 62
     7
100
AcDbCircle
 10
274.4478713352336
 20
81.49681671875567
 30
0.0
 40
177.7732442380865
100
AcDbArc
 50
177.1493405932254
 51
182.8506594067746
  0
ARC
  5
CCF
102
{ACAD_REACTORS
330
C61
102
}
330
C60
100
AcDbEntity
  8
DRG
 62
     7
100
AcDbCircle
 10
209.1735602112488
 20
81.49681671875567
 30
0.0
 40
123.6232390473968
100
AcDbArc
 50
176.0111672283904
 51
183.9888327716096
  0
ARC
  5
CD0
102
{ACAD_REACTORS
330
C61
102
}
330
C60
100
AcDbEntity
  8
DRG
 62
     7
100
AcDbCircle
 10
100.7558109849762
 20
72.65564334917645
 30
0.0
 40
3.861199322392394
100
AcDbArc
 50
180.0
 51
0.0
  0
ARC
  5
CD1
102
{ACAD_REACTORS
330
C61
102
}
330
C60
100
AcDbEntity
  8
DRG
 62
     7
100
AcDbCircle
 10
82.99175133088317
 20
73.02552615249362
 30
0.0
 40
3.190398341080021
100
AcDbArc
 50
279.1873789259768
 51
298.2359877234839
  0
ARC
  5
CD2
102
{ACAD_REACTORS
330
C61
102
}
330
C60
100
AcDbEntity
  8
DRG
 62
     7
100
AcDbCircle
 10
100.7558109849762
 20
90.33799008833488
 30
0.0
 40
3.861199322392394
100
AcDbArc
 50
0.0
 51
180.0
  0
ARC
  5
CD3
102
{ACAD_REACTORS
330
C61
102
}
330
C60
100
AcDbEntity
  8
DRG
 62
     7
100
AcDbCircle
 10
97.84978273670004
 20
90.09630170204378
 30
0.0
 40
12.0
100
AcDbArc
 50
90.0
 51
180.0
  0
LINE
  5
CD4
102
{ACAD_REACTORS
330
C61
102
}
330
C60
100
AcDbEntity
  8
DRG
 62
     7
100
AcDbLine
 10
84.55362300688102
 20
101.9948050433795
 30
0.0
 11
84.55362300688102
 21
94.59335286083614
 31
0.0
  0
LINE
  5
CD5
102
{ACAD_REACTORS
330
C61
102
}
330
C60
100
AcDbEntity
  8
DRG
 62
     7
100
AcDbLine
 10
97.84978273670004
 20
102.0963017020437
 30
0.0
 11
103.6618367641508
 21
102.0963017020437
 31
0.0
  0
LINE
  5
CD6
102
{ACAD_REACTORS
330
C61
102
}
330
C60
100
AcDbEntity
  8
DRG
 62
     7
100
AcDbLine
 10
130.0510117153576
 20
62.11569608183868
 30
0.0
 11
130.0510117153576
 21
85.56942787503272
 31
0.0
  0
LINE
  5
CD7
102
{ACAD_REACTORS
330
C61
102
}
330
C60
100
AcDbEntity
  8
DRG
 62
     7
100
AcDbLine
 10
119.0096173095521
 20
102.0369718403326
 30
0.0
 11
119.0096173095521
 21
62.11569608183868
 31
0.0
  0
LINE
  5
CD8
102
{ACAD_REACTORS
330
C61
102
}
330
C60
100
AcDbEntity
  8
DRG
 62
     7
100
AcDbLine
 10
165.4162645291251
 20
78.31140447718235
 30
0.0
 11
171.7807280496357
 21
62.11569608183868
 31
0.0
  0
LINE
  5
CD9
102
{ACAD_REACTORS
330
C61
102
}
330
C60
100
AcDbEntity
  8
DRG
 62
     7
100
AcDbLine
 10
153.2899770207527
 20
82.5835837808396
 30
0.0
 11
161.3332883364622
 21
62.11569608183868
 31
0.0
  0
LINE
  5
CDA
102
{ACAD_REACTORS
330
C61
102
}
330
C60
100
AcDbEntity
  8
DRG
 62
     7
100
AcDbLine
 10
153.2899770207527
 20
102.0369718403326
 30
0.0
 11
153.2899770207527
 21
62.11569608183868
 31
0.0
  0
LINE
  5
CDB
102
{ACAD_REACTORS
330
C61
102
}
330
C60
100
AcDbEntity
  8
DRG
 62
     7
100
AcDbLine
 10
142.1198708269066
 20
102.0369718403326
 30
0.0
 11
142.1198708269066
 21
62.11569608183868
 31
0.0
  0
ARC
  5
CDC
102
{ACAD_REACTORS
330
C61
102
}
330
C60
100
AcDbEntity
  8
DRG
 62
     7
100
AcDbCircle
 10
160.2892884339439
 20
53.28387098372701
 30
0.0
 40
20.64845099899748
100
AcDbArc
 50
209.503448748896
 51
257.2400493880096
  0
LINE
  5
CDD
102
{ACAD_REACTORS
330
C61
102
}
330
C60
100
AcDbEntity
  8
DRG
 62
     7
100
AcDbLine
 10
141.2802306663538
 20
29.95929893143898
 30
0.0
 11
152.3250595922377
 21
29.95929893143898
 31
0.0
  0
ARC
  5
CDE
102
{ACAD_REACTORS
330
C61
102
}
330
C60
100
AcDbEntity
  8
DRG
 62
     7
100
AcDbCircle
 10
153.2802306663538
 20
45.06060729124669
 30
0.0
 40
12.0
100
AcDbArc
 50
90.0
 51
161.6291304377307
  0
LINE
  5
CDF
102
{ACAD_REACTORS
330
C61
102
}
330
C60
100
AcDbEntity
  8
DRG
 62
     7
100
AcDbLine
 10
153.2899770207527
 20
62.11569608183868
 30
0.0
 11
142.1198708269066
 21
62.11569608183868
 31
0.0
  0
LINE
  5
CE0
102
{ACAD_REACTORS
330
C61
102
}
330
C60
100
AcDbEntity
  8
DRG
 62
     7
100
AcDbLine
 10
127.2345352189994
 20
17.28637227261407
 30
0.0
 11
127.2345352189994
 21
40.74010406580811
 31
0.0
  0
LINE
  5
CE1
102
{ACAD_REACTORS
330
C61
102
}
330
C60
100
AcDbEntity
  8
DRG
 62
     7
100
AcDbLine
 10
116.1931408131939
 20
57.20764803110802
 30
0.0
 11
116.1931408131939
 21
17.28637227261407
 31
0.0
  0
LINE
  5
CE2
102
{ACAD_REACTORS
330
C61
102
}
330
C60
100
AcDbEntity
  8
DRG
 62
     7
100
AcDbLine
 10
116.1931408131939
 20
17.28637227261407
 30
0.0
 11
127.2345352189994
 21
17.28637227261407
 31
0.0
  0
LINE
  5
CE3
102
{ACAD_REACTORS
330
C61
102
}
330
C60
100
AcDbEntity
  8
DRG
 62
     7
100
AcDbLine
 10
141.2802306663538
 20
29.95929893143898
 30
0.0
 11
141.2802306663538
 21
27.86163732467048
 31
0.0
  0
ARC
  5
CE4
102
{ACAD_REACTORS
330
C61
102
}
330
C60
100
AcDbEntity
  8
DRG
 62
     7
100
AcDbCircle
 10
135.496228002728
 20
47.01481587628222
 30
0.0
 40
10.2528691067876
100
AcDbArc
 50
83.7965056449153
 51
143.6869340446688
  0
ARC
  5
CE5
102
{ACAD_REACTORS
330
C61
102
}
330
C60
100
AcDbEntity
  8
DRG
 62
     7
100
AcDbCircle
 10
135.2345352189994
 20
40.74010406580811
 30
0.0
 40
8.0
100
AcDbArc
 50
90.0
 51
180.0
  0
LINE
  5
CE6
102
{ACAD_REACTORS
330
C61
102
}
330
C60
100
AcDbEntity
  8
DRG
 62
     7
100
AcDbLine
 10
119.0096173095521
 20
62.11569608183868
 30
0.0
 11
130.0510117153576
 21
62.11569608183868
 31
0.0
  0
LINE
  5
CE7
102
{ACAD_REACTORS
330
C61
102
}
330
C60
100
AcDbEntity
  8
DRG
 62
     7
100
AcDbLine
 10
116.1931408131939
 20
57.20764803110802
 30
0.0
 11
127.2345352189994
 21
57.20764803110802
 31
0.0
  0
LINE
  5
CE8
102
{ACAD_REACTORS
330
C61
102
}
330
C60
100
AcDbEntity
  8
DRG
 62
     7
100
AcDbLine
 10
127.2345352189994
 20
53.0865336948413
 30
0.0
 11
127.2345352189994
 21
57.20764803110808
 31
0.0
  0
LINE
  5
CE9
102
{ACAD_REACTORS
330
C61
102
}
330
C60
100
AcDbEntity
  8
DRG
 62
     7
100
AcDbLine
 10
136.6041529029215
 20
57.20764803110802
 30
0.0
 11
136.6041529029215
 21
48.74010406580811
 31
0.0
  0
LINE
  5
CEA
102
{ACAD_REACTORS
330
C61
102
}
330
C60
100
AcDbEntity
  8
DRG
 62
     7
100
AcDbLine
 10
136.6041529029215
 20
48.74010406580811
 30
0.0
 11
135.2345352189994
 21
48.74010406580811
 31
0.0
  0
ARC
  5
CEB
102
{ACAD_REACTORS
330
C61
102
}
330
C60
100
AcDbEntity
  8
DRG
 62
     7
100
AcDbCircle
 10
149.1527527298423
 20
46.50373678022958
 30
0.0
 40
7.628356859807196
100
AcDbArc
 50
162.1454311999759
 51
216.2937260355803
  0
ARC
  5
CEC
102
{ACAD_REACTORS
330
C61
102
}
330
C60
100
AcDbEntity
  8
DRG
 62
     7
100
AcDbCircle
 10
164.6822420487512
 20
54.77509540618587
 30
0.0
 40
15.14236331012172
100
AcDbArc
 50
222.2915045199591
 51
257.5309354565247
  0
ARC
  5
CED
102
{ACAD_REACTORS
330
C61
102
}
330
C60
100
AcDbEntity
  8
DRG
 62
     7
100
AcDbCircle
 10
159.223234097084
 20
28.19135155312551
 30
0.0
 40
12.0
100
AcDbArc
 50
8.472166775741481
 51
79.48661276821217
  0
LINE
  5
CEE
102
{ACAD_REACTORS
330
C61
102
}
330
C60
100
AcDbEntity
  8
DRG
 62
     7
100
AcDbLine
 10
160.0474582370225
 20
29.30023062658344
 30
0.0
 11
160.0474582370225
 21
27.61994893837936
 31
0.0
  0
LINE
  5
CEF
102
{ACAD_REACTORS
330
C61
102
}
330
C60
100
AcDbEntity
  8
DRG
 62
     7
100
AcDbLine
 10
152.3250595922377
 20
27.61994893837936
 30
0.0
 11
152.3250595922377
 21
29.95929893143898
 31
0.0
  0
ARC
  5
CF0
102
{ACAD_REACTORS
330
C61
102
}
330
C60
100
AcDbEntity
  8
DRG
 62
     7
100
AcDbCircle
 10
156.1862589146301
 20
27.61994893837936
 30
0.0
 40
3.861199322392394
100
AcDbArc
 50
180.0
 51
0.0
  0
ARC
  5
CF1
102
{ACAD_REACTORS
330
C61
102
}
330
C60
100
AcDbEntity
  8
DRG
 62
     7
100
AcDbCircle
 10
153.8611380906755
 20
26.69983640678762
 30
0.0
 40
6.710633878512949
100
AcDbArc
 50
22.79924977231921
 51
73.84102403877314
  0
LINE
  5
CF2
102
{ACAD_REACTORS
330
C61
102
}
330
C60
100
AcDbEntity
  8
DRG
 62
     7
100
AcDbLine
 10
171.0922846938046
 20
29.95929893143915
 30
0.0
 11
171.0922846938046
 21
27.86163732467048
 31
0.0
  0
LINE
  5
CF3
102
{ACAD_REACTORS
330
C61
102
}
330
C60
100
AcDbEntity
  8
DRG
 62
     7
100
AcDbLine
 10
171.0912486890569
 20
45.21828747592599
 30
0.0
 11
160.0474582370225
 21
45.21828747592599
 31
0.0
  0
ARC
  5
CF4
102
{ACAD_REACTORS
330
C61
102
}
330
C60
100
AcDbEntity
  8
DRG
 62
     7
100
AcDbCircle
 10
159.0922846938046
 20
45.06060729124669
 30
0.0
 40
12.0
100
AcDbArc
 50
0.7528890912800703
 51
90.0
  0
LINE
  5
CF5
102
{ACAD_REACTORS
330
C61
102
}
330
C60
100
AcDbEntity
  8
DRG
 62
     7
100
AcDbLine
 10
161.3332883364622
 20
62.11569608183868
 30
0.0
 11
171.7807280496357
 21
62.11569608183868
 31
0.0
  0
ARC
  5
CF6
102
{ACAD_REACTORS
330
C61
102
}
330
C60
100
AcDbEntity
  8
DRG
 62
     7
100
AcDbCircle
 10
156.1862589146301
 20
46.42128852621931
 30
0.0
 40
3.861199322392394
100
AcDbArc
 50
0.0
 51
161.4735686305323
  0
ARC
  5
CF7
102
{ACAD_REACTORS
330
C61
102
}
330
C60
100
AcDbEntity
  8
DRG
 62
     7
100
AcDbCircle
 10
155.3537321415247
 20
46.85062666225718
 30
0.0
 40
2.938857360854815
100
AcDbArc
 50
164.2539971001781
 51
230.4135202949499
  0
LINE
  5
CF8
102
{ACAD_REACTORS
330
C61
102
}
330
C60
100
AcDbEntity
  8
DRG
 62
     7
100
AcDbLine
 10
160.0474582370225
 20
46.42128852621931
 30
0.0
 11
160.0474582370225
 21
45.21828747592599
 31
0.0
  0
LINE
  5
CF9
102
{ACAD_REACTORS
330
C61
102
}
330
C60
100
AcDbEntity
  8
DRG
 62
     7
100
AcDbLine
 10
153.2802306663538
 20
57.06060729124669
 30
0.0
 11
159.0922846938046
 21
57.06060729124669
 31
0.0
  0
LINE
  5
CFA
102
{ACAD_REACTORS
330
C61
102
}
330
C60
100
AcDbEntity
  8
DRG
 62
     7
100
AcDbLine
 10
142.1198708269066
 20
102.0369718403326
 30
0.0
 11
153.2899770207527
 21
102.0369718403326
 31
0.0
  0
ARC
  5
CFB
102
{ACAD_REACTORS
330
C61
102
}
330
C60
100
AcDbEntity
  8
DRG
 62
     7
100
AcDbCircle
 10
138.0510117153576
 20
85.56942787503272
 30
0.0
 40
8.0
100
AcDbArc
 50
90.0
 51
180.0
  0
ARC
  5
CFC
102
{ACAD_REACTORS
330
C61
102
}
330
C60
100
AcDbEntity
  8
DRG
 62
     7
100
AcDbCircle
 10
-7.66193824129624
 20
81.49681671875567
 30
0.0
 40
123.6232390473968
100
AcDbArc
 50
356.0111672283904
 51
3.988832771609578
  0
ARC
  5
CFD
102
{ACAD_REACTORS
330
C61
102
}
330
C60
100
AcDbEntity
  8
DRG
 62
     7
100
AcDbCircle
 10
138.3127044990861
 20
91.84413968550677
 30
0.0
 40
10.2528691067876
100
AcDbArc
 50
83.7965056449153
 51
143.6869340446688
  0
LINE
  5
CFE
102
{ACAD_REACTORS
330
C61
102
}
330
C60
100
AcDbEntity
  8
DRG
 62
     7
100
AcDbLine
 10
119.0096173095521
 20
102.0369718403326
 30
0.0
 11
130.0510117153576
 21
102.0369718403326
 31
0.0
  0
LINE
  5
CFF
102
{ACAD_REACTORS
330
C61
102
}
330
C60
100
AcDbEntity
  8
DRG
 62
     7
100
AcDbLine
 10
130.0510117153576
 20
97.91585750406586
 30
0.0
 11
130.0510117153576
 21
102.0369718403326
 31
0.0
  0
LINE
  5
D00
102
{ACAD_REACTORS
330
C61
102
}
330
C60
100
AcDbEntity
  8
DRG
 62
     7
100
AcDbLine
 10
139.4206293992797
 20
102.0369718403326
 30
0.0
 11
139.4206293992797
 21
93.56942787503271
 31
0.0
  0
LINE
  5
D01
102
{ACAD_REACTORS
330
C61
102
}
330
C60
100
AcDbEntity
  8
DRG
 62
     7
100
AcDbLine
 10
139.4206293992797
 20
93.56942787503271
 30
0.0
 11
138.0510117153576
 21
93.56942787503271
 31
0.0
  0
LINE
  5
D02
102
{ACAD_REACTORS
330
C61
102
}
330
C60
100
AcDbEntity
  8
DRG
 62
     7
100
AcDbLine
 10
153.2899770207527
 20
82.5835837808396
 30
0.0
 11
160.9346181585602
 21
102.0369718403326
 31
0.0
  0
LINE
  5
D03
102
{ACAD_REACTORS
330
C61
102
}
330
C60
100
AcDbEntity
  8
DRG
 62
     7
100
AcDbLine
 10
176.9709164189357
 20
78.31140447718235
 30
0.0
 11
176.9709164189357
 21
86.85576308449686
 31
0.0
  0
LINE
  5
D04
102
{ACAD_REACTORS
330
C61
102
}
330
C60
100
AcDbEntity
  8
DRG
 62
     7
100
AcDbLine
 10
176.9709164189357
 20
78.31140447718235
 30
0.0
 11
165.4162645291251
 21
78.31140447718235
 31
0.0
  0
LINE
  5
D05
102
{ACAD_REACTORS
330
C61
102
}
330
C60
100
AcDbEntity
  8
DRG
 62
     7
100
AcDbLine
 10
160.9346181585602
 20
102.0369718403326
 30
0.0
 11
171.3820578717338
 21
102.0369718403326
 31
0.0
  0
LINE
  5
D06
102
{ACAD_REACTORS
330
C61
102
}
330
C60
100
AcDbEntity
  8
DRG
 62
     7
100
AcDbLine
 10
165.4162645291251
 20
86.85576308449686
 30
0.0
 11
171.3820578717338
 21
102.0369718403326
 31
0.0
  0
LINE
  5
D07
102
{ACAD_REACTORS
330
C61
102
}
330
C60
100
AcDbEntity
  8
DRG
 62
     7
100
AcDbLine
 10
176.9709164189357
 20
86.85576308449686
 30
0.0
 11
165.4162645291251
 21
86.85576308449686
 31
0.0
  0
ENDBLK
  5
D09
330
C60
100
AcDbEntity
  8
0
100
AcDbBlockEnd
  0
BLOCK
  5
D0C
330
D0A
100
AcDbEntity
  8
0
100
AcDbBlockBegin
  2
ROTORK_GEARS_LOGO
 70
     0
 10
0.0
 20
0.0
 30
0.0
  3
ROTORK_GEARS_LOGO
  1

  0
INSERT
  5
D0B
330
D0A
100
AcDbEntity
  8
0
100
AcDbBlockReference
  2
LOGO
 10
16.592937132438
 20
3.172089893972042
 30
0.0
  0
ENDBLK
  5
D0D
330
D0A
100
AcDbEntity
  8
0
100
AcDbBlockEnd
  0
ENDSEC
  0
SECTION
  2
ENTITIES
  0
LWPOLYLINE
  5
33
330
451
100
AcDbEntity
  8
BORT
100
AcDbPolyline
 90
        2
 70
     0
 43
0.0
 39
1.8
 10
166.0
 20
127.1519452318148
 10
10.0
 20
127.1519452318148
  0
LWPOLYLINE
  5
37
330
451
100
AcDbEntity
  8
BORT
100
AcDbPolyline
 90
        2
 70
     0
 43
0.0
 39
1.8
 10
716.0
 20
91.15194523181486
 10
716.0
 20
59.15194523181486
  0
LWPOLYLINE
  5
3B
330
451
100
AcDbEntity
  8
BORT
100
AcDbPolyline
 90
        2
 70
     0
 43
0.0
 39
1.8
 10
360.0
 20
59.15194523181486
 10
360.0
 20
29.15194523181486
  0
LWPOLYLINE
  5
3F
330
451
100
AcDbEntity
  8
BORT
100
AcDbPolyline
 90
        2
 70
     0
 43
0.0
 39
1.8
 10
580.0
 20
59.15194523181486
 10
580.0
 20
29.15194523181486
  0
TEXT
  5
4A
330
451
100
AcDbEntity
  8
BORT
100
AcDbText
 10
197.8420272960482
 20
41.42039415484624
 30
0.0
 40
6.0
  1
EXEECO LTD   C   1996
100
AcDbText
  0
TEXT
  5
4B
330
451
100
AcDbEntity
  8
BORT
100
AcDbText
 10
543.4563872208649
 20
80.15194523181486
 30
0.0
 40
5.0
  1
DRAWN:-
100
AcDbText
  0
TEXT
  5
4C
330
451
100
AcDbEntity
  8
BORT
100
AcDbText
 10
77.83333333333333
 20
117.6519452318148
 30
0.0
 40
5.0
  1
ALTERATIONS
 72
     4
 11
102.0
 21
120.1519452318148
 31
0.0
100
AcDbText
  0
TEXT
  5
4D
330
451
100
AcDbEntity
  8
BORT
100
AcDbText
 10
73.07142857142856
 20
131.6519452318148
 30
0.0
 40
5.0
  1
ORIGINAL ISSUE
 72
     4
 11
102.0
 21
134.1519452318148
 31
0.0
100
AcDbText
  0
TEXT
  5
4E
330
451
100
AcDbEntity
  8
BORT
100
AcDbText
 10
14.11904761904762
 20
117.6519452318148
 30
0.0
 40
5.0
  1
ISSUE
 72
     4
 11
24.0
 21
120.1519452318148
 31
0.0
100
AcDbText
  0
TEXT
  5
4F
330
451
100
AcDbEntity
  8
BORT
100
AcDbText
 10
22.09523809523809
 20
131.6519452318148
 30
0.0
 40
5.0
  1
A
 72
     4
 11
24.0
 21
134.1519452318148
 31
0.0
100
AcDbText
  0
TEXT
  5
50
330
451
100
AcDbEntity
  8
BORT
100
AcDbText
 10
613.6666666666666
 20
38.15194523181486
 30
0.0
 40
14.0
  1
PUB\IS5CD
 72
     4
 11
670.0
 21
44.15194523181486
 31
0.0
100
AcDbText
  0
TEXT
  5
51
330
451
100
AcDbEntity
  8
BORT
100
AcDbText
 10
543.1674046764296
 20
64.47636155040799
 30
0.0
 40
5.0
  1
CHECKED:-
100
AcDbText
  0
TEXT
  5
52
330
451
100
AcDbEntity
  8
BORT
100
AcDbText
 10
725.7862742956127
 20
80.15194523181486
 30
0.0
 40
5.0
  1
SCALE
100
AcDbText
  0
LWPOLYLINE
  5
53
330
451
100
AcDbEntity
  8
BORT
100
AcDbPolyline
 90
        2
 70
     0
 43
0.0
 39
1.8
 10
540.0
 20
91.15194523181486
 10
540.0
 20
59.15194523181486
  0
CIRCLE
  5
58
330
451
100
AcDbEntity
  8
BORT
100
AcDbCircle
 10
272.154698967905
 20
44.34323177214413
 30
0.0
 40
5.654799746471305
  0
TEXT
  5
59
330
451
100
AcDbEntity
  8
BORT
100
AcDbText
 10
379.518708417259
 20
46.33938060472202
 30
0.0
 40
10.0
  1
OUTLINE DETAILS OF IS5
 72
     4
 11
472.8520417505924
 21
51.33938060472202
 31
0.0
100
AcDbText
  0
TEXT
  5
5A
330
451
100
AcDbEntity
  8
BORT
100
AcDbText
 10
599.8227916173703
 20
80.65194523181487
 30
0.0
 40
5.0
  1
S.W.   10.9.96
 72
     4
 11
627.2037439983228
 21
83.15194523181487
 31
0.0
100
AcDbText
  0
TEXT
  5
5B
330
451
100
AcDbEntity
  8
BORT
100
AcDbText
 10
730.9918454839726
 20
64.15194523181487
 30
0.0
 40
5.0
  1
1:1
100
AcDbText
  0
LINE
  5
5C
330
451
100
AcDbEntity
  8
BORT
100
AcDbLine
 39
1.8
 10
166.0
 20
113.1519452318148
 30
0.0
 11
10.0
 21
113.1519452318148
 31
0.0
  0
LINE
  5
5D
330
451
100
AcDbEntity
  8
BORT
100
AcDbLine
 39
1.8
 10
166.0
 20
113.1519452318148
 30
0.0
 11
10.0
 21
113.1519452318148
 31
0.0
  0
LINE
  5
5E
330
451
100
AcDbEntity
  8
BORT
100
AcDbLine
 39
1.8
 10
10.0
 20
29.15194523181486
 30
0.0
 11
10.0
 21
155.1519452318148
 31
0.0
  0
LINE
  5
5F
330
451
100
AcDbEntity
  8
BORT
100
AcDbLine
 39
1.8
 10
760.0
 20
91.15194523181486
 30
0.0
 11
760.0
 21
29.15194523181486
 31
0.0
  0
LINE
  5
60
330
451
100
AcDbEntity
  8
BORT
100
AcDbLine
 39
1.8
 10
760.0
 20
29.15194523181486
 30
0.0
 11
10.0
 21
29.15194523181486
 31
0.0
  0
LINE
  5
61
330
451
100
AcDbEntity
  8
BORT
100
AcDbLine
 39
1.8
 10
760.0
 20
59.15194523181486
 30
0.0
 11
166.0
 21
59.15194523181486
 31
0.0
  0
LWPOLYLINE
  5
62
330
451
100
AcDbEntity
  8
BORT
100
AcDbPolyline
 90
        2
 70
     0
 43
0.0
 39
1.8
 10
166.0
 20
113.1519452318148
 10
166.0
 20
29.15194523181486
  0
LWPOLYLINE
  5
66
330
451
100
AcDbEntity
  8
BORT
100
AcDbPolyline
 90
        2
 70
     0
 43
0.0
 39
1.8
 10
166.0
 20
141.1519452318148
 10
10.0
 20
141.1519452318148
  0
TEXT
  5
6A
330
451
100
AcDbEntity
  8
BORT
100
AcDbText
 10
387.8520417505924
 20
33.62315028051675
 30
0.0
 40
10.0
  1
ISO & USA STANDARD
 72
     4
 11
472.8520417505924
 21
38.62315028051675
 31
0.0
100
AcDbText
  0
LWPOLYLINE
  5
6B
330
451
100
AcDbEntity
  8
BORT
100
AcDbPolyline
 90
        2
 70
     0
 43
0.0
 39
1.8
 10
760.0
 20
75.15194523181486
 10
540.0
 20
75.15194523181486
  0
LWPOLYLINE
  5
6F
330
451
100
AcDbEntity
  8
BORT
100
AcDbPolyline
 90
        2
 70
     0
 43
0.0
 39
1.8
 10
540.0
 20
91.15194523181486
 10
760.0
 20
91.15194523181486
  0
LINE
  5
74
330
451
100
AcDbEntity
  8
DRG
 62
     1
100
AcDbLine
 10
196.676772417809
 20
694.7084132388199
 30
0.0
 11
196.676772417809
 21
582.70841323882
 31
0.0
  0
LINE
  5
75
330
451
100
AcDbEntity
  8
DRG
100
AcDbLine
 10
182.6517724178089
 20
623.7084132388199
 30
0.0
 11
77.15177241780896
 21
623.7084132388199
 31
0.0
  0
LINE
  5
76
330
451
100
AcDbEntity
  8
DRG
100
AcDbLine
 10
182.6517724178089
 20
653.70841323882
 30
0.0
 11
77.15177241780896
 21
653.70841323882
 31
0.0
  0
LINE
  5
77
330
451
100
AcDbEntity
  8
DRG2
100
AcDbLine
 10
77.15177241780896
 20
653.70841323882
 30
0.0
 11
77.15177241780896
 21
623.7084132388199
 31
0.0
  0
LINE
  5
78
330
451
100
AcDbEntity
  8
DRG
100
AcDbLine
 10
75.65177241780896
 20
652.2084132388199
 30
0.0
 11
75.65177241780896
 21
625.2084132388199
 31
0.0
  0
LINE
  5
79
330
451
100
AcDbEntity
  8
DRG
100
AcDbLine
 10
75.65177241780896
 20
625.2084132388199
 30
0.0
 11
77.15177241780896
 21
623.7084132388199
 31
0.0
  0
LINE
  5
7A
330
451
100
AcDbEntity
  8
DRG
100
AcDbLine
 10
77.15177241780896
 20
653.70841323882
 30
0.0
 11
75.65177241780896
 21
652.2084132388199
 31
0.0
  0
LINE
  5
7F
330
451
100
AcDbEntity
  8
DIM
100
AcDbLine
 10
81.65177241780918
 20
758.7084132388196
 30
0.0
 11
190.6767724178091
 21
758.7084132388196
 31
0.0
  0
SOLID
  5
80
330
451
100
AcDbEntity
  8
DIM
100
AcDbTrace
 10
81.65177241780918
 20
759.7084132388196
 30
0.0
 11
81.65177241780918
 21
757.7084132388196
 31
0.0
 12
75.65177241780919
 22
758.7084132388196
 32
0.0
 13
75.65177241780919
 23
758.7084132388196
 33
0.0
  0
SOLID
  5
81
330
451
100
AcDbEntity
  8
DIM
100
AcDbTrace
 10
190.6767724178091
 20
759.7084132388196
 30
0.0
 11
190.6767724178091
 21
757.7084132388196
 31
0.0
 12
196.6767724178091
 22
758.7084132388196
 32
0.0
 13
196.6767724178091
 23
758.7084132388196
 33
0.0
  0
TEXT
  5
82
330
451
100
AcDbEntity
  8
DIM
100
AcDbText
 10
131.2833200368567
 20
761.2084132388196
 30
0.0
 40
5.0
  1
121
 72
     1
 11
136.1642724178091
 21
763.7084132388196
 31
0.0
100
AcDbText
 73
     2
  0
LINE
  5
83
330
451
100
AcDbEntity
  8
DIM
100
AcDbLine
 10
196.676772417809
 20
693.7084132388208
 30
0.0
 11
196.6767724178091
 21
760.7084132388195
 31
0.0
  0
LINE
  5
84
330
451
100
AcDbEntity
  8
DIM
100
AcDbLine
 10
75.65177241780907
 20
656.3047098396443
 30
0.0
 11
75.65177241780919
 21
760.7084132388195
 31
0.0
  0
LINE
  5
8A
330
451
100
AcDbEntity
  8
DIM
100
AcDbLine
 10
188.6517724178089
 20
693.7084132388208
 30
0.0
 11
188.6517724178089
 21
730.5458167598135
 31
0.0
  0
LINE
  5
8B
330
451
100
AcDbEntity
  8
DIM
100
AcDbLine
 10
202.676772417809
 20
728.5458167598135
 30
0.0
 11
208.676772417809
 21
728.5458167598135
 31
0.0
  0
LINE
  5
8C
330
451
100
AcDbEntity
  8
DIM
100
AcDbLine
 10
182.6517724178089
 20
728.5458167598135
 30
0.0
 11
170.2934415882319
 21
728.5458167598135
 31
0.0
  0
LINE
  5
8D
330
451
100
AcDbEntity
  8
DIM
100
AcDbLine
 10
170.2934415882319
 20
728.5458167598135
 30
0.0
 11
156.2486775127718
 21
728.5458167598135
 31
0.0
  0
SOLID
  5
8E
330
451
100
AcDbEntity
  8
DIM
100
AcDbTrace
 10
202.676772417809
 20
729.5458167598135
 30
0.0
 11
202.676772417809
 21
727.5458167598135
 31
0.0
 12
196.676772417809
 22
728.5458167598135
 32
0.0
 13
196.676772417809
 23
728.5458167598135
 33
0.0
  0
SOLID
  5
8F
330
451
100
AcDbEntity
  8
DIM
100
AcDbTrace
 10
182.6517724178089
 20
729.5458167598135
 30
0.0
 11
182.6517724178089
 21
727.5458167598135
 31
0.0
 12
188.6517724178089
 22
728.5458167598135
 32
0.0
 13
188.6517724178089
 23
728.5458167598135
 33
0.0
  0
TEXT
  5
90
330
451
100
AcDbEntity
  8
DIM
100
AcDbText
 10
167.3528272798411
 20
731.0458167598135
 30
0.0
 40
5.0
  1
8
 72
     1
 11
169.0194939465078
 21
733.5458167598135
 31
0.0
100
AcDbText
 73
     2
  0
LINE
  5
91
330
451
100
AcDbEntity
  8
DRG
100
AcDbLine
 10
120.6517724178089
 20
656.7084132388199
 30
0.0
 11
80.65177241780919
 21
656.7084132388199
 31
0.0
  0
LINE
  5
92
330
451
100
AcDbEntity
  8
DRG
100
AcDbLine
 10
120.6517724178089
 20
653.70841323882
 30
0.0
 11
120.6517724178089
 21
656.7084132388199
 31
0.0
  0
LINE
  5
93
330
451
100
AcDbEntity
  8
DRG
100
AcDbLine
 10
80.65177241780919
 20
653.70841323882
 30
0.0
 11
80.65177241780919
 21
656.7084132388199
 31
0.0
  0
LINE
  5
94
330
451
100
AcDbEntity
  8
DIM
100
AcDbLine
 10
80.65177241780919
 20
661.70841323882
 30
0.0
 11
80.65177241780919
 21
730.5458167598135
 31
0.0
  0
SOLID
  5
95
330
451
100
AcDbEntity
  8
DIM
100
AcDbTrace
 10
86.65177241780918
 20
729.5458167598135
 30
0.0
 11
86.65177241780918
 21
727.5458167598135
 31
0.0
 12
80.65177241780919
 22
728.5458167598135
 32
0.0
 13
80.65177241780919
 23
728.5458167598135
 33
0.0
  0
LINE
  5
96
330
451
100
AcDbEntity
  8
DIM
100
AcDbLine
 10
69.65177241780907
 20
728.5458167598135
 30
0.0
 11
58.10947579829679
 21
728.5458167598135
 31
0.0
  0
LINE
  5
97
330
451
100
AcDbEntity
  8
DIM
100
AcDbLine
 10
58.10947579829679
 20
728.5458167598135
 30
0.0
 11
42.12477604900937
 21
728.5458167598135
 31
0.0
  0
SOLID
  5
98
330
451
100
AcDbEntity
  8
DIM
100
AcDbTrace
 10
69.65177241780907
 20
729.5458167598135
 30
0.0
 11
69.65177241780907
 21
727.5458167598135
 31
0.0
 12
75.65177241780907
 22
728.5458167598135
 32
0.0
 13
75.65177241780907
 23
728.5458167598135
 33
0.0
  0
TEXT
  5
99
330
451
100
AcDbEntity
  8
DIM
100
AcDbText
 10
53.27614246496349
 20
731.0458167598135
 30
0.0
 40
5.0
  1
5
 72
     1
 11
54.94280913163016
 21
733.5458167598135
 31
0.0
100
AcDbText
 73
     2
  0
LINE
  5
9F
330
451
100
AcDbEntity
  8
DIM
100
AcDbLine
 10
200.176772417809
 20
371.9364243372942
 30
0.0
 11
200.176772417809
 21
244.2950870655936
 31
0.0
  0
LINE
  5
A0
330
451
100
AcDbEntity
  8
DIM
100
AcDbLine
 10
206.176772417809
 20
246.2950870655936
 30
0.0
 11
315.0767724178091
 21
246.2950870655936
 31
0.0
  0
SOLID
  5
A1
330
451
100
AcDbEntity
  8
DIM
100
AcDbTrace
 10
206.176772417809
 20
247.2950870655936
 30
0.0
 11
206.176772417809
 21
245.2950870655936
 31
0.0
 12
200.176772417809
 22
246.2950870655936
 32
0.0
 13
200.176772417809
 23
246.2950870655936
 33
0.0
  0
SOLID
  5
A2
330
451
100
AcDbEntity
  8
DIM
100
AcDbTrace
 10
309.0767724178092
 20
247.2950870655937
 30
0.0
 11
309.0767724178092
 21
245.2950870655937
 31
0.0
 12
315.0767724178091
 22
246.2950870655936
 32
0.0
 13
315.0767724178091
 23
246.2950870655936
 33
0.0
  0
TEXT
  5
A3
330
451
100
AcDbEntity
  8
DIM
100
AcDbText
 10
255.82312811607
 20
248.7950870655936
 30
0.0
 40
5.0
  1
115
 72
     4
 11
261.2993185922605
 21
251.2950870655936
 31
0.0
100
AcDbText
  0
LINE
  5
A4
330
451
100
AcDbEntity
  8
DRG
 62
     1
100
AcDbLine
 10
319.0767724178091
 20
400.84591323882
 30
0.0
 11
319.0767724178091
 21
469.5709132388198
 31
0.0
  0
LINE
  5
A5
330
451
100
AcDbEntity
  8
DRG
100
AcDbLine
 10
315.076772417809
 20
482.8334132388198
 30
0.0
 11
318.4767724178092
 21
482.8334132388198
 31
0.0
  0
LINE
  5
A6
330
451
100
AcDbEntity
  8
DRG
100
AcDbLine
 10
319.0767724178091
 20
482.2334132388198
 30
0.0
 11
318.4767724178092
 21
482.8334132388198
 31
0.0
  0
LINE
  5
A7
330
451
100
AcDbEntity
  8
DIM
100
AcDbLine
 10
325.0767724178092
 20
246.2950870655936
 30
0.0
 11
336.4763977826355
 21
246.2950870655936
 31
0.0
  0
LINE
  5
A8
330
451
100
AcDbEntity
  8
DIM
100
AcDbLine
 10
336.4763977826355
 20
246.2950870655936
 30
0.0
 11
350.4475598766361
 21
246.2950870655936
 31
0.0
  0
SOLID
  5
A9
330
451
100
AcDbEntity
  8
DIM
100
AcDbTrace
 10
325.0767724178092
 20
247.2950870655937
 30
0.0
 11
325.0767724178092
 21
245.2950870655937
 31
0.0
 12
319.0767724178092
 22
246.2950870655936
 32
0.0
 13
319.0767724178092
 23
246.2950870655936
 33
0.0
  0
TEXT
  5
AA
330
451
100
AcDbEntity
  8
DIM
100
AcDbText
 10
336.7831055171436
 20
248.7950870655936
 30
0.0
 40
5.0
  1
4
 72
     4
 11
338.5688198028579
 21
251.2950870655937
 31
0.0
100
AcDbText
  0
LINE
  5
AB
330
451
100
AcDbEntity
  8
DIM
100
AcDbLine
 10
321.2322978680973
 20
387.5834132388192
 30
0.0
 11
356.0484054584399
 21
387.5834132388192
 31
0.0
  0
LINE
  5
AC
330
451
100
AcDbEntity
  8
DIM
100
AcDbLine
 10
321.2322978680977
 20
482.8334132388191
 30
0.0
 11
356.0484054584404
 21
482.8334132388191
 31
0.0
  0
LINE
  5
AD
330
451
100
AcDbEntity
  8
DIM
100
AcDbLine
 10
354.0484054584399
 20
393.5834132388192
 30
0.0
 11
354.0484054584404
 21
476.8334132388192
 31
0.0
  0
SOLID
  5
AE
330
451
100
AcDbEntity
  8
DIM
100
AcDbTrace
 10
353.0484054584399
 20
393.5834132388192
 30
0.0
 11
355.0484054584399
 21
393.5834132388192
 31
0.0
 12
354.0484054584399
 22
387.5834132388192
 32
0.0
 13
354.0484054584399
 23
387.5834132388192
 33
0.0
  0
SOLID
  5
AF
330
451
100
AcDbEntity
  8
DIM
100
AcDbTrace
 10
353.0484054584404
 20
476.8334132388192
 30
0.0
 11
355.0484054584404
 21
476.8334132388192
 31
0.0
 12
354.0484054584404
 22
482.8334132388191
 32
0.0
 13
354.0484054584404
 23
482.8334132388191
 33
0.0
  0
TEXT
  5
B0
330
451
100
AcDbEntity
  8
DIM
100
AcDbText
 10
351.5484054584401
 20
405.803651334058
 30
0.0
 40
5.0
  1
SEE TABLE FOR
 50
90.0
 72
     4
 11
349.0484054584401
 21
435.2084132388198
 31
0.0
100
AcDbText
  0
TEXT
  5
B1
330
451
100
AcDbEntity
  8
DIM
100
AcDbText
 10
361.5927391909638
 20
414.395301543395
 30
0.0
 40
5.0
  1
SPIGOT DIA.
 50
90.0
 72
     4
 11
359.0927391909638
 21
436.0619682100617
 31
0.0
100
AcDbText
  0
TEXT
  5
B3
330
451
100
AcDbEntity
  8
DIM
100
AcDbText
 10
509.4431407820112
 20
279.7806752056036
 30
0.0
 40
5.0
  1
SEE TABLE FOR
100
AcDbText
  0
TEXT
  5
B4
330
451
100
AcDbEntity
  8
DIM
100
AcDbText
 10
509.4431407820112
 20
271.209246634175
 30
0.0
 40
5.0
  1
HOLE DETAILS
100
AcDbText
  0
LINE
  5
B5
330
451
100
AcDbEntity
  8
DIM
100
AcDbLine
 10
713.0619352668163
 20
435.2084132388198
 30
0.0
 11
732.9633409237301
 21
435.2084132388198
 31
0.0
  0
LINE
  5
B6
330
451
100
AcDbEntity
  8
DIM
100
AcDbLine
 10
643.0189507401052
 20
638.7084132388199
 30
0.0
 11
732.9633409237301
 21
638.7084132388199
 31
0.0
  0
LINE
  5
B7
330
451
100
AcDbEntity
  8
DIM
100
AcDbLine
 10
730.9633409237301
 20
441.2084132388199
 30
0.0
 11
730.9633409237301
 21
632.70841323882
 31
0.0
  0
SOLID
  5
B8
330
451
100
AcDbEntity
  8
DIM
100
AcDbTrace
 10
729.9633409237301
 20
441.2084132388199
 30
0.0
 11
731.9633409237301
 21
441.2084132388199
 31
0.0
 12
730.9633409237301
 22
435.2084132388198
 32
0.0
 13
730.9633409237301
 23
435.2084132388198
 33
0.0
  0
SOLID
  5
B9
330
451
100
AcDbEntity
  8
DIM
100
AcDbTrace
 10
729.9633409237301
 20
632.70841323882
 30
0.0
 11
731.9633409237301
 21
632.70841323882
 31
0.0
 12
730.9633409237301
 22
638.7084132388199
 32
0.0
 13
730.9633409237301
 23
638.7084132388199
 33
0.0
  0
TEXT
  5
BA
330
451
100
AcDbEntity
  8
DIM
100
AcDbText
 10
728.4633409237301
 20
530.3086945169106
 30
0.0
 40
5.0
  1
204
 50
90.0
 72
     4
 11
725.9633409237301
 21
536.8563135645297
 31
0.0
100
AcDbText
  0
LINE
  5
BB
330
451
100
AcDbEntity
  8
DIM
100
AcDbLine
 10
730.9633409237301
 20
644.7084132388199
 30
0.0
 11
730.9633409237301
 21
692.7084132388199
 31
0.0
  0
SOLID
  5
BC
330
451
100
AcDbEntity
  8
DIM
100
AcDbTrace
 10
729.9633409237301
 20
644.7084132388199
 30
0.0
 11
731.9633409237301
 21
644.7084132388199
 31
0.0
 12
730.9633409237301
 22
638.7084132388199
 32
0.0
 13
730.9633409237301
 23
638.7084132388199
 33
0.0
  0
SOLID
  5
BD
330
451
100
AcDbEntity
  8
DIM
100
AcDbTrace
 10
729.9633409237301
 20
692.7084132388199
 30
0.0
 11
731.9633409237301
 21
692.7084132388199
 31
0.0
 12
730.9633409237301
 22
698.7084132388199
 32
0.0
 13
730.9633409237301
 23
698.7084132388199
 33
0.0
  0
TEXT
  5
BE
330
451
100
AcDbEntity
  8
DIM
100
AcDbText
 10
728.4633409237301
 20
664.4170622614176
 30
0.0
 40
5.0
  1
60
 50
90.0
 72
     4
 11
725.9633409237301
 21
668.4646813090367
 31
0.0
100
AcDbText
  0
LINE
  5
BF
330
451
100
AcDbEntity
  8
DIM
100
AcDbLine
 10
584.3175721036353
 20
698.7084132388199
 30
0.0
 11
732.9633409237301
 21
698.7084132388199
 31
0.0
  0
SOLID
  5
C0
330
451
100
AcDbEntity
  8
DIM
100
AcDbTrace
 10
91.70061857853591
 20
662.1519151663513
 30
0.0
 11
89.78843098935589
 21
662.7380368463684
 31
0.0
 12
88.98615974389429
 22
656.7084132388199
 32
0.0
 13
88.98615974389429
 23
656.7084132388199
 33
0.0
  0
LINE
  5
C1
330
451
100
AcDbEntity
  8
DIM
100
AcDbLine
 10
88.98615974389429
 20
656.7084132388199
 30
0.0
 11
100.6698629059266
 21
694.8258092400147
 31
0.0
  0
LINE
  5
C2
330
451
100
AcDbEntity
  8
DIM
100
AcDbLine
 10
90.35999047209179
 20
728.5458167598135
 30
0.0
 11
86.65177241780918
 21
728.5458167598135
 31
0.0
  0
LINE
  5
C3
330
451
100
AcDbEntity
  8
DIM
100
AcDbLine
 10
72.15177241780907
 20
653.70841323882
 30
0.0
 11
42.52787589803108
 21
653.70841323882
 31
0.0
  0
LINE
  5
C4
330
451
100
AcDbEntity
  8
DIM
100
AcDbLine
 10
72.15177241780907
 20
623.7084132388199
 30
0.0
 11
42.52787589803108
 21
623.7084132388199
 31
0.0
  0
LINE
  5
C5
330
451
100
AcDbEntity
  8
DIM
100
AcDbLine
 10
44.52787589803108
 20
653.70841323882
 30
0.0
 11
44.52787589803108
 21
549.2175361489669
 31
0.0
  0
SOLID
  5
C6
330
451
100
AcDbEntity
  8
DIM
100
AcDbTrace
 10
43.52787589803108
 20
647.7084132388199
 30
0.0
 11
45.52787589803108
 21
647.7084132388199
 31
0.0
 12
44.52787589803108
 22
653.70841323882
 32
0.0
 13
44.52787589803108
 23
653.70841323882
 33
0.0
  0
SOLID
  5
C7
330
451
100
AcDbEntity
  8
DIM
100
AcDbTrace
 10
43.52787589803108
 20
629.7084132388199
 30
0.0
 11
45.52787589803108
 21
629.7084132388199
 31
0.0
 12
44.52787589803108
 22
623.7084132388199
 32
0.0
 13
44.52787589803108
 23
623.7084132388199
 33
0.0
  0
TEXT
  5
C8
330
451
100
AcDbEntity
  8
DIM
100
AcDbText
 10
40.5231696696469
 20
558.3396643971282
 30
0.0
 40
5.0
  1
%%c30.00 -0.05
 50
90.0
 72
     4
 11
38.0231696696469
 21
584.2920453495091
 31
0.0
100
AcDbText
  0
TEXT
  5
C9
330
451
100
AcDbEntity
  8
DIM
100
AcDbText
 10
52.20369897067022
 20
550.601569159033
 30
0.0
 40
5.0
  1
(%%c1.181" -0.002")
 50
90.0
 72
     4
 11
50.06084182781307
 21
584.2920453495091
 31
0.0
100
AcDbText
  0
LINE
  5
CA
330
451
100
AcDbEntity
  8
CRS
100
AcDbLine
 10
72.87167994320373
 20
638.7084132388199
 30
0.0
 11
405.8882850409918
 21
638.7084132388199
 31
0.0
  0
ARC
  5
CB
330
451
100
AcDbEntity
  8
DRG
100
AcDbCircle
 10
210.176772417809
 20
337.20841323882
 30
0.0
 40
3.0
100
AcDbArc
 50
0.0
 51
90.0
  0
LINE
  5
CF
330
451
100
AcDbEntity
  8
DRG
100
AcDbLine
 10
200.176772417809
 20
485.2084132388198
 30
0.0
 11
200.176772417809
 21
385.2084132388199
 31
0.0
  0
LINE
  5
D0
330
451
100
AcDbEntity
  8
DRG
100
AcDbLine
 10
200.176772417809
 20
385.2084132388199
 30
0.0
 11
207.3616737542669
 21
340.20841323882
 31
0.0
  0
LINE
  5
D1
330
451
100
AcDbEntity
  8
DRG
100
AcDbLine
 10
207.3616737542669
 20
340.20841323882
 30
0.0
 11
210.176772417809
 21
340.20841323882
 31
0.0
  0
LINE
  5
D4
330
451
100
AcDbEntity
  8
DRG
100
AcDbLine
 10
200.176772417809
 20
485.2084132388198
 30
0.0
 11
207.3616737542669
 21
530.2396155054672
 31
0.0
  0
LINE
  5
D5
330
451
100
AcDbEntity
  8
DRG
100
AcDbLine
 10
209.676772417809
 20
530.2396155054672
 30
0.0
 11
207.3616737542669
 21
530.2396155054672
 31
0.0
  0
ARC
  5
D6
330
451
100
AcDbEntity
  8
DRG
100
AcDbCircle
 10
203.1767724178092
 20
548.4796513781986
 30
0.0
 40
3.0
100
AcDbArc
 50
180.0
 51
270.0
  0
LINE
  5
D7
330
451
100
AcDbEntity
  8
DRG
100
AcDbLine
 10
209.5575403577678
 20
545.4796513781986
 30
0.0
 11
203.1767724178092
 21
545.4796513781986
 31
0.0
  0
LINE
  5
DB
330
451
100
AcDbEntity
  8
CRS
100
AcDbLine
 10
565.9915327882695
 20
704.7311125866213
 30
0.0
 11
565.9915327882695
 21
296.8024971790617
 31
0.0
  0
LINE
  5
DD
330
451
100
AcDbEntity
  8
DRG
100
AcDbLine
 10
245.176772417809
 20
304.2084132388198
 30
0.0
 11
270.176772417809
 21
304.2084132388198
 31
0.0
  0
LINE
  5
DE
330
451
100
AcDbEntity
  8
DRG
100
AcDbLine
 10
213.1767724178092
 20
323.0161907322261
 30
0.0
 11
213.176772417809
 21
337.20841323882
 31
0.0
  0
LINE
  5
DF
330
451
100
AcDbEntity
  8
DRG
100
AcDbLine
 10
218.0671683745748
 20
315.6452774445595
 30
0.0
 11
245.176772417809
 21
304.2084132388198
 31
0.0
  0
ARC
  5
E0
330
451
100
AcDbEntity
  8
DRG
100
AcDbCircle
 10
221.1767724178092
 20
323.0161907322261
 30
0.0
 40
8.0
100
AcDbArc
 50
180.0000000000003
 51
247.1263348093733
  0
LINE
  5
E6
330
451
100
AcDbEntity
  8
CRS
100
AcDbLine
 10
496.3134984042918
 20
638.7084132388199
 30
0.0
 11
639.1641271193586
 21
638.7084132388199
 31
0.0
  0
ARC
  5
FE
330
451
100
AcDbEntity
  8
DRG
100
AcDbCircle
 10
513.1479270749284
 20
660.0755219625794
 30
0.0
 40
3.0
100
AcDbArc
 50
157.9842435525286
 51
164.3946109955503
  0
LINE
  5
101
330
451
100
AcDbEntity
  8
DIM
100
AcDbLine
 10
195.176772417809
 20
472.7584132388199
 30
0.0
 11
100.5831816543687
 21
472.7584132388199
 31
0.0
  0
LINE
  5
102
330
451
100
AcDbEntity
  8
DIM
100
AcDbLine
 10
195.176772417809
 20
397.6584132388198
 30
0.0
 11
158.1822884030894
 21
397.6584132388198
 31
0.0
  0
TEXT
  5
103
330
451
100
AcDbEntity
  8
DIM
100
AcDbText
 10
97.85293035104951
 20
408.7798418102484
 30
0.0
 40
5.0
  1
SCREWED 2.5"
 50
90.0
 72
     4
 11
94.87673987485903
 21
435.2084132388198
 31
0.0
100
AcDbText
  0
LINE
  5
104
330
451
100
AcDbEntity
  8
DIM
100
AcDbLine
 10
102.5831816543687
 20
403.6584132388198
 30
0.0
 11
102.5831816543687
 21
466.7584132388198
 31
0.0
  0
SOLID
  5
105
330
451
100
AcDbEntity
  8
DIM
100
AcDbTrace
 10
101.5831816543687
 20
403.6584132388198
 30
0.0
 11
103.5831816543687
 21
403.6584132388198
 31
0.0
 12
102.5831816543687
 22
397.6584132388198
 32
0.0
 13
102.5831816543687
 23
397.6584132388198
 33
0.0
  0
SOLID
  5
106
330
451
100
AcDbEntity
  8
DIM
100
AcDbTrace
 10
101.5831816543687
 20
466.7584132388198
 30
0.0
 11
103.5831816543687
 21
466.7584132388198
 31
0.0
 12
102.5831816543687
 22
472.7584132388199
 32
0.0
 13
102.5831816543687
 23
472.7584132388199
 33
0.0
  0
LINE
  5
107
330
451
100
AcDbEntity
  8
HID
100
AcDbLine
 10
200.176772417809
 20
471.4534132388199
 30
0.0
 11
218.926772417809
 21
471.4534132388199
 31
0.0
  0
LINE
  5
108
330
451
100
AcDbEntity
  8
HID
100
AcDbLine
 10
200.176772417809
 20
472.7584132388199
 30
0.0
 11
218.926772417809
 21
472.7584132388199
 31
0.0
  0
LINE
  5
109
330
451
100
AcDbEntity
  8
HID
100
AcDbLine
 10
200.176772417809
 20
398.9634132388199
 30
0.0
 11
218.926772417809
 21
398.9634132388199
 31
0.0
  0
LINE
  5
10A
330
451
100
AcDbEntity
  8
HID
100
AcDbLine
 10
200.176772417809
 20
397.6584132388198
 30
0.0
 11
218.926772417809
 21
397.6584132388198
 31
0.0
  0
ARC
  5
112
330
451
100
AcDbEntity
  8
DRG
100
AcDbCircle
 10
565.9915327882695
 20
435.2084132388198
 30
0.0
 40
131.0
100
AcDbArc
 50
99.22297218316465
 51
35.77702781683536
  0
ARC
  5
113
330
451
100
AcDbEntity
  8
DRG
100
AcDbCircle
 10
565.9915327882695
 20
435.2084132388198
 30
0.0
 40
142.0
100
AcDbArc
 50
45.0
 51
90.0
  0
ARC
  5
114
330
451
100
AcDbEntity
  8
DRG
100
AcDbCircle
 10
652.2585600930283
 20
521.4754405435788
 30
0.0
 40
20.0
100
AcDbArc
 50
344.3190339861964
 51
45.0
  0
ARC
  5
115
330
451
100
AcDbEntity
  8
DRG
100
AcDbCircle
 10
676.3280998010678
 20
514.7184250601639
 30
0.0
 40
5.0
100
AcDbArc
 50
164.3190339861961
 51
215.7770278168352
  0
ARC
  5
116
330
451
100
AcDbEntity
  8
DRG
100
AcDbCircle
 10
565.9915327882695
 20
557.2084132388199
 30
0.0
 40
20.0
100
AcDbArc
 50
90.0
 51
150.6809660138036
  0
ARC
  5
117
330
451
100
AcDbEntity
  8
DRG
100
AcDbCircle
 10
544.1938665717707
 20
569.4502165175083
 30
0.0
 40
5.0
100
AcDbArc
 50
279.2229721831645
 51
330.6809660138035
  0
ARC
  5
118
330
451
100
AcDbEntity
  8
DRG
100
AcDbCircle
 10
565.9915327882696
 20
435.2084132388198
 30
0.0
 40
102.4999999999999
100
AcDbArc
 50
140.8868421387077
 51
219.1131578612921
  0
ARC
  5
119
330
451
100
AcDbEntity
  8
DRG
100
AcDbCircle
 10
565.9915327882696
 20
435.2084132388198
 30
0.0
 40
102.4999999999999
100
AcDbArc
 50
50.88684213870768
 51
129.1131578612923
  0
ARC
  5
11A
330
451
100
AcDbEntity
  8
DRG
100
AcDbCircle
 10
565.9915327882696
 20
435.2084132388198
 30
0.0
 40
102.4999999999999
100
AcDbArc
 50
320.8868421387078
 51
39.11315786129216
  0
ARC
  5
11B
330
451
100
AcDbEntity
  8
DRG
100
AcDbCircle
 10
565.9915327882696
 20
435.2084132388198
 30
0.0
 40
102.4999999999999
100
AcDbArc
 50
230.8868421387077
 51
309.1131578612922
  0
CIRCLE
  5
11C
330
451
100
AcDbEntity
  8
DRG2
100
AcDbCircle
 10
520.0715327882695
 20
546.074790468348
 30
0.0
 40
6.4999998
  0
CIRCLE
  5
11D
330
451
100
AcDbEntity
  8
DRG2
100
AcDbCircle
 10
520.0715327882694
 20
546.0747904683478
 30
0.0
 40
5.98679329286375
  0
LWPOLYLINE
  5
11E
330
451
100
AcDbEntity
  8
DRG2
100
AcDbPolyline
 90
        6
 70
     1
 43
0.0
 10
518.3394819807007
 20
549.074790468348
 10
516.6074311731318
 20
546.074790468348
 10
518.3394819807007
 20
543.074790468348
 10
521.8035835958383
 20
543.074790468348
 10
523.5356344034073
 20
546.074790468348
 10
521.8035835958383
 20
549.074790468348
  0
LWPOLYLINE
  5
126
330
451
100
AcDbEntity
  8
CRS
100
AcDbPolyline
 90
        3
 70
     0
 43
0.0
 10
520.0715327882695
 20
553.5185006108679
 10
520.0715327882694
 20
546.0747904683478
 10
520.0715327882694
 20
538.7766172104305
  0
LWPOLYLINE
  5
12B
330
451
100
AcDbEntity
  8
CRS
100
AcDbPolyline
 90
        3
 70
     0
 43
0.0
 10
527.1098400188918
 20
546.0747904683478
 10
520.0715327882695
 20
546.0747904683478
 10
512.6348863700029
 20
546.0747904683478
  0
LWPOLYLINE
  5
130
330
451
100
AcDbEntity
  8
CRS
100
AcDbPolyline
 90
        3
 70
     0
 43
0.0
 10
455.126822251598
 20
488.1707442219411
 10
455.1268222515979
 20
481.1324369913188
 10
455.1268222515979
 20
473.6957905730522
  0
LWPOLYLINE
  5
135
330
451
100
AcDbEntity
  8
CRS
100
AcDbPolyline
 90
        3
 70
     0
 43
0.0
 10
447.6831121090779
 20
481.1324369913188
 10
455.1268222515979
 20
481.1324369913187
 10
462.4249955095153
 20
481.1324369913187
  0
CIRCLE
  5
13A
330
451
100
AcDbEntity
  8
DRG2
100
AcDbCircle
 10
455.126822251598
 20
481.1324369913187
 30
0.0
 40
5.98679329286375
  0
CIRCLE
  5
13B
330
451
100
AcDbEntity
  8
DRG2
100
AcDbCircle
 10
455.126822251598
 20
481.1324369913188
 30
0.0
 40
6.4999998
  0
LWPOLYLINE
  5
13C
330
451
100
AcDbEntity
  8
DRG2
100
AcDbPolyline
 90
        6
 70
     1
 43
0.0
 10
452.1268222515978
 20
479.40038618375
 10
455.1268222515978
 20
477.668335376181
 10
458.1268222515978
 20
479.40038618375
 10
458.1268222515978
 20
482.8644877988876
 10
455.1268222515978
 20
484.5965386064566
 10
452.1268222515978
 20
482.8644877988876
  0
LWPOLYLINE
  5
144
330
451
100
AcDbEntity
  8
CRS
100
AcDbPolyline
 90
        3
 70
     0
 43
0.0
 10
455.1251555587415
 20
396.3267204694422
 10
455.1251555587415
 20
389.2884132388199
 10
455.1251555587415
 20
381.8517668205533
  0
LWPOLYLINE
  5
149
330
451
100
AcDbEntity
  8
CRS
100
AcDbPolyline
 90
        3
 70
     0
 43
0.0
 10
447.6814454162215
 20
389.2884132388199
 10
455.1251555587415
 20
389.2884132388198
 10
462.4233288166589
 20
389.2884132388198
  0
CIRCLE
  5
14E
330
451
100
AcDbEntity
  8
DRG2
100
AcDbCircle
 10
455.1251555587415
 20
389.2884132388198
 30
0.0
 40
5.98679329286375
  0
CIRCLE
  5
14F
330
451
100
AcDbEntity
  8
DRG2
100
AcDbCircle
 10
455.1251555587414
 20
389.2884132388199
 30
0.0
 40
6.4999998
  0
LWPOLYLINE
  5
150
330
451
100
AcDbEntity
  8
DRG2
100
AcDbPolyline
 90
        6
 70
     1
 43
0.0
 10
452.1251555587414
 20
387.5563624312511
 10
455.1251555587414
 20
385.8243116236821
 10
458.1251555587414
 20
387.5563624312511
 10
458.1251555587414
 20
391.0204640463888
 10
455.1251555587414
 20
392.7525148539577
 10
452.1251555587414
 20
391.0204640463888
  0
LWPOLYLINE
  5
158
330
451
100
AcDbEntity
  8
CRS
100
AcDbPolyline
 90
        3
 70
     0
 43
0.0
 10
513.029201805148
 20
324.3437027021483
 10
520.0675090357703
 20
324.3437027021484
 10
527.5041554540369
 20
324.3437027021484
  0
LWPOLYLINE
  5
15D
330
451
100
AcDbEntity
  8
CRS
100
AcDbPolyline
 90
        3
 70
     0
 43
0.0
 10
520.0675090357703
 20
316.8999925596283
 10
520.0675090357703
 20
324.3437027021484
 10
520.0675090357704
 20
331.6418759600658
  0
CIRCLE
  5
162
330
451
100
AcDbEntity
  8
DRG2
100
AcDbCircle
 10
520.0675090357703
 20
324.3437027021484
 30
0.0
 40
5.98679329286375
  0
CIRCLE
  5
163
330
451
100
AcDbEntity
  8
DRG2
100
AcDbCircle
 10
520.0675090357703
 20
324.3437027021484
 30
0.0
 40
6.4999998
  0
LWPOLYLINE
  5
164
330
451
100
AcDbEntity
  8
DRG2
100
AcDbPolyline
 90
        6
 70
     1
 43
0.0
 10
521.7995598433392
 20
321.3437027021483
 10
523.531610650908
 20
324.3437027021483
 10
521.7995598433392
 20
327.3437027021483
 10
518.3354582282015
 20
327.3437027021483
 10
516.6034074206325
 20
324.3437027021483
 10
518.3354582282015
 20
321.3437027021483
  0
LWPOLYLINE
  5
16C
330
451
100
AcDbEntity
  8
CRS
100
AcDbPolyline
 90
        3
 70
     0
 43
0.0
 10
604.8732255576472
 20
324.3420360092919
 10
611.9115327882695
 20
324.3420360092919
 10
619.3481792065361
 20
324.3420360092919
  0
LWPOLYLINE
  5
171
330
451
100
AcDbEntity
  8
CRS
100
AcDbPolyline
 90
        3
 70
     0
 43
0.0
 10
611.9115327882695
 20
316.8983258667719
 10
611.9115327882695
 20
324.3420360092919
 10
611.9115327882695
 20
331.6402092672092
  0
CIRCLE
  5
176
330
451
100
AcDbEntity
  8
DRG2
100
AcDbCircle
 10
611.9115327882695
 20
324.3420360092919
 30
0.0
 40
5.98679329286375
  0
CIRCLE
  5
177
330
451
100
AcDbEntity
  8
DRG2
100
AcDbCircle
 10
611.9115327882695
 20
324.3420360092918
 30
0.0
 40
6.4999998
  0
LWPOLYLINE
  5
178
330
451
100
AcDbEntity
  8
DRG2
100
AcDbPolyline
 90
        6
 70
     1
 43
0.0
 10
613.6435835958383
 20
321.3420360092918
 10
615.3756344034072
 20
324.3420360092918
 10
613.6435835958383
 20
327.3420360092917
 10
610.1794819807006
 20
327.3420360092917
 10
608.4474311731317
 20
324.3420360092918
 10
610.1794819807006
 20
321.3420360092918
  0
LWPOLYLINE
  5
180
330
451
100
AcDbEntity
  8
CRS
100
AcDbPolyline
 90
        3
 70
     0
 43
0.0
 10
676.8562433249407
 20
382.2460822556986
 10
676.8562433249408
 20
389.284389486321
 10
676.8562433249406
 20
396.7210359045875
  0
LWPOLYLINE
  5
185
330
451
100
AcDbEntity
  8
CRS
100
AcDbPolyline
 90
        3
 70
     0
 43
0.0
 10
684.2999534674608
 20
389.284389486321
 10
676.8562433249407
 20
389.2843894863211
 10
669.5580700670233
 20
389.2843894863211
  0
CIRCLE
  5
18A
330
451
100
AcDbEntity
  8
DRG2
100
AcDbCircle
 10
676.8562433249408
 20
389.284389486321
 30
0.0
 40
5.98679329286375
  0
CIRCLE
  5
18B
330
451
100
AcDbEntity
  8
DRG2
100
AcDbCircle
 10
676.8562433249408
 20
389.2843894863208
 30
0.0
 40
6.4999998
  0
LWPOLYLINE
  5
18C
330
451
100
AcDbEntity
  8
DRG2
100
AcDbPolyline
 90
        6
 70
     1
 43
0.0
 10
679.8562433249409
 20
391.0164402938899
 10
676.8562433249408
 20
392.7484911014588
 10
673.8562433249409
 20
391.0164402938899
 10
673.8562433249407
 20
387.552338678752
 10
676.8562433249408
 20
385.8202878711831
 10
679.8562433249408
 20
387.5523386787521
  0
LWPOLYLINE
  5
194
330
451
100
AcDbEntity
  8
CRS
100
AcDbPolyline
 90
        3
 70
     0
 43
0.0
 10
676.8579100177975
 20
474.0901060081975
 10
676.8579100177975
 20
481.1284132388198
 10
676.8579100177975
 20
488.5650596570863
  0
LWPOLYLINE
  5
199
330
451
100
AcDbEntity
  8
CRS
100
AcDbPolyline
 90
        3
 70
     0
 43
0.0
 10
684.3016201603175
 20
481.1284132388198
 10
676.8579100177975
 20
481.1284132388199
 10
669.5597367598801
 20
481.1284132388199
  0
CIRCLE
  5
19E
330
451
100
AcDbEntity
  8
DRG2
100
AcDbCircle
 10
676.8579100177975
 20
481.1284132388199
 30
0.0
 40
5.98679329286375
  0
CIRCLE
  5
19F
330
451
100
AcDbEntity
  8
DRG2
100
AcDbCircle
 10
676.8579100177976
 20
481.1284132388198
 30
0.0
 40
6.4999998
  0
LWPOLYLINE
  5
1A0
330
451
100
AcDbEntity
  8
DRG2
100
AcDbPolyline
 90
        6
 70
     1
 43
0.0
 10
679.8579100177976
 20
482.8604640463886
 10
676.8579100177976
 20
484.5925148539576
 10
673.8579100177976
 20
482.8604640463886
 10
673.8579100177976
 20
479.3963624312509
 10
676.8579100177976
 20
477.6643116236821
 10
679.8579100177976
 20
479.3963624312509
  0
LWPOLYLINE
  5
1A8
330
451
100
AcDbEntity
  8
CRS
100
AcDbPolyline
 90
        3
 70
     0
 43
0.0
 10
618.9538637713906
 20
546.0731237754912
 10
611.9155565407684
 20
546.0731237754912
 10
604.4789101225018
 20
546.0731237754912
  0
LWPOLYLINE
  5
1AD
330
451
100
AcDbEntity
  8
CRS
100
AcDbPolyline
 90
        3
 70
     0
 43
0.0
 10
611.9155565407683
 20
553.5168339180113
 10
611.9155565407683
 20
546.0731237754912
 10
611.9155565407683
 20
538.7749505175739
  0
CIRCLE
  5
1B2
330
451
100
AcDbEntity
  8
DRG2
100
AcDbCircle
 10
611.9155565407683
 20
546.0731237754912
 30
0.0
 40
5.98679329286375
  0
CIRCLE
  5
1B3
330
451
100
AcDbEntity
  8
DRG2
100
AcDbCircle
 10
611.9155565407685
 20
546.0731237754912
 30
0.0
 40
6.4999998
  0
LWPOLYLINE
  5
1B4
330
451
100
AcDbEntity
  8
DRG2
100
AcDbPolyline
 90
        6
 70
     1
 43
0.0
 10
610.1835057331994
 20
549.0731237754914
 10
608.4514549256304
 20
546.0731237754914
 10
610.1835057331994
 20
543.0731237754913
 10
613.6476073483371
 20
543.0731237754915
 10
615.3796581559062
 20
546.0731237754914
 10
613.6476073483372
 20
549.0731237754914
  0
LINE
  5
1BC
330
451
100
AcDbEntity
  8
DRG
100
AcDbLine
 10
280.176772417809
 20
566.2084132388198
 30
0.0
 11
280.1767724178091
 21
502.2084132388199
 31
0.0
  0
LINE
  5
1BD
330
451
100
AcDbEntity
  8
DRG
100
AcDbLine
 10
280.1767724178093
 20
304.2084132388198
 30
0.0
 11
270.1767724178092
 21
304.2084132388197
 31
0.0
  0
LINE
  5
1BE
330
451
100
AcDbEntity
  8
HID
100
AcDbLine
 10
280.176772417809
 20
537.7084132388198
 30
0.0
 11
275.1767724178091
 21
537.7084132388199
 31
0.0
  0
ARC
  5
1BF
330
451
100
AcDbEntity
  8
HID
100
AcDbCircle
 10
275.1767724178091
 20
532.70841323882
 30
0.0
 40
5.0
100
AcDbArc
 50
89.99999999999968
 51
180.0
  0
ARC
  5
1C0
330
451
100
AcDbEntity
  8
HID
100
AcDbCircle
 10
275.1767724178091
 20
507.2084132388198
 30
0.0
 40
5.0
100
AcDbArc
 50
180.0
 51
270.0000000000002
  0
LINE
  5
1C1
330
451
100
AcDbEntity
  8
DRG
100
AcDbLine
 10
280.176772417809
 20
566.20841323882
 30
0.0
 11
270.176772417809
 21
566.20841323882
 31
0.0
  0
LINE
  5
1C2
330
451
100
AcDbEntity
  8
HID
100
AcDbLine
 10
280.1767724178093
 20
368.20841323882
 30
0.0
 11
275.1767724178092
 21
368.20841323882
 31
0.0
  0
LINE
  5
1C3
330
451
100
AcDbEntity
  8
DRG
100
AcDbLine
 10
280.176772417809
 20
304.2084132388199
 30
0.0
 11
270.176772417809
 21
304.2084132388199
 31
0.0
  0
LINE
  5
1C4
330
451
100
AcDbEntity
  8
HID
100
AcDbLine
 10
280.176772417809
 20
332.7084132388199
 30
0.0
 11
275.1767724178091
 21
332.7084132388199
 31
0.0
  0
ARC
  5
1C5
330
451
100
AcDbEntity
  8
HID
100
AcDbCircle
 10
275.1767724178091
 20
363.20841323882
 30
0.0
 40
5.0
100
AcDbArc
 50
89.99999999999969
 51
179.9999999999999
  0
ARC
  5
1C6
330
451
100
AcDbEntity
  8
HID
100
AcDbCircle
 10
275.1767724178091
 20
337.7084132388199
 30
0.0
 40
5.0
100
AcDbArc
 50
179.9999999999999
 51
270.0000000000002
  0
LINE
  5
1C7
330
451
100
AcDbEntity
  8
DRG
100
AcDbLine
 10
280.176772417809
 20
304.2084132388199
 30
0.0
 11
280.176772417809
 21
368.20841323882
 31
0.0
  0
LINE
  5
1C8
330
451
100
AcDbEntity
  8
CRS
100
AcDbLine
 10
322.6348562020609
 20
435.2084132388198
 30
0.0
 11
195.644822852619
 21
435.2084132388198
 31
0.0
  0
LWPOLYLINE
  5
1D3
330
451
100
AcDbEntity
  8
DRG2
100
AcDbPolyline
 90
        2
 70
     0
 43
0.0
 10
287.1769724178089
 20
539.6161858859823
 10
287.176972417809
 20
552.6157858859817
  0
LINE
  5
1D7
330
451
100
AcDbEntity
  8
CRS
100
AcDbLine
 10
289.6338044559405
 20
546.1159858859819
 30
0.0
 11
279.162087880115
 21
546.1159858859819
 31
0.0
  0
LINE
  5
1D8
330
451
100
AcDbEntity
  8
DRG2
100
AcDbLine
 10
280.176772417809
 20
539.6161858859823
 30
0.0
 11
287.176972417809
 21
539.6161858859823
 31
0.0
  0
LINE
  5
1D9
330
451
100
AcDbEntity
  8
DRG2
100
AcDbLine
 10
287.176972417809
 20
539.6161858859823
 30
0.0
 11
288.1759724178093
 21
540.6157858859817
 31
0.0
  0
LINE
  5
1DA
330
451
100
AcDbEntity
  8
DRG2
100
AcDbLine
 10
288.1759724178093
 20
540.6157858859817
 30
0.0
 11
288.1759724178093
 21
551.6161858859823
 31
0.0
  0
LINE
  5
1DB
330
451
100
AcDbEntity
  8
DRG2
100
AcDbLine
 10
288.1759724178093
 20
551.6161858859823
 30
0.0
 11
287.176972417809
 21
552.6157858859817
 31
0.0
  0
LINE
  5
1DC
330
451
100
AcDbEntity
  8
DRG2
100
AcDbLine
 10
287.176972417809
 20
552.6157858859817
 30
0.0
 11
280.176772417809
 21
552.6157858859817
 31
0.0
  0
LINE
  5
1E5
330
451
100
AcDbEntity
  8
CRS
100
AcDbLine
 10
708.6139816309597
 20
435.2084132388198
 30
0.0
 11
424.2961016706169
 21
435.2084132388198
 31
0.0
  0
LINE
  5
1E6
330
451
100
AcDbEntity
  8
DIM
100
AcDbLine
 10
650.7043615401224
 20
413.2998157287266
 30
0.0
 11
531.4669110797066
 21
444.1372384515487
 31
0.0
  0
SOLID
  5
1E7
330
451
100
AcDbEntity
  8
DIM
100
AcDbTrace
 10
644.6450978827388
 20
413.8339729436824
 30
0.0
 11
645.1458658258267
 21
415.7702661722963
 31
0.0
 12
650.7043615401242
 22
413.2998157287259
 32
0.0
 13
650.7043615401242
 23
413.2998157287259
 33
0.0
  0
LINE
  5
1E8
330
451
100
AcDbEntity
  8
DIM
100
AcDbLine
 10
531.4669110797066
 20
444.1372384515487
 30
0.0
 11
456.3599626605616
 21
463.5615443963594
 31
0.0
  0
SOLID
  5
1E9
330
451
100
AcDbEntity
  8
DIM
100
AcDbTrace
 10
487.3379676938005
 20
456.5828535339562
 30
0.0
 11
486.8371997507128
 21
454.6465603053425
 31
0.0
 12
481.2787040364152
 22
457.1170107489128
 32
0.0
 13
481.2787040364152
 23
457.1170107489128
 33
0.0
  0
LINE
  5
1F1
330
451
100
AcDbEntity
  8
DRG
100
AcDbLine
 10
316.2017724178093
 20
387.5834132388199
 30
0.0
 11
318.4767724178092
 21
387.5834132388199
 31
0.0
  0
LINE
  5
1F2
330
451
100
AcDbEntity
  8
DRG
100
AcDbLine
 10
318.4767724178092
 20
387.5834132388199
 30
0.0
 11
319.0767724178091
 21
388.1834132388199
 31
0.0
  0
LINE
  5
1F3
330
451
100
AcDbEntity
  8
DRG
100
AcDbLine
 10
319.0767724178091
 20
388.1834132388198
 30
0.0
 11
318.4767724178092
 21
387.5834132388198
 31
0.0
  0
LINE
  5
1F4
330
451
100
AcDbEntity
  8
DRG
100
AcDbLine
 10
315.0767724178093
 20
387.5834132388199
 30
0.0
 11
318.4767724178092
 21
387.5834132388198
 31
0.0
  0
LINE
  5
1F5
330
451
100
AcDbEntity
  8
DIM
100
AcDbLine
 10
440.9915327882695
 20
246.2950870655936
 30
0.0
 11
690.9915327882695
 21
246.2950870655936
 31
0.0
  0
SOLID
  5
1F6
330
451
100
AcDbEntity
  8
DIM
100
AcDbTrace
 10
440.9915327882695
 20
247.2950870655936
 30
0.0
 11
440.9915327882695
 21
245.2950870655936
 31
0.0
 12
434.9915327882695
 22
246.2950870655936
 32
0.0
 13
434.9915327882695
 23
246.2950870655936
 33
0.0
  0
SOLID
  5
1F7
330
451
100
AcDbEntity
  8
DIM
100
AcDbTrace
 10
690.9915327882695
 20
247.2950870655936
 30
0.0
 11
690.9915327882695
 21
245.2950870655936
 31
0.0
 12
696.9915327882695
 22
246.2950870655936
 32
0.0
 13
696.9915327882695
 23
246.2950870655936
 33
0.0
  0
TEXT
  5
1F8
330
451
100
AcDbEntity
  8
DIM
100
AcDbText
 10
557.3010565977933
 20
248.7950870655936
 30
0.0
 40
5.0
  1
%%C262
 72
     1
 11
565.9915327882695
 21
251.2950870655936
 31
0.0
100
AcDbText
 73
     2
  0
LINE
  5
1F9
330
451
100
AcDbEntity
  8
CRS
100
AcDbLine
 10
190.4227530066037
 20
675.8315192511145
 30
0.0
 11
176.6424717178418
 21
675.8315192511145
 31
0.0
  0
LINE
  5
1FA
330
451
100
AcDbEntity
  8
CRS
100
AcDbLine
 10
190.4227530066037
 20
601.585307226527
 30
0.0
 11
176.6424717178418
 21
601.585307226527
 31
0.0
  0
LINE
  5
20A
330
451
100
AcDbEntity
  8
HID
100
AcDbLine
 10
280.1767724178093
 20
502.2084132388198
 30
0.0
 11
275.1767724178091
 21
502.2084132388198
 31
0.0
  0
LINE
  5
20B
330
451
100
AcDbEntity
  8
DRG
100
AcDbLine
 10
498.7038060685971
 20
495.4250721466268
 30
0.0
 11
493.8766652606108
 21
500.2522129546131
 31
0.0
  0
LINE
  5
20C
330
451
100
AcDbEntity
  8
DRG
100
AcDbLine
 10
505.7748738804625
 20
502.4961399584922
 30
0.0
 11
500.9477330724761
 21
507.3232807664786
 31
0.0
  0
ARC
  5
20D
330
451
100
AcDbEntity
  8
DRG
100
AcDbCircle
 10
490.341131354678
 20
496.7166790486804
 30
0.0
 40
5.0
100
AcDbArc
 50
45.0
 51
140.8868421387078
  0
ARC
  5
20E
330
451
100
AcDbEntity
  8
DRG
100
AcDbCircle
 10
504.4832669784089
 20
510.8588146724114
 30
0.0
 40
5.0
100
AcDbArc
 50
129.1131578612921
 51
225.0
  0
LINE
  5
20F
330
451
100
AcDbEntity
  8
DRG
100
AcDbLine
 10
626.2081916960766
 20
502.4961399584922
 30
0.0
 11
631.035332504063
 21
507.3232807664786
 31
0.0
  0
LINE
  5
210
330
451
100
AcDbEntity
  8
DRG
100
AcDbLine
 10
633.2792595079421
 20
495.4250721466265
 30
0.0
 11
638.1064003159285
 21
500.2522129546131
 31
0.0
  0
ARC
  5
211
330
451
100
AcDbEntity
  8
DRG
100
AcDbCircle
 10
627.4997985981302
 20
510.8588146724114
 30
0.0
 40
5.0
100
AcDbArc
 50
315.0
 51
50.88684213870734
  0
ARC
  5
212
330
451
100
AcDbEntity
  8
DRG
100
AcDbCircle
 10
641.6419342218613
 20
496.7166790486803
 30
0.0
 40
5.0
100
AcDbArc
 50
39.11315786129215
 51
135.0
  0
LINE
  5
213
330
451
100
AcDbEntity
  8
DRG
100
AcDbLine
 10
498.7038060685972
 20
374.991754331013
 30
0.0
 11
493.8766652606108
 21
370.1646135230266
 31
0.0
  0
LINE
  5
214
330
451
100
AcDbEntity
  8
DRG
100
AcDbLine
 10
505.7748738804626
 20
367.9206865191475
 30
0.0
 11
500.9477330724762
 21
363.0935457111611
 31
0.0
  0
ARC
  5
215
330
451
100
AcDbEntity
  8
DRG
100
AcDbCircle
 10
490.3411313546779
 20
373.7001474289594
 30
0.0
 40
5.0
100
AcDbArc
 50
219.1131578612917
 51
315.0
  0
ARC
  5
216
330
451
100
AcDbEntity
  8
DRG
100
AcDbCircle
 10
504.4832669784089
 20
359.5580118052283
 30
0.0
 40
5.0
100
AcDbArc
 50
135.0
 51
230.8868421387082
  0
LINE
  5
217
330
451
100
AcDbEntity
  8
DRG
100
AcDbLine
 10
633.2792595079419
 20
374.9917543310132
 30
0.0
 11
638.1064003159285
 21
370.1646135230266
 31
0.0
  0
LINE
  5
218
330
451
100
AcDbEntity
  8
DRG
100
AcDbLine
 10
626.2081916960765
 20
367.9206865191476
 30
0.0
 11
631.035332504063
 21
363.0935457111612
 31
0.0
  0
ARC
  5
219
330
451
100
AcDbEntity
  8
DRG
100
AcDbCircle
 10
627.4997985981302
 20
359.5580118052283
 30
0.0
 40
5.0
100
AcDbArc
 50
309.1131578612912
 51
45.00000000000045
  0
ARC
  5
21A
330
451
100
AcDbEntity
  8
DRG
100
AcDbCircle
 10
641.6419342218613
 20
373.7001474289594
 30
0.0
 40
5.0
100
AcDbArc
 50
225.0
 51
320.8868421387078
  0
LINE
  5
21B
330
451
100
AcDbEntity
  8
CRS
100
AcDbLine
 10
624.3732755168545
 20
484.5998219047002
 30
0.0
 11
606.3926073914452
 21
484.5998219047002
 31
0.0
  0
LINE
  5
21C
330
451
100
AcDbEntity
  8
CRS
100
AcDbLine
 10
615.3829414541498
 20
493.5901559674048
 30
0.0
 11
615.3829414541498
 21
475.6094878419956
 31
0.0
  0
ARC
  5
21D
330
451
100
AcDbEntity
  8
DRG
100
AcDbCircle
 10
516.4915327882696
 20
484.7084132388198
 30
0.0
 40
17.5
100
AcDbArc
 50
44.99999999999946
 51
224.9999999999997
  0
ARC
  5
21E
330
451
100
AcDbEntity
  8
DRG
100
AcDbCircle
 10
495.1682721626644
 20
491.889538240694
 30
0.0
 40
5.0
100
AcDbArc
 50
341.3877999612426
 51
45.00000000000045
  0
ARC
  5
21F
330
451
100
AcDbEntity
  8
DRG
100
AcDbCircle
 10
509.3104077863953
 20
506.031673864425
 30
0.0
 40
5.0
100
AcDbArc
 50
225.0
 51
288.6122000387579
  0
ARC
  5
220
330
451
100
AcDbEntity
  8
DRG
100
AcDbCircle
 10
565.9915327882695
 20
435.2084132388198
 30
0.0
 40
60.0
100
AcDbArc
 50
155.25224674219
 51
204.7477532578098
  0
LINE
  5
221
330
451
100
AcDbEntity
  8
DRG
100
AcDbLine
 10
504.1171641175051
 20
472.3340445680553
 30
0.0
 11
510.496693340854
 21
465.9545153447062
 31
0.0
  0
LINE
  5
222
330
451
100
AcDbEntity
  8
DRG
100
AcDbLine
 10
528.8659014590343
 20
497.0827819095844
 30
0.0
 11
535.2454306823832
 21
490.7032526862353
 31
0.0
  0
ARC
  5
223
330
451
100
AcDbEntity
  8
DRG
100
AcDbCircle
 10
506.9611594349213
 20
462.4189814387736
 30
0.0
 40
5.0
100
AcDbArc
 50
335.2522467421589
 51
45.0
  0
ARC
  5
224
330
451
100
AcDbEntity
  8
DRG
100
AcDbCircle
 10
538.780964588316
 20
494.2387865921681
 30
0.0
 40
5.0
100
AcDbArc
 50
225.0
 51
294.7477532578115
  0
ARC
  5
225
330
451
100
AcDbEntity
  8
DRG
100
AcDbCircle
 10
622.6726577901437
 20
506.031673864425
 30
0.0
 40
5.0
100
AcDbArc
 50
251.387799961242
 51
315.0
  0
ARC
  5
226
330
451
100
AcDbEntity
  8
DRG
100
AcDbCircle
 10
636.8147934138747
 20
491.889538240694
 30
0.0
 40
5.0
100
AcDbArc
 50
134.9999999999995
 51
198.6122000387573
  0
ARC
  5
227
330
451
100
AcDbEntity
  8
DRG
100
AcDbCircle
 10
615.4915327882694
 20
484.7084132388198
 30
0.0
 40
17.5
100
AcDbArc
 50
315.0000000000002
 51
135.0000000000005
  0
LINE
  5
228
330
451
100
AcDbEntity
  8
DRG
100
AcDbLine
 10
627.8659014590338
 20
472.3340445680553
 30
0.0
 11
621.4863722356849
 21
465.9545153447062
 31
0.0
  0
ARC
  5
229
330
451
100
AcDbEntity
  8
DRG
100
AcDbCircle
 10
625.0219061416177
 20
462.4189814387736
 30
0.0
 40
5.0
100
AcDbArc
 50
135.0
 51
204.7477532578384
  0
LINE
  5
22A
330
451
100
AcDbEntity
  8
DRG
100
AcDbLine
 10
603.1171641175047
 20
497.0827819095844
 30
0.0
 11
596.7376348941558
 21
490.7032526862353
 31
0.0
  0
ARC
  5
22B
330
451
100
AcDbEntity
  8
DRG
100
AcDbCircle
 10
593.202100988223
 20
494.2387865921681
 30
0.0
 40
5.0
100
AcDbArc
 50
245.2522467421884
 51
315.0
  0
ARC
  5
22C
330
451
100
AcDbEntity
  8
DRG
100
AcDbCircle
 10
565.9915327882695
 20
435.2084132388198
 30
0.0
 40
60.0
100
AcDbArc
 50
65.25224674218771
 51
114.7477532578122
  0
ARC
  5
22D
330
451
100
AcDbEntity
  8
DRG
100
AcDbCircle
 10
622.6726577901437
 20
364.3851526132148
 30
0.0
 40
5.0
100
AcDbArc
 50
44.99999999999999
 51
108.6122000387579
  0
ARC
  5
22E
330
451
100
AcDbEntity
  8
DRG
100
AcDbCircle
 10
636.8147934138747
 20
378.5272882369458
 30
0.0
 40
5.0
100
AcDbArc
 50
161.3877999612426
 51
225.0000000000004
  0
ARC
  5
22F
330
451
100
AcDbEntity
  8
DRG
100
AcDbCircle
 10
615.4915327882694
 20
385.70841323882
 30
0.0
 40
17.5
100
AcDbArc
 50
224.9999999999994
 51
44.99999999999973
  0
LINE
  5
230
330
451
100
AcDbEntity
  8
DRG
100
AcDbLine
 10
603.1171641175047
 20
373.3340445680554
 30
0.0
 11
596.7376348941558
 21
379.7135737914045
 31
0.0
  0
LINE
  5
231
330
451
100
AcDbEntity
  8
DRG
100
AcDbLine
 10
627.8659014590338
 20
398.0827819095845
 30
0.0
 11
621.4863722356849
 21
404.4623111329336
 31
0.0
  0
ARC
  5
232
330
451
100
AcDbEntity
  8
DRG
100
AcDbCircle
 10
625.0219061416177
 20
407.9978450388663
 30
0.0
 40
5.0
100
AcDbArc
 50
155.2522467421641
 51
225.0
  0
ARC
  5
233
330
451
100
AcDbEntity
  8
DRG
100
AcDbCircle
 10
593.202100988223
 20
376.1780398854718
 30
0.0
 40
5.0
100
AcDbArc
 50
44.99999999999999
 51
114.7477532578115
  0
ARC
  5
234
330
451
100
AcDbEntity
  8
DRG
100
AcDbCircle
 10
516.4915327882696
 20
385.70841323882
 30
0.0
 40
17.5
100
AcDbArc
 50
135.0000000000002
 51
315.0000000000005
  0
ARC
  5
235
330
451
100
AcDbEntity
  8
DRG
100
AcDbCircle
 10
509.3104077863953
 20
364.3851526132148
 30
0.0
 40
5.0
100
AcDbArc
 50
71.38779996124205
 51
135.0
  0
ARC
  5
236
330
451
100
AcDbEntity
  8
DRG
100
AcDbCircle
 10
495.1682721626644
 20
378.5272882369458
 30
0.0
 40
5.0
100
AcDbArc
 50
314.9999999999995
 51
18.61220003875732
  0
LINE
  5
237
330
451
100
AcDbEntity
  8
DRG
100
AcDbLine
 10
504.1171641175051
 20
398.0827819095845
 30
0.0
 11
510.496693340854
 21
404.4623111329336
 31
0.0
  0
LINE
  5
238
330
451
100
AcDbEntity
  8
DRG
100
AcDbLine
 10
528.8659014590343
 20
373.3340445680554
 30
0.0
 11
535.2454306823832
 21
379.7135737914045
 31
0.0
  0
ARC
  5
239
330
451
100
AcDbEntity
  8
DRG
100
AcDbCircle
 10
538.780964588316
 20
376.1780398854718
 30
0.0
 40
5.0
100
AcDbArc
 50
65.25224674218846
 51
135.0
  0
ARC
  5
23A
330
451
100
AcDbEntity
  8
DRG
100
AcDbCircle
 10
506.9611594349213
 20
407.9978450388663
 30
0.0
 40
5.0
100
AcDbArc
 50
315.0
 51
24.74775325783845
  0
ARC
  5
23B
330
451
100
AcDbEntity
  8
DRG
100
AcDbCircle
 10
565.9915327882695
 20
435.2084132388198
 30
0.0
 40
60.0
100
AcDbArc
 50
245.2522467421877
 51
294.7477532578123
  0
ARC
  5
23C
330
451
100
AcDbEntity
  8
DRG
100
AcDbCircle
 10
565.9915327882695
 20
435.2084132388198
 30
0.0
 40
60.0
100
AcDbArc
 50
335.2522467421902
 51
24.7477532578099
  0
CIRCLE
  5
23D
330
451
100
AcDbEntity
  8
DRG
100
AcDbCircle
 10
565.9915327882695
 20
435.2084132388198
 30
0.0
 40
55.0
  0
LINE
  5
23E
330
451
100
AcDbEntity
  8
DRG
100
AcDbLine
 10
315.076772417809
 20
502.2084132388198
 30
0.0
 11
280.1767724178091
 21
502.2084132388198
 31
0.0
  0
LINE
  5
23F
330
451
100
AcDbEntity
  8
DRG
100
AcDbLine
 10
315.0767724178093
 20
368.20841323882
 30
0.0
 11
280.176772417809
 21
368.20841323882
 31
0.0
  0
LINE
  5
240
330
451
100
AcDbEntity
  8
DRG
100
AcDbLine
 10
315.076772417809
 20
502.2084132388198
 30
0.0
 11
315.0767724178093
 21
368.20841323882
 31
0.0
  0
LINE
  5
241
330
451
100
AcDbEntity
  8
DRG
100
AcDbLine
 10
319.076772417809
 20
482.2334132388198
 30
0.0
 11
319.0767724178092
 21
388.1834132388199
 31
0.0
  0
LINE
  5
242
330
451
100
AcDbEntity
  8
DIM
100
AcDbLine
 10
243.176772417809
 20
450.2168464065565
 30
0.0
 11
304.4267724178091
 21
450.2168464065565
 31
0.0
  0
LINE
  5
243
330
451
100
AcDbEntity
  8
HID
100
AcDbLine
 10
284.3267724178091
 20
470.0084132388196
 30
0.0
 11
259.3267724178091
 21
470.0084132388196
 31
0.0
  0
LINE
  5
244
330
451
100
AcDbEntity
  8
HID
100
AcDbLine
 10
284.3267724178091
 20
400.4084132388197
 30
0.0
 11
259.3267724178091
 21
400.4084132388197
 31
0.0
  0
LINE
  5
245
330
451
100
AcDbEntity
  8
HID
100
AcDbLine
 10
237.176772417809
 20
465.5084132388195
 30
0.0
 11
237.176772417809
 21
409.2084132388197
 31
0.0
  0
LINE
  5
246
330
451
100
AcDbEntity
  8
HID
100
AcDbLine
 10
248.3267724178091
 20
402.2084132388196
 30
0.0
 11
248.3267724178091
 21
400.4084132388197
 31
0.0
  0
LINE
  5
247
330
451
100
AcDbEntity
  8
HID
100
AcDbLine
 10
253.8267724178091
 20
400.2084132388196
 30
0.0
 11
252.3267724178091
 21
401.0784132388196
 31
0.0
  0
LINE
  5
248
330
451
100
AcDbEntity
  8
HID
100
AcDbLine
 10
237.176772417809
 20
400.9084132388196
 30
0.0
 11
237.676772417809
 21
400.4084132388197
 31
0.0
  0
LINE
  5
249
330
451
100
AcDbEntity
  8
HID
100
AcDbLine
 10
248.3267724178091
 20
400.4084132388197
 30
0.0
 11
237.676772417809
 21
400.4084132388197
 31
0.0
  0
LINE
  5
24A
330
451
100
AcDbEntity
  8
HID
100
AcDbLine
 10
259.3267724178091
 20
400.2084132388196
 30
0.0
 11
253.8267724178091
 21
400.2084132388196
 31
0.0
  0
LINE
  5
24B
330
451
100
AcDbEntity
  8
HID
100
AcDbLine
 10
259.3267724178091
 20
400.4084132388197
 30
0.0
 11
259.3267724178091
 21
400.2084132388196
 31
0.0
  0
LINE
  5
24C
330
451
100
AcDbEntity
  8
HID
100
AcDbLine
 10
252.3267724178091
 20
402.2084132388196
 30
0.0
 11
248.3267724178091
 21
402.2084132388196
 31
0.0
  0
LINE
  5
24D
330
451
100
AcDbEntity
  8
HID
100
AcDbLine
 10
237.1767724178091
 20
401.8084132388197
 30
0.0
 11
248.3267724178091
 21
401.8084132388197
 31
0.0
  0
LINE
  5
24E
330
451
100
AcDbEntity
  8
HID
100
AcDbLine
 10
237.176772417809
 20
400.9084132388196
 30
0.0
 11
237.176772417809
 21
409.2084132388197
 31
0.0
  0
SOLID
  5
24F
330
451
100
AcDbEntity
  8
DIM
100
AcDbTrace
 10
243.176772417809
 20
451.2168464065565
 30
0.0
 11
243.176772417809
 21
449.2168464065565
 31
0.0
 12
237.176772417809
 22
450.2168464065565
 32
0.0
 13
237.176772417809
 23
450.2168464065565
 33
0.0
  0
LINE
  5
250
330
451
100
AcDbEntity
  8
HID
100
AcDbLine
 10
252.3267724178091
 20
401.0784132388196
 30
0.0
 11
252.3267724178091
 21
402.2084132388196
 31
0.0
  0
LINE
  5
251
330
451
100
AcDbEntity
  8
HID
100
AcDbLine
 10
252.3267724178091
 20
468.2084132388196
 30
0.0
 11
248.3267724178091
 21
468.2084132388196
 31
0.0
  0
LINE
  5
252
330
451
100
AcDbEntity
  8
HID
100
AcDbLine
 10
248.3267724178091
 20
470.0084132388196
 30
0.0
 11
237.676772417809
 21
470.0084132388196
 31
0.0
  0
LINE
  5
253
330
451
100
AcDbEntity
  8
HID
100
AcDbLine
 10
237.176772417809
 20
468.6084132388196
 30
0.0
 11
248.3267724178091
 21
468.6084132388196
 31
0.0
  0
LINE
  5
254
330
451
100
AcDbEntity
  8
HID
100
AcDbLine
 10
237.176772417809
 20
469.5084132388195
 30
0.0
 11
237.176772417809
 21
465.5084132388195
 31
0.0
  0
LINE
  5
255
330
451
100
AcDbEntity
  8
HID
100
AcDbLine
 10
237.676772417809
 20
470.0084132388196
 30
0.0
 11
237.176772417809
 21
469.5084132388195
 31
0.0
  0
LINE
  5
256
330
451
100
AcDbEntity
  8
HID
100
AcDbLine
 10
248.3267724178091
 20
468.2084132388196
 30
0.0
 11
248.3267724178091
 21
470.0084132388196
 31
0.0
  0
LINE
  5
257
330
451
100
AcDbEntity
  8
HID
100
AcDbLine
 10
259.3267724178091
 20
470.2084132388196
 30
0.0
 11
253.8267724178091
 21
470.2084132388196
 31
0.0
  0
LINE
  5
258
330
451
100
AcDbEntity
  8
HID
100
AcDbLine
 10
252.3267724178091
 20
469.3384132388196
 30
0.0
 11
252.3267724178091
 21
468.2084132388196
 31
0.0
  0
LINE
  5
259
330
451
100
AcDbEntity
  8
HID
100
AcDbLine
 10
253.8267724178091
 20
470.2084132388196
 30
0.0
 11
252.3267724178091
 21
469.3384132388196
 31
0.0
  0
LINE
  5
25A
330
451
100
AcDbEntity
  8
HID
100
AcDbLine
 10
259.3267724178091
 20
470.0084132388196
 30
0.0
 11
259.3267724178091
 21
470.2084132388196
 31
0.0
  0
TEXT
  5
25B
330
451
100
AcDbEntity
  8
DIM
100
AcDbText
 10
269.75415337019
 20
452.7168464065566
 30
0.0
 40
5.0
  1
73
 72
     1
 11
273.801772417809
 21
455.2168464065565
 31
0.0
100
AcDbText
 73
     2
  0
LINE
  5
25C
330
451
100
AcDbEntity
  8
HID
100
AcDbLine
 10
310.426772417809
 20
465.5084132388197
 30
0.0
 11
310.426772417809
 21
409.2084132388197
 31
0.0
  0
LINE
  5
25D
330
451
100
AcDbEntity
  8
HID
100
AcDbLine
 10
303.3267724178091
 20
400.4084132388197
 30
0.0
 11
296.826772417809
 21
400.4084132388197
 31
0.0
  0
LINE
  5
25E
330
451
100
AcDbEntity
  8
HID
100
AcDbLine
 10
309.9267724178091
 20
400.2084132388196
 30
0.0
 11
310.426772417809
 21
400.7084132388197
 31
0.0
  0
LINE
  5
25F
330
451
100
AcDbEntity
  8
HID
100
AcDbLine
 10
309.9267724178091
 20
400.2084132388196
 30
0.0
 11
303.3267724178091
 21
400.2084132388196
 31
0.0
  0
LINE
  5
260
330
451
100
AcDbEntity
  8
HID
100
AcDbLine
 10
303.3267724178091
 20
400.2084132388196
 30
0.0
 11
303.3267724178091
 21
400.4084132388197
 31
0.0
  0
LINE
  5
261
330
451
100
AcDbEntity
  8
HID
100
AcDbLine
 10
310.426772417809
 20
409.2084132388197
 30
0.0
 11
310.426772417809
 21
400.7084132388197
 31
0.0
  0
SOLID
  5
262
330
451
100
AcDbEntity
  8
DIM
100
AcDbTrace
 10
304.4267724178091
 20
451.2168464065565
 30
0.0
 11
304.4267724178091
 21
449.2168464065565
 31
0.0
 12
310.426772417809
 22
450.2168464065565
 32
0.0
 13
310.426772417809
 23
450.2168464065565
 33
0.0
  0
LINE
  5
263
330
451
100
AcDbEntity
  8
HID
100
AcDbLine
 10
303.3267724178091
 20
470.0084132388196
 30
0.0
 11
296.826772417809
 21
470.0084132388196
 31
0.0
  0
LINE
  5
264
330
451
100
AcDbEntity
  8
HID
100
AcDbLine
 10
296.826772417809
 20
470.0084132388196
 30
0.0
 11
296.826772417809
 21
481.4584132388197
 31
0.0
  0
LINE
  5
265
330
451
100
AcDbEntity
  8
HID
100
AcDbLine
 10
284.3267724178091
 20
481.4584132388197
 30
0.0
 11
284.3267724178091
 21
470.0084132388196
 31
0.0
  0
LINE
  5
266
330
451
100
AcDbEntity
  8
HID
100
AcDbLine
 10
296.326772417809
 20
481.9584132388197
 30
0.0
 11
284.826772417809
 21
481.9584132388197
 31
0.0
  0
LINE
  5
267
330
451
100
AcDbEntity
  8
HID
100
AcDbLine
 10
284.826772417809
 20
481.9584132388197
 30
0.0
 11
284.3267724178091
 21
481.4584132388197
 31
0.0
  0
LINE
  5
268
330
451
100
AcDbEntity
  8
HID
100
AcDbLine
 10
296.826772417809
 20
481.4584132388197
 30
0.0
 11
296.326772417809
 21
481.9584132388197
 31
0.0
  0
LINE
  5
269
330
451
100
AcDbEntity
  8
HID
100
AcDbLine
 10
309.9267724178091
 20
470.2084132388196
 30
0.0
 11
303.3267724178091
 21
470.2084132388196
 31
0.0
  0
LINE
  5
26A
330
451
100
AcDbEntity
  8
HID
100
AcDbLine
 10
303.3267724178091
 20
470.2084132388196
 30
0.0
 11
303.3267724178091
 21
470.0084132388196
 31
0.0
  0
LINE
  5
26B
330
451
100
AcDbEntity
  8
HID
100
AcDbLine
 10
310.426772417809
 20
465.5084132388195
 30
0.0
 11
310.426772417809
 21
469.7084132388196
 31
0.0
  0
LINE
  5
26C
330
451
100
AcDbEntity
  8
HID
100
AcDbLine
 10
309.9267724178091
 20
470.2084132388196
 30
0.0
 11
310.426772417809
 21
469.7084132388196
 31
0.0
  0
LINE
  5
26D
330
451
100
AcDbEntity
  8
HID
100
AcDbLine
 10
296.326772417809
 20
388.4584132388196
 30
0.0
 11
284.826772417809
 21
388.4584132388196
 31
0.0
  0
LINE
  5
26E
330
451
100
AcDbEntity
  8
HID
100
AcDbLine
 10
284.3267724178091
 20
388.9584132388197
 30
0.0
 11
284.826772417809
 21
388.4584132388196
 31
0.0
  0
LINE
  5
26F
330
451
100
AcDbEntity
  8
HID
100
AcDbLine
 10
284.3267724178091
 20
388.9584132388197
 30
0.0
 11
284.3267724178091
 21
400.4084132388197
 31
0.0
  0
LINE
  5
270
330
451
100
AcDbEntity
  8
HID
100
AcDbLine
 10
296.826772417809
 20
388.9584132388197
 30
0.0
 11
296.326772417809
 21
388.4584132388196
 31
0.0
  0
LINE
  5
271
330
451
100
AcDbEntity
  8
HID
100
AcDbLine
 10
296.826772417809
 20
400.4084132388197
 30
0.0
 11
296.826772417809
 21
388.9584132388197
 31
0.0
  0
LINE
  5
272
330
451
100
AcDbEntity
  8
DIM
100
AcDbLine
 10
231.0835531517731
 20
468.6084132388198
 30
0.0
 11
151.8727003418586
 21
468.6084132388198
 31
0.0
  0
LINE
  5
273
330
451
100
AcDbEntity
  8
DIM
100
AcDbLine
 10
153.8727003418586
 20
468.6084132388198
 30
0.0
 11
153.8727003418586
 21
386.1606597398874
 31
0.0
  0
LINE
  5
274
330
451
100
AcDbEntity
  8
DIM
100
AcDbLine
 10
231.0835531517731
 20
401.8084132388199
 30
0.0
 11
151.8727003418586
 21
401.8084132388199
 31
0.0
  0
SOLID
  5
275
330
451
100
AcDbEntity
  8
DIM
100
AcDbTrace
 10
152.8727003418586
 20
407.8084132388198
 30
0.0
 11
154.8727003418586
 21
407.8084132388198
 31
0.0
 12
153.8727003418586
 22
401.8084132388199
 32
0.0
 13
153.8727003418586
 23
401.8084132388199
 33
0.0
  0
SOLID
  5
276
330
451
100
AcDbEntity
  8
DIM
100
AcDbTrace
 10
152.8727003418586
 20
462.6084132388198
 30
0.0
 11
154.8727003418586
 21
462.6084132388198
 31
0.0
 12
153.8727003418586
 22
468.6084132388198
 32
0.0
 13
153.8727003418586
 23
468.6084132388198
 33
0.0
  0
TEXT
  5
277
330
451
100
AcDbEntity
  8
DIM
100
AcDbText
 10
155.8733521111579
 20
278.6199572664624
 30
0.0
 40
5.0
  1
MAX. PERMISSIBLE O/D OF
 50
90.0
100
AcDbText
  0
TEXT
  5
278
330
451
100
AcDbEntity
  8
DIM
100
AcDbText
 10
164.4447806825865
 20
278.6199572664624
 30
0.0
 40
5.0
  1
VALVE SPINDLE LOCKNUT
 50
90.0
100
AcDbText
  0
TEXT
  5
279
330
451
100
AcDbEntity
  8
DIM
100
AcDbText
 10
147.3019235397293
 20
278.6199572664624
 30
0.0
 40
5.0
  1
%%c66 (0.91") ROOT OF SPLINE
 50
90.0
100
AcDbText
  0
LINE
  5
27C
330
451
100
AcDbEntity
  8
DIM
100
AcDbLine
 10
319.0767724178092
 20
384.9477717180824
 30
0.0
 11
319.0767724178092
 21
244.2950870655936
 31
0.0
  0
LINE
  5
27D
330
451
100
AcDbEntity
  8
DIM
100
AcDbLine
 10
315.0767724178091
 20
364.0332293509692
 30
0.0
 11
315.0767724178091
 21
244.2950870655936
 31
0.0
  0
LINE
  5
27E
330
451
100
AcDbEntity
  8
DIM
100
AcDbLine
 10
243.176772417809
 20
277.6338951475298
 30
0.0
 11
309.0767724178092
 21
277.6338951475298
 31
0.0
  0
SOLID
  5
27F
330
451
100
AcDbEntity
  8
DIM
100
AcDbTrace
 10
243.176772417809
 20
278.6338951475298
 30
0.0
 11
243.176772417809
 21
276.6338951475298
 31
0.0
 12
237.176772417809
 22
277.6338951475298
 32
0.0
 13
237.176772417809
 23
277.6338951475298
 33
0.0
  0
TEXT
  5
280
330
451
100
AcDbEntity
  8
DIM
100
AcDbText
 10
274.4041533701901
 20
280.1338951475298
 30
0.0
 40
5.0
  1
78
 72
     4
 11
278.4517724178091
 21
282.6338951475298
 31
0.0
100
AcDbText
  0
SOLID
  5
281
330
451
100
AcDbEntity
  8
DIM
100
AcDbTrace
 10
309.0767724178092
 20
278.6338951475298
 30
0.0
 11
309.0767724178092
 21
276.6338951475298
 31
0.0
 12
315.0767724178091
 22
277.6338951475298
 32
0.0
 13
315.0767724178091
 23
277.6338951475298
 33
0.0
  0
LINE
  5
282
330
451
100
AcDbEntity
  8
DIM
100
AcDbLine
 10
237.176772417809
 20
398.9156423387524
 30
0.0
 11
237.176772417809
 21
274.1365901347586
 31
0.0
  0
CIRCLE
  5
283
330
451
100
AcDbEntity
  8
DRG
100
AcDbCircle
 10
565.9915327882695
 20
435.2084132388198
 30
0.0
 40
35.04999999999999
  0
SOLID
  5
284
330
451
100
AcDbEntity
  8
DIM
100
AcDbTrace
 10
512.9468929467495
 20
372.3296842969419
 30
0.0
 11
514.9098012562712
 21
371.9462902849773
 31
0.0
 12
515.0785291374043
 22
378.0267122195249
 32
0.0
 13
515.0785291374043
 23
378.0267122195249
 33
0.0
  0
LINE
  5
285
330
451
100
AcDbEntity
  8
DIM
100
AcDbLine
 10
515.0785291374043
 20
378.0267122195249
 30
0.0
 11
495.5566469529474
 21
278.0781904337822
 31
0.0
  0
LINE
  5
287
330
451
100
AcDbEntity
  8
DIM
100
AcDbLine
 10
434.9915327882695
 20
403.7655661186539
 30
0.0
 11
434.9915327882695
 21
244.2950870655936
 31
0.0
  0
LINE
  5
288
330
451
100
AcDbEntity
  8
DIM
100
AcDbLine
 10
696.9915327882695
 20
404.2065064059217
 30
0.0
 11
696.9915327882695
 21
244.2950870655936
 31
0.0
  0
LINE
  5
2D9
330
451
100
AcDbEntity
  8
DRG2
100
AcDbLine
 10
188.6517724178089
 20
667.8315192511145
 30
0.0
 11
180.1517724178089
 21
667.8315192511145
 31
0.0
  0
LINE
  5
2DA
330
451
100
AcDbEntity
  8
DRG2
100
AcDbLine
 10
180.1517724178089
 20
667.8315192511145
 30
0.0
 11
180.1517724178089
 21
683.8315192511145
 31
0.0
  0
LINE
  5
2DB
330
451
100
AcDbEntity
  8
DRG2
100
AcDbLine
 10
180.1517724178089
 20
683.8315192511145
 30
0.0
 11
188.6517724178089
 21
683.8315192511145
 31
0.0
  0
LINE
  5
2DC
330
451
100
AcDbEntity
  8
DRG2
100
AcDbLine
 10
180.1517724178089
 20
683.8315192511145
 30
0.0
 11
178.6517724178089
 21
682.3315192511145
 31
0.0
  0
LINE
  5
2DD
330
451
100
AcDbEntity
  8
DRG2
100
AcDbLine
 10
178.6517724178089
 20
682.3315192511145
 30
0.0
 11
178.6517724178089
 21
669.3315192511144
 31
0.0
  0
LINE
  5
2DE
330
451
100
AcDbEntity
  8
DRG2
100
AcDbLine
 10
178.6517724178089
 20
669.3315192511144
 30
0.0
 11
180.1517724178089
 21
667.8315192511145
 31
0.0
  0
LINE
  5
2E5
330
451
100
AcDbEntity
  8
DRG2
100
AcDbLine
 10
188.6517724178089
 20
593.585307226527
 30
0.0
 11
180.1517724178089
 21
593.585307226527
 31
0.0
  0
LINE
  5
2E6
330
451
100
AcDbEntity
  8
DRG2
100
AcDbLine
 10
180.1517724178089
 20
593.585307226527
 30
0.0
 11
180.1517724178089
 21
609.585307226527
 31
0.0
  0
LINE
  5
2E7
330
451
100
AcDbEntity
  8
DRG2
100
AcDbLine
 10
180.1517724178089
 20
609.585307226527
 30
0.0
 11
188.6517724178089
 21
609.585307226527
 31
0.0
  0
LINE
  5
2E8
330
451
100
AcDbEntity
  8
DRG2
100
AcDbLine
 10
180.1517724178089
 20
609.585307226527
 30
0.0
 11
178.6517724178089
 21
608.085307226527
 31
0.0
  0
LINE
  5
2E9
330
451
100
AcDbEntity
  8
DRG2
100
AcDbLine
 10
178.6517724178089
 20
608.085307226527
 30
0.0
 11
178.6517724178089
 21
595.0853072265269
 31
0.0
  0
LINE
  5
2EA
330
451
100
AcDbEntity
  8
DRG2
100
AcDbLine
 10
178.6517724178089
 20
595.0853072265269
 30
0.0
 11
180.1517724178089
 21
593.585307226527
 31
0.0
  0
LINE
  5
2EC
330
451
100
AcDbEntity
  8
DRG
 62
     1
100
AcDbLine
 10
182.6517724178089
 20
667.8315192511145
 30
0.0
 11
182.6517724178089
 21
609.585307226527
 31
0.0
  0
LINE
  5
2ED
330
451
100
AcDbEntity
  8
DIM
100
AcDbLine
 10
148.0937781814728
 20
397.6584132388198
 30
0.0
 11
100.5831816543687
 21
397.6584132388198
 31
0.0
  0
LINE
  5
2EE
330
451
100
AcDbEntity
  8
DRG2
100
AcDbLine
 10
166.0
 20
59.15194523181486
 30
0.0
 11
526.0000000000001
 21
59.15194523181486
 31
0.0
  0
LINE
  5
2EF
330
451
100
AcDbEntity
  8
DRG2
100
AcDbLine
 10
166.0
 20
75.15194523181486
 30
0.0
 11
526.0000000000001
 21
75.15194523181486
 31
0.0
  0
LINE
  5
2F0
330
451
100
AcDbEntity
  8
DRG2
100
AcDbLine
 10
166.0
 20
91.15194523181486
 30
0.0
 11
526.0000000000001
 21
91.15194523181484
 31
0.0
  0
LINE
  5
2F1
330
451
100
AcDbEntity
  8
DRG2
100
AcDbLine
 10
166.0
 20
107.1519452318148
 30
0.0
 11
526.0000000000001
 21
107.1519452318148
 31
0.0
  0
TEXT
  5
2F2
330
451
100
AcDbEntity
  8
TXT
100
AcDbText
 10
170.7619047619048
 20
65.00908808895772
 30
0.0
 40
5.0
  1
FACTOR (MECH. ADVANTAGE)
 72
     4
 11
226.0
 21
67.15194523181486
 31
0.0
100
AcDbText
  0
LINE
  5
2F3
330
451
100
AcDbEntity
  8
DRG2
100
AcDbLine
 10
166.0
 20
59.15194523181486
 30
0.0
 11
166.0
 21
107.1519452318148
 31
0.0
  0
TEXT
  5
2F4
330
451
100
AcDbEntity
  8
TXT
100
AcDbText
 10
197.3095238095238
 20
96.65194523181487
 30
0.0
 40
5.0
  1
NOMINAL RATIO
 72
     4
 11
226.0
 21
99.15194523181487
 31
0.0
100
AcDbText
  0
TEXT
  5
2F5
330
451
100
AcDbEntity
  8
TXT
100
AcDbText
 10
201.7142857142857
 20
80.65194523181487
 30
0.0
 40
5.0
  1
EXACT RATIO
 72
     4
 11
226.0
 21
83.15194523181487
 31
0.0
100
AcDbText
  0
TEXT
  5
2F6
330
451
100
AcDbEntity
  8
TXT
100
AcDbText
 10
305.7619047619047
 20
80.65194523181487
 30
0.0
 40
5.0
  1
2.12:1
 72
     4
 11
316.0
 21
83.15194523181487
 31
0.0
100
AcDbText
  0
LINE
  5
2F7
330
451
100
AcDbEntity
  8
DRG2
100
AcDbLine
 10
286.0
 20
59.15194523181486
 30
0.0
 11
286.0
 21
107.1519452318148
 31
0.0
  0
TEXT
  5
2F8
330
451
100
AcDbEntity
  8
TXT
100
AcDbText
 10
308.8571428571428
 20
64.65194523181486
 30
0.0
 40
5.0
  1
1.90
 72
     4
 11
316.0
 21
67.15194523181486
 31
0.0
100
AcDbText
  0
TEXT
  5
2F9
330
451
100
AcDbEntity
  8
TXT
100
AcDbText
 10
311.2380952380952
 20
96.65194523181487
 30
0.0
 40
5.0
  1
2:1
 72
     4
 11
316.0
 21
99.15194523181487
 31
0.0
100
AcDbText
  0
LINE
  5
2FA
330
451
100
AcDbEntity
  8
DRG2
100
AcDbLine
 10
346.0
 20
59.15194523181486
 30
0.0
 11
346.0
 21
107.1519452318148
 31
0.0
  0
TEXT
  5
2FB
330
451
100
AcDbEntity
  8
TXT
100
AcDbText
 10
368.3809523809524
 20
64.65194523181486
 30
0.0
 40
5.0
  1
2.70
 72
     4
 11
376.0
 21
67.15194523181486
 31
0.0
100
AcDbText
  0
TEXT
  5
2FC
330
451
100
AcDbEntity
  8
TXT
100
AcDbText
 10
365.2857142857143
 20
80.65194523181487
 30
0.0
 40
5.0
  1
3.00:1
 72
     4
 11
376.0
 21
83.15194523181487
 31
0.0
100
AcDbText
  0
TEXT
  5
2FD
330
451
100
AcDbEntity
  8
TXT
100
AcDbText
 10
371.2380952380953
 20
96.65194523181487
 30
0.0
 40
5.0
  1
3:1
 72
     4
 11
376.0
 21
99.15194523181487
 31
0.0
100
AcDbText
  0
LINE
  5
2FE
330
451
100
AcDbEntity
  8
DRG2
100
AcDbLine
 10
406.0
 20
59.15194523181486
 30
0.0
 11
406.0
 21
107.1519452318148
 31
0.0
  0
TEXT
  5
2FF
330
451
100
AcDbEntity
  8
TXT
100
AcDbText
 10
428.5000000000001
 20
64.65194523181486
 30
0.0
 40
5.0
  1
3.69
 72
     4
 11
436.0
 21
67.15194523181486
 31
0.0
100
AcDbText
  0
TEXT
  5
300
330
451
100
AcDbEntity
  8
TXT
100
AcDbText
 10
425.7619047619048
 20
80.65194523181487
 30
0.0
 40
5.0
  1
4.10:1
 72
     4
 11
436.0
 21
83.15194523181487
 31
0.0
100
AcDbText
  0
TEXT
  5
301
330
451
100
AcDbEntity
  8
TXT
100
AcDbText
 10
431.2380952380952
 20
96.65194523181487
 30
0.0
 40
5.0
  1
4:1
 72
     4
 11
436.0
 21
99.15194523181487
 31
0.0
100
AcDbText
  0
LINE
  5
302
330
451
100
AcDbEntity
  8
DRG2
100
AcDbLine
 10
466.0000000000001
 20
59.15194523181486
 30
0.0
 11
466.0000000000001
 21
107.1519452318148
 31
0.0
  0
TEXT
  5
303
330
451
100
AcDbEntity
  8
TXT
100
AcDbText
 10
488.3809523809524
 20
64.65194523181486
 30
0.0
 40
5.0
  1
5.40
 72
     4
 11
496.0
 21
67.15194523181486
 31
0.0
100
AcDbText
  0
TEXT
  5
304
330
451
100
AcDbEntity
  8
TXT
100
AcDbText
 10
485.2857142857143
 20
80.65194523181487
 30
0.0
 40
5.0
  1
6.00:1
 72
     4
 11
496.0
 21
83.15194523181487
 31
0.0
100
AcDbText
  0
TEXT
  5
305
330
451
100
AcDbEntity
  8
TXT
100
AcDbText
 10
491.2380952380953
 20
96.65194523181487
 30
0.0
 40
5.0
  1
6:1
 72
     4
 11
496.0
 21
99.15194523181487
 31
0.0
100
AcDbText
  0
LINE
  5
306
330
451
100
AcDbEntity
  8
DRG2
100
AcDbLine
 10
526.0000000000001
 20
59.15194523181486
 30
0.0
 11
526.0000000000001
 21
107.1519452318148
 31
0.0
  0
LWPOLYLINE
  5
30B
330
451
100
AcDbEntity
  8
BORT
100
AcDbPolyline
 90
        2
 70
     0
 43
0.0
 39
1.8
 10
38.0
 20
113.1519452318148
 10
38.0
 20
155.1519452318148
  0
LWPOLYLINE
  5
30F
330
451
100
AcDbEntity
  8
BORT
100
AcDbPolyline
 90
        2
 70
     0
 43
0.0
 39
1.8
 10
166.0
 20
155.1519452318148
 10
166.0
 20
113.1519452318148
  0
CIRCLE
  5
313
330
451
100
AcDbEntity
  8
DRG
100
AcDbCircle
 10
565.9915327882695
 20
435.2084132388198
 30
0.0
 40
47.62500000000005
  0
LINE
  5
314
330
451
100
AcDbEntity
  8
CRS
100
AcDbLine
 10
507.6097900596845
 20
484.5998219047002
 30
0.0
 11
525.5904581850939
 21
484.5998219047002
 31
0.0
  0
LINE
  5
315
330
451
100
AcDbEntity
  8
CRS
100
AcDbLine
 10
516.6001241223892
 20
493.5901559674048
 30
0.0
 11
516.6001241223892
 21
475.6094878419956
 31
0.0
  0
LINE
  5
316
330
451
100
AcDbEntity
  8
CRS
100
AcDbLine
 10
516.6001241223892
 20
376.8266705102348
 30
0.0
 11
516.6001241223892
 21
394.8073386356441
 31
0.0
  0
LINE
  5
317
330
451
100
AcDbEntity
  8
CRS
100
AcDbLine
 10
507.6097900596845
 20
385.8170045729394
 30
0.0
 11
525.5904581850938
 21
385.8170045729394
 31
0.0
  0
LINE
  5
318
330
451
100
AcDbEntity
  8
CRS
100
AcDbLine
 10
624.3732755168545
 20
385.8170045729395
 30
0.0
 11
606.3926073914452
 21
385.8170045729395
 31
0.0
  0
LINE
  5
319
330
451
100
AcDbEntity
  8
CRS
100
AcDbLine
 10
615.3829414541498
 20
376.8266705102349
 30
0.0
 11
615.3829414541498
 21
394.8073386356441
 31
0.0
  0
ARC
  5
31A
330
451
100
AcDbEntity
  8
DRG2
100
AcDbCircle
 10
615.3829414541498
 20
484.5998219047002
 30
0.0
 40
7.9375
100
AcDbArc
 50
62.53827813775885
 51
18.13961734572847
  0
CIRCLE
  5
31B
330
451
100
AcDbEntity
  8
DRG2
100
AcDbCircle
 10
615.3829414541498
 20
484.5998219047002
 30
0.0
 40
6.81355
  0
ARC
  5
31C
330
451
100
AcDbEntity
  8
DRG2
100
AcDbCircle
 10
516.6001241223892
 20
484.5998219047002
 30
0.0
 40
7.9375
100
AcDbArc
 50
62.53827813775885
 51
18.13961734572847
  0
CIRCLE
  5
31D
330
451
100
AcDbEntity
  8
DRG2
100
AcDbCircle
 10
516.6001241223892
 20
484.5998219047002
 30
0.0
 40
6.81355
  0
ARC
  5
31E
330
451
100
AcDbEntity
  8
DRG2
100
AcDbCircle
 10
516.6001241223892
 20
385.8170045729394
 30
0.0
 40
7.9375
100
AcDbArc
 50
62.53827813775885
 51
18.13961734572847
  0
CIRCLE
  5
31F
330
451
100
AcDbEntity
  8
DRG2
100
AcDbCircle
 10
516.6001241223892
 20
385.8170045729394
 30
0.0
 40
6.81355
  0
ARC
  5
320
330
451
100
AcDbEntity
  8
DRG2
100
AcDbCircle
 10
615.3829414541498
 20
385.8170045729395
 30
0.0
 40
7.9375
100
AcDbArc
 50
62.53827813775885
 51
18.13961734572847
  0
CIRCLE
  5
321
330
451
100
AcDbEntity
  8
DRG2
100
AcDbCircle
 10
615.3829414541498
 20
385.8170045729395
 30
0.0
 40
6.81355
  0
TEXT
  5
323
330
451
100
AcDbEntity
  8
DIM
100
AcDbText
 10
549.6820089787457
 20
239.1522299227364
 30
0.0
 40
5.0
  1
(%%c10.31")
 72
     4
 11
565.9915327882695
 21
241.2950870655936
 31
0.0
100
AcDbText
  0
LINE
  5
324
330
451
100
AcDbEntity
  8
DIM
100
AcDbLine
 10
507.4506508630396
 20
278.0781904337822
 30
0.0
 11
495.5566469529474
 21
278.0781904337822
 31
0.0
  0
TEXT
  5
325
330
451
100
AcDbEntity
  8
DIM
100
AcDbText
 10
738.1061980665873
 20
524.2372659454821
 30
0.0
 40
5.0
  1
(8.03")
 50
90.0
 72
     4
 11
735.9633409237302
 21
536.8563135645297
 31
0.0
100
AcDbText
  0
TEXT
  5
326
330
451
100
AcDbEntity
  8
DIM
100
AcDbText
 10
738.1061980665873
 20
655.845633689989
 30
0.0
 40
5.0
  1
(2.36")
 50
90.0
 72
     4
 11
735.9633409237302
 21
668.4646813090367
 31
0.0
100
AcDbText
  0
LINE
  5
327
330
451
100
AcDbEntity
  8
DIM
100
AcDbLine
 10
456.3599626605616
 20
463.5615443963594
 30
0.0
 11
392.5263587445935
 21
463.5615443963602
 31
0.0
  0
TEXT
  5
328
330
451
100
AcDbEntity
  8
DIM
100
AcDbText
 10
393.5531910748143
 20
455.2479397547405
 30
0.0
 40
5.0
  1
(%%c6.89")
 50
359.9999999999989
 72
     4
 11
408.4341434557668
 21
457.3907968975974
 31
0.0
100
AcDbText
  0
TEXT
  5
329
330
451
100
AcDbEntity
  8
DIM
100
AcDbText
 10
400.2198577414811
 20
467.2322918951221
 30
0.0
 40
5.0
  1
%%c175
 50
359.9999999999987
 72
     4
 11
408.434143455767
 21
469.7322918951219
 31
0.0
100
AcDbText
  0
ARC
  5
32A
330
451
100
AcDbEntity
  8
DIM
100
AcDbCircle
 10
565.9915327882694
 20
435.2084132388197
 30
0.0
 40
87.5
100
AcDbArc
 50
321.127839114421
 51
349.0710774123507
  0
ARC
  5
32B
330
451
100
AcDbEntity
  8
DIM
100
AcDbCircle
 10
565.9915327882694
 20
435.2084132388197
 30
0.0
 40
87.5
100
AcDbArc
 50
141.3609178897614
 51
168.7654065547541
  0
TEXT
  5
32C
330
451
100
AcDbEntity
  8
DIM
100
AcDbText
 10
248.6802709732129
 20
239.1522299227364
 30
0.0
 40
5.0
  1
(4.52")
 72
     4
 11
261.2993185922605
 21
241.2950870655936
 31
0.0
100
AcDbText
  0
TEXT
  5
32D
330
451
100
AcDbEntity
  8
DIM
100
AcDbText
 10
326.4259626600007
 20
239.1522299227365
 30
0.0
 40
5.0
  1
(0.16")
 72
     4
 11
338.5688198028579
 21
241.2950870655937
 31
0.0
100
AcDbText
  0
TEXT
  5
32E
330
451
100
AcDbEntity
  8
DIM
100
AcDbText
 10
265.8327247987615
 20
270.4910380046726
 30
0.0
 40
5.0
  1
(3.07")
 72
     4
 11
278.4517724178091
 21
272.6338951475298
 31
0.0
100
AcDbText
  0
TEXT
  5
32F
330
451
100
AcDbEntity
  8
DIM
100
AcDbText
 10
261.1827247987614
 20
443.0739892636993
 30
0.0
 40
5.0
  1
(2.88")
 72
     4
 11
273.801772417809
 21
445.2168464065565
 31
0.0
100
AcDbText
  0
TEXT
  5
332
330
451
100
AcDbEntity
  8
DIM
100
AcDbText
 10
42.32376151258254
 20
721.4029596169564
 30
0.0
 40
5.0
  1
(0.20")
 72
     4
 11
54.94280913163016
 21
723.5458167598135
 31
0.0
100
AcDbText
  0
TEXT
  5
333
330
451
100
AcDbEntity
  8
DIM
100
AcDbText
 10
156.4004463274602
 20
721.4029596169564
 30
0.0
 40
5.0
  1
(0.32")
 72
     4
 11
169.0194939465078
 21
723.5458167598135
 31
0.0
100
AcDbText
  0
TEXT
  5
335
330
451
100
AcDbEntity
  8
DIM
100
AcDbText
 10
123.5452247987614
 20
751.5655560959625
 30
0.0
 40
5.0
  1
(4.76")
 72
     4
 11
136.1642724178091
 21
753.7084132388196
 31
0.0
100
AcDbText
  0
TEXT
  5
337
330
451
100
AcDbEntity
  8
DIM
100
AcDbText
 10
132.7007979671698
 20
700.8972378114431
 30
0.0
 40
5.0
  1
8x7x40
 72
     4
 11
145.5579408243127
 21
703.3972378114431
 31
0.0
100
AcDbText
  0
TEXT
  5
338
330
451
100
AcDbEntity
  8
DIM
100
AcDbText
 10
109.6055598719317
 20
692.6829520971575
 30
0.0
 40
5.0
  1
(0.31"x0.28"x1.57")
 72
     4
 11
145.5579408243127
 21
694.8258092400147
 31
0.0
100
AcDbText
  0
TEXT
  5
339
330
451
100
AcDbEntity
  8
DIM
100
AcDbText
 10
138.891274157646
 20
683.754380668586
 30
0.0
 40
5.0
  1
KEY
 72
     4
 11
145.5579408243127
 21
686.2543806685859
 31
0.0
100
AcDbText
  0
LINE
  5
33A
330
451
100
AcDbEntity
  8
DIM
100
AcDbLine
 10
108.0674470494741
 20
694.8258092400147
 30
0.0
 11
100.6698629059266
 21
694.8258092400147
 31
0.0
  0
TEXT
  5
33B
330
451
100
AcDbEntity
  8
DIM
100
AcDbText
 10
112.7896234338787
 20
404.7322227626294
 30
0.0
 40
5.0
  1
B.S.P. OR N.P.T.
 50
90.0
 72
     4
 11
110.2896234338787
 21
435.2084132388198
 31
0.0
100
AcDbText
  0
LINE
  5
33C
330
451
100
AcDbEntity
  8
DRG2
100
AcDbLine
 10
707.6805132622769
 20
124.4933572015663
 30
0.0
 11
707.6805132622769
 21
209.4933572015662
 31
0.0
  0
LINE
  5
33D
330
451
100
AcDbEntity
  8
DRG2
100
AcDbLine
 10
407.6805132622773
 20
124.493357201566
 30
0.0
 11
407.6805132622771
 21
209.493357201566
 31
0.0
  0
TEXT
  5
33E
330
451
100
AcDbEntity
  8
TXT
100
AcDbText
 10
469.4662275479916
 20
156.8505000587088
 30
0.0
 40
5.0
  1
(%%c3.935" -0.002") 
 72
     4
 11
507.6805132622773
 21
158.993357201566
 31
0.0
100
AcDbText
  0
TEXT
  5
33F
330
451
100
AcDbEntity
  8
TXT
100
AcDbText
 10
469.4662275479916
 20
130.3505000587088
 30
0.0
 40
5.0
  1
(%%c3.749" -0.004") 
 72
     4
 11
507.6805132622773
 21
132.493357201566
 31
0.0
100
AcDbText
  0
TEXT
  5
340
330
451
100
AcDbEntity
  8
TXT
100
AcDbText
 10
481.7281323098963
 20
166.993357201566
 30
0.0
 40
5.0
  1
%%c99.95 -0.05
 72
     4
 11
507.6805132622773
 21
169.493357201566
 31
0.0
100
AcDbText
  0
TEXT
  5
341
330
451
100
AcDbEntity
  8
TXT
100
AcDbText
 10
486.0138465956106
 20
182.993357201566
 30
0.0
 40
5.0
  1
SPIGOT DIA.
 72
     4
 11
507.6805132622773
 21
185.493357201566
 31
0.0
100
AcDbText
  0
TEXT
  5
342
330
451
100
AcDbEntity
  8
TXT
100
AcDbText
 10
482.2043227860868
 20
140.493357201566
 30
0.0
 40
5.0
  1
%%c95.22 -0.10
 72
     4
 11
507.6805132622773
 21
142.993357201566
 31
0.0
100
AcDbText
  0
LINE
  5
343
330
451
100
AcDbEntity
  8
DRG2
100
AcDbLine
 10
407.6805132622771
 20
193.493357201566
 30
0.0
 11
707.6805132622769
 21
193.493357201566
 31
0.0
  0
LINE
  5
344
330
451
100
AcDbEntity
  8
DRG2
100
AcDbLine
 10
407.6805132622771
 20
177.493357201566
 30
0.0
 11
707.6805132622769
 21
177.493357201566
 31
0.0
  0
LINE
  5
345
330
451
100
AcDbEntity
  8
DRG2
100
AcDbLine
 10
407.6805132622771
 20
124.493357201566
 30
0.0
 11
707.6805132622769
 21
124.493357201566
 31
0.0
  0
LINE
  5
346
330
451
100
AcDbEntity
  8
DRG2
100
AcDbLine
 10
407.6805132622771
 20
150.993357201566
 30
0.0
 11
707.6805132622769
 21
150.993357201566
 31
0.0
  0
TEXT
  5
347
330
451
100
AcDbEntity
  8
TXT
100
AcDbText
 10
424.2281323098963
 20
135.243357201566
 30
0.0
 40
5.0
  1
FA14
 72
     4
 11
432.6805132622773
 21
137.743357201566
 31
0.0
100
AcDbText
  0
TEXT
  5
348
330
451
100
AcDbEntity
  8
TXT
100
AcDbText
 10
418.632894214658
 20
161.743357201566
 30
0.0
 40
5.0
  1
ISO F14
 72
     4
 11
432.6805132622771
 21
164.243357201566
 31
0.0
100
AcDbText
  0
LINE
  5
349
330
451
100
AcDbEntity
  8
DRG2
100
AcDbLine
 10
457.6805132622773
 20
124.493357201566
 30
0.0
 11
457.6805132622771
 21
193.493357201566
 31
0.0
  0
TEXT
  5
34A
330
451
100
AcDbEntity
  8
TXT
100
AcDbText
 10
586.4900370718007
 20
156.8505000587088
 30
0.0
 40
5.0
  1
ON %%c140.0 (%%c5.51") P.C.
 72
     4
 11
632.6805132622769
 21
158.993357201566
 31
0.0
100
AcDbText
  0
TEXT
  5
34B
330
451
100
AcDbEntity
  8
TXT
100
AcDbText
 10
586.0138465956103
 20
130.3505000587088
 30
0.0
 40
5.0
  1
ON %%c139.7 (%%c5.50") P.C.
 72
     4
 11
632.6805132622769
 21
132.493357201566
 31
0.0
100
AcDbText
  0
TEXT
  5
34C
330
451
100
AcDbEntity
  8
TXT
100
AcDbText
 10
573.2757513575149
 20
167.3505000587088
 30
0.0
 40
5.0
  1
4 HOLES M16x20 (0.79") DEEP
 72
     4
 11
632.6805132622769
 21
169.493357201566
 31
0.0
100
AcDbText
  0
TEXT
  5
34D
330
451
100
AcDbEntity
  8
TXT
100
AcDbText
 10
563.5138465956102
 20
140.8505000587088
 30
0.0
 40
5.0
  1
4 HOLES 5/8"UNCx20 (0.79") DEEP
 72
     4
 11
632.6805132622769
 21
142.993357201566
 31
0.0
100
AcDbText
  0
TEXT
  5
34E
330
451
100
AcDbEntity
  8
TXT
100
AcDbText
 10
567.4424180241816
 20
183.3505000587089
 30
0.0
 40
5.0
  1
HOLE DETAILS (45%%d OFF CENTRES)
 72
     4
 11
632.6805132622769
 21
185.493357201566
 31
0.0
100
AcDbText
  0
LINE
  5
34F
330
451
100
AcDbEntity
  8
DRG2
100
AcDbLine
 10
557.6805132622773
 20
124.4933572015661
 30
0.0
 11
557.6805132622773
 21
193.493357201566
 31
0.0
  0
LINE
  5
350
330
451
100
AcDbEntity
  8
DRG2
100
AcDbLine
 10
407.6805132622771
 20
209.493357201566
 30
0.0
 11
707.6805132622769
 21
209.493357201566
 31
0.0
  0
TEXT
  5
351
330
451
100
AcDbEntity
  8
TXT
100
AcDbText
 10
519.9424180241816
 20
198.993357201566
 30
0.0
 40
5.0
  1
BASEPLATE DETAILS
 72
     4
 11
557.6805132622769
 21
201.493357201566
 31
0.0
100
AcDbText
  0
LINE
  5
355
330
451
100
AcDbEntity
  8
DRG
100
AcDbLine
 10
127.9288787102214
 20
843.2509799973267
 30
0.0
 11
127.9288787102214
 21
1018.250979997326
 31
0.0
  0
LINE
  5
356
330
451
100
AcDbEntity
  8
DRG
100
AcDbLine
 10
112.9288787102213
 20
1018.250979997326
 30
0.0
 11
112.9288787102213
 21
843.2509799973267
 31
0.0
  0
LINE
  5
357
330
451
100
AcDbEntity
  8
DRG
100
AcDbLine
 10
112.9288787102213
 20
843.2509799973267
 30
0.0
 11
127.9288787102214
 21
843.2509799973267
 31
0.0
  0
LINE
  5
358
330
451
100
AcDbEntity
  8
DRG
100
AcDbLine
 10
170.6788787102214
 20
880.7509799973267
 30
0.0
 11
182.9288787102214
 21
880.7509799973267
 31
0.0
  0
LINE
  5
359
330
451
100
AcDbEntity
  8
CRS
100
AcDbLine
 10
223.1674407101077
 20
930.7509799973267
 30
0.0
 11
53.11376984772914
 21
930.7509799973267
 31
0.0
  0
LINE
  5
35A
330
451
100
AcDbEntity
  8
DRG
100
AcDbLine
 10
170.6788787102214
 20
880.7509799973267
 30
0.0
 11
170.6788787102236
 21
980.7509799973267
 31
0.0
  0
LINE
  5
35B
330
451
100
AcDbEntity
  8
DRG
100
AcDbLine
 10
112.9288787102213
 20
915.7509799973267
 30
0.0
 11
63.42887871022231
 21
915.7509799973267
 31
0.0
  0
LINE
  5
35C
330
451
100
AcDbEntity
  8
DRG
100
AcDbLine
 10
112.9288787102213
 20
945.7509799973268
 30
0.0
 11
63.42887871022231
 21
945.7509799973268
 31
0.0
  0
LINE
  5
35D
330
451
100
AcDbEntity
  8
DRG
100
AcDbLine
 10
106.9288787102223
 20
949.0509799973267
 30
0.0
 11
66.92887871022231
 21
949.0509799973267
 31
0.0
  0
LINE
  5
35E
330
451
100
AcDbEntity
  8
DRG
100
AcDbLine
 10
61.92887871022231
 20
944.2509799973267
 30
0.0
 11
61.92887871022231
 21
917.2509799973267
 31
0.0
  0
LINE
  5
35F
330
451
100
AcDbEntity
  8
DRG2
100
AcDbLine
 10
63.42887871022231
 20
945.7509799973268
 30
0.0
 11
63.42887871022231
 21
915.7509799973267
 31
0.0
  0
LINE
  5
360
330
451
100
AcDbEntity
  8
DRG
100
AcDbLine
 10
61.92887871022231
 20
917.2509799973267
 30
0.0
 11
63.42887871022231
 21
915.7509799973267
 31
0.0
  0
LINE
  5
361
330
451
100
AcDbEntity
  8
DRG
100
AcDbLine
 10
63.42887871022231
 20
945.7509799973268
 30
0.0
 11
61.92887871022231
 21
944.2509799973267
 31
0.0
  0
LINE
  5
362
330
451
100
AcDbEntity
  8
DRG
100
AcDbLine
 10
66.92887871022231
 20
949.0509799973267
 30
0.0
 11
66.92887871022231
 21
945.7509799973268
 31
0.0
  0
LINE
  5
363
330
451
100
AcDbEntity
  8
HID
100
AcDbLine
 10
117.9288787102213
 20
975.7509799973222
 30
0.0
 11
117.9288787102213
 21
885.750979997327
 31
0.0
  0
LINE
  5
364
330
451
100
AcDbEntity
  8
DRG
100
AcDbLine
 10
133.9288787102214
 20
904.6549365132607
 30
0.0
 11
164.6788787102213
 21
904.6549365132607
 31
0.0
  0
LINE
  5
365
330
451
100
AcDbEntity
  8
HID
100
AcDbLine
 10
117.9288787102213
 20
888.1509799973269
 30
0.0
 11
117.9288787102213
 21
884.1259799973268
 31
0.0
  0
LINE
  5
366
330
451
100
AcDbEntity
  8
HID
100
AcDbLine
 10
116.9288787102213
 20
883.1259799973267
 30
0.0
 11
112.9288787102213
 21
883.1259799973267
 31
0.0
  0
ARC
  5
367
330
451
100
AcDbEntity
  8
HID
100
AcDbCircle
 10
116.9288787102213
 20
884.1259799973268
 30
0.0
 40
1.0
100
AcDbArc
 50
270.0
 51
0.0
  0
ARC
  5
368
330
451
100
AcDbEntity
  8
DRG
100
AcDbCircle
 10
133.9288787102214
 20
898.6549365132605
 30
0.0
 40
6.0
100
AcDbArc
 50
90.0
 51
180.0
  0
ARC
  5
369
330
451
100
AcDbEntity
  8
DRG
100
AcDbCircle
 10
164.6788787102213
 20
898.6549365132606
 30
0.0
 40
6.0
100
AcDbArc
 50
0.0
 51
90.00000000000012
  0
LINE
  5
36A
330
451
100
AcDbEntity
  8
DRG
100
AcDbLine
 10
164.6788787102232
 20
956.8470234813927
 30
0.0
 11
133.9288787102214
 21
956.8470234813926
 31
0.0
  0
LINE
  5
36B
330
451
100
AcDbEntity
  8
DRG
100
AcDbLine
 10
106.9288787102223
 20
949.0509799973267
 30
0.0
 11
106.9288787102223
 21
945.7509799973268
 31
0.0
  0
LINE
  5
36C
330
451
100
AcDbEntity
  8
HID
100
AcDbLine
 10
116.9288787102213
 20
978.3759799973267
 30
0.0
 11
112.9288787102213
 21
978.3759799973267
 31
0.0
  0
LINE
  5
36D
330
451
100
AcDbEntity
  8
HID
100
AcDbLine
 10
117.9288787102213
 20
975.7509799973268
 30
0.0
 11
117.9288787102213
 21
977.3759799973268
 31
0.0
  0
ARC
  5
36E
330
451
100
AcDbEntity
  8
HID
100
AcDbCircle
 10
116.9288787102213
 20
977.3759799973268
 30
0.0
 40
1.0
100
AcDbArc
 50
0.0
 51
90.0
  0
LINE
  5
36F
330
451
100
AcDbEntity
  8
DRG
100
AcDbLine
 10
112.9288787102213
 20
1018.250979997326
 30
0.0
 11
127.9288787102214
 21
1018.250979997326
 31
0.0
  0
LINE
  5
370
330
451
100
AcDbEntity
  8
HID
100
AcDbLine
 10
112.9288787102213
 20
988.3923886673267
 30
0.0
 11
127.9288787102214
 21
988.3923886673267
 31
0.0
  0
LINE
  5
371
330
451
100
AcDbEntity
  8
HID
100
AcDbLine
 10
112.9288787102213
 20
971.8923886673266
 30
0.0
 11
127.9288787102214
 21
971.8923886673266
 31
0.0
  0
LINE
  5
372
330
451
100
AcDbEntity
  8
CRS
100
AcDbLine
 10
109.9103473401823
 20
980.1423886673267
 30
0.0
 11
131.7412625284987
 21
980.1423886673267
 31
0.0
  0
ARC
  5
373
330
451
100
AcDbEntity
  8
DRG
100
AcDbCircle
 10
133.9288787102214
 20
962.8470234813926
 30
0.0
 40
6.0
100
AcDbArc
 50
180.0
 51
270.0
  0
ARC
  5
374
330
451
100
AcDbEntity
  8
DRG
100
AcDbCircle
 10
164.6788787102232
 20
962.8470234813928
 30
0.0
 40
6.0
100
AcDbArc
 50
270.0000000000001
 51
359.9999999999987
  0
LINE
  5
375
330
451
100
AcDbEntity
  8
DRG
100
AcDbLine
 10
182.9288787102213
 20
874.7509799973268
 30
0.0
 11
182.928878710223
 21
986.7509799973268
 31
0.0
  0
LINE
  5
376
330
451
100
AcDbEntity
  8
DRG
100
AcDbLine
 10
170.6788787102214
 20
980.7509799973267
 30
0.0
 11
182.9288787102214
 21
980.7509799973267
 31
0.0
  0
LINE
  5
377
330
451
100
AcDbEntity
  8
CRS
100
AcDbLine
 10
109.4976886144495
 20
881.3595713273269
 30
0.0
 11
130.732221758396
 21
881.3595713273269
 31
0.0
  0
LINE
  5
378
330
451
100
AcDbEntity
  8
HID
100
AcDbLine
 10
112.9288787102213
 20
873.1095713273269
 30
0.0
 11
127.9288787102214
 21
873.1095713273269
 31
0.0
  0
LINE
  5
379
330
451
100
AcDbEntity
  8
HID
100
AcDbLine
 10
112.9288787102213
 20
889.6095713273268
 30
0.0
 11
127.9288787102214
 21
889.6095713273268
 31
0.0
  0
LINE
  5
37A
330
451
100
AcDbEntity
  8
DIM
100
AcDbLine
 10
31.92887871022231
 20
843.2509799973267
 30
0.0
 11
31.92887871022231
 21
1018.250979997326
 31
0.0
  0
SOLID
  5
37B
330
451
100
AcDbEntity
  8
DIM
100
AcDbTrace
 10
30.9288787102223
 20
849.2509799973268
 30
0.0
 11
32.9288787102223
 21
849.2509799973268
 31
0.0
 12
31.92887871022231
 22
843.2509799973267
 32
0.0
 13
31.92887871022231
 23
843.2509799973267
 33
0.0
  0
TEXT
  5
37C
330
451
100
AcDbEntity
  8
DIM
100
AcDbText
 10
29.4288787102223
 20
893.0128847592314
 30
0.0
 40
5.0
  1
FOR INPUT OPTIONS
 50
90.0
 72
     4
 11
26.92887871022231
 21
930.7509799973267
 31
0.0
100
AcDbText
  0
SOLID
  5
37D
330
451
100
AcDbEntity
  8
DIM
100
AcDbTrace
 10
30.9288787102223
 20
1012.250979997326
 30
0.0
 11
32.9288787102223
 21
1012.250979997326
 31
0.0
 12
31.92887871022231
 22
1018.250979997326
 32
0.0
 13
31.92887871022231
 23
1018.250979997326
 33
0.0
  0
TEXT
  5
37E
330
451
100
AcDbEntity
  8
DIM
100
AcDbText
 10
87.10878329832175
 20
981.5509799973268
 30
0.0
 40
5.0
  1
5
 72
     1
 11
88.77544996498841
 21
984.0509799973267
 31
0.0
100
AcDbText
 73
     2
  0
LINE
  5
37F
330
451
100
AcDbEntity
  8
DIM
100
AcDbLine
 10
61.92887871022231
 20
979.0509799973268
 30
0.0
 11
48.62016202693848
 21
979.0509799973268
 31
0.0
  0
LINE
  5
380
330
451
100
AcDbEntity
  8
DIM
100
AcDbLine
 10
72.9288787102223
 20
979.0509799973268
 30
0.0
 11
99.66781066546037
 21
979.0509799973268
 31
0.0
  0
SOLID
  5
381
330
451
100
AcDbEntity
  8
DIM
100
AcDbTrace
 10
72.9288787102223
 20
980.0509799973267
 30
0.0
 11
72.9288787102223
 21
978.0509799973268
 31
0.0
 12
66.92887871022231
 22
979.0509799973268
 32
0.0
 13
66.92887871022231
 23
979.0509799973268
 33
0.0
  0
LINE
  5
382
330
451
100
AcDbEntity
  8
DIM
100
AcDbLine
 10
66.92887871022231
 20
953.3482733050391
 30
0.0
 11
66.92887871022231
 21
981.0509799973267
 31
0.0
  0
SOLID
  5
383
330
451
100
AcDbEntity
  8
DIM
100
AcDbTrace
 10
55.92887871022231
 20
980.0509799973267
 30
0.0
 11
55.92887871022231
 21
978.0509799973268
 31
0.0
 12
61.92887871022231
 22
979.0509799973268
 32
0.0
 13
61.92887871022231
 23
979.0509799973268
 33
0.0
  0
LINE
  5
384
330
451
100
AcDbEntity
  8
DIM
100
AcDbLine
 10
109.7926672654757
 20
1018.250979997326
 30
0.0
 11
29.9288787102223
 21
1018.250979997326
 31
0.0
  0
ARC
  5
386
330
451
100
AcDbEntity
  8
DRG
100
AcDbCircle
 10
130.9288787102214
 20
937.7509799973267
 30
0.0
 40
3.0
100
AcDbArc
 50
180.0
 51
270.0
  0
ARC
  5
387
330
451
100
AcDbEntity
  8
DRG
100
AcDbCircle
 10
130.9288787102214
 20
923.7509799973267
 30
0.0
 40
3.0
100
AcDbArc
 50
90.0
 51
179.9999999999999
  0
LINE
  5
388
330
451
100
AcDbEntity
  8
DRG
100
AcDbLine
 10
167.6788787102227
 20
934.7509799973268
 30
0.0
 11
130.9288787102214
 21
934.7509799973268
 31
0.0
  0
LINE
  5
389
330
451
100
AcDbEntity
  8
DRG
100
AcDbLine
 10
167.6788787102223
 20
926.7509799973268
 30
0.0
 11
130.9288787102214
 21
926.7509799973268
 31
0.0
  0
ARC
  5
38A
330
451
100
AcDbEntity
  8
DRG
100
AcDbCircle
 10
167.6788787102227
 20
937.7509799973267
 30
0.0
 40
3.0
100
AcDbArc
 50
270.0
 51
359.9999999999987
  0
ARC
  5
38B
330
451
100
AcDbEntity
  8
DRG
100
AcDbCircle
 10
167.6788787102223
 20
923.7509799973267
 30
0.0
 40
3.0
100
AcDbArc
 50
359.9999999999987
 51
90.0
  0
LINE
  5
38C
330
451
100
AcDbEntity
  8
DRG
100
AcDbLine
 10
170.6788787102214
 20
880.7509799973267
 30
0.0
 11
129.4288787102213
 21
856.9352813932548
 31
0.0
  0
ARC
  5
38D
330
451
100
AcDbEntity
  8
DRG
100
AcDbCircle
 10
130.9288787102214
 20
854.3372051819014
 30
0.0
 40
3.0
100
AcDbArc
 50
119.9999999999999
 51
180.0
  0
LINE
  5
38E
330
451
100
AcDbEntity
  8
DRG
100
AcDbLine
 10
170.6788787102214
 20
980.7509799973267
 30
0.0
 11
129.4288787102213
 21
1004.566678601398
 31
0.0
  0
ARC
  5
38F
330
451
100
AcDbEntity
  8
DRG
100
AcDbCircle
 10
130.9288787102214
 20
1007.164754812752
 30
0.0
 40
3.0
100
AcDbArc
 50
180.0
 51
240.0
  0
TEXT
  5
390
330
451
100
AcDbEntity
  8
DIM
100
AcDbText
 10
39.42887871022231
 20
910.7509799973268
 30
0.0
 40
5.0
  1
SEE TABLE
 50
90.0
 72
     4
 11
36.92887871022231
 21
930.7509799973267
 31
0.0
100
AcDbText
  0
LINE
  5
391
330
451
100
AcDbEntity
  8
DIM
100
AcDbLine
 10
109.5904444441823
 20
843.2509799973267
 30
0.0
 11
29.9288787102223
 21
843.2509799973267
 31
0.0
  0
TEXT
  5
392
330
451
100
AcDbEntity
  8
DIM
100
AcDbText
 10
76.15640234594079
 20
971.9081228544697
 30
0.0
 40
5.0
  1
(0.20")
 72
     4
 11
88.77544996498841
 21
974.0509799973267
 31
0.0
100
AcDbText
  0
TEXT
  5
393
330
451
100
AcDbEntity
  8
DIM
100
AcDbText
 10
126.5309884826079
 20
806.1081228544697
 30
0.0
 40
5.0
  1
(0.20")
 72
     4
 11
139.1500361016555
 21
808.2509799973268
 31
0.0
100
AcDbText
  0
LINE
  5
394
330
451
100
AcDbEntity
  8
DIM
100
AcDbLine
 10
123.9288787102209
 20
813.2509799973268
 30
0.0
 11
135.9833694349886
 21
813.2509799973268
 31
0.0
  0
LINE
  5
395
330
451
100
AcDbEntity
  8
DIM
100
AcDbLine
 10
117.9288787102209
 20
878.2527834084278
 30
0.0
 11
117.9288787102209
 21
811.2509799973267
 31
0.0
  0
LINE
  5
396
330
451
100
AcDbEntity
  8
DIM
100
AcDbLine
 10
112.9288787102213
 20
841.2509799973268
 30
0.0
 11
112.9288787102213
 21
811.2509799973267
 31
0.0
  0
SOLID
  5
397
330
451
100
AcDbEntity
  8
DIM
100
AcDbTrace
 10
106.9288787102214
 20
814.2509799973268
 30
0.0
 11
106.9288787102214
 21
812.2509799973268
 31
0.0
 12
112.9288787102213
 22
813.2509799973268
 32
0.0
 13
112.9288787102213
 23
813.2509799973268
 33
0.0
  0
LINE
  5
398
330
451
100
AcDbEntity
  8
DIM
100
AcDbLine
 10
106.9288787102214
 20
813.2509799973268
 30
0.0
 11
100.9288787102214
 21
813.2509799973268
 31
0.0
  0
SOLID
  5
399
330
451
100
AcDbEntity
  8
DIM
100
AcDbTrace
 10
123.9288787102209
 20
814.2509799973268
 30
0.0
 11
123.9288787102209
 21
812.2509799973268
 31
0.0
 12
117.9288787102209
 22
813.2509799973268
 32
0.0
 13
117.9288787102209
 23
813.2509799973268
 33
0.0
  0
LINE
  5
39A
330
451
100
AcDbEntity
  8
DIM
100
AcDbLine
 10
135.9833694349886
 20
813.2509799973268
 30
0.0
 11
152.284619476426
 21
813.2509799973268
 31
0.0
  0
TEXT
  5
39B
330
451
100
AcDbEntity
  8
DIM
100
AcDbText
 10
137.4833694349889
 20
815.7509799973267
 30
0.0
 40
5.0
  1
5
 72
     1
 11
139.1500361016555
 21
818.2509799973267
 31
0.0
100
AcDbText
 73
     2
  0
LINE
  5
39C
330
451
100
AcDbEntity
  8
DIM
100
AcDbLine
 10
182.9288787102232
 20
1048.250979997326
 30
0.0
 11
112.9288787102213
 21
1048.250979997326
 31
0.0
  0
SOLID
  5
39D
330
451
100
AcDbEntity
  8
DIM
100
AcDbTrace
 10
118.9288787102213
 20
1049.250979997326
 30
0.0
 11
118.9288787102213
 21
1047.250979997326
 31
0.0
 12
112.9288787102213
 22
1048.250979997326
 32
0.0
 13
112.9288787102213
 23
1048.250979997326
 33
0.0
  0
LINE
  5
39E
330
451
100
AcDbEntity
  8
DIM
100
AcDbLine
 10
182.9288787102232
 20
990.572331079808
 30
0.0
 11
182.9288787102232
 21
1050.19115987947
 31
0.0
  0
TEXT
  5
39F
330
451
100
AcDbEntity
  8
DIM
100
AcDbText
 10
135.3098310911746
 20
1039.677888044207
 30
0.0
 40
5.0
  1
(2.76")
 72
     4
 11
147.9288787102223
 21
1041.820745187064
 31
0.0
100
AcDbText
  0
TEXT
  5
3A0
330
451
100
AcDbEntity
  8
DIM
100
AcDbText
 10
143.8812596626032
 20
1050.750979997326
 30
0.0
 40
5.0
  1
70
 72
     4
 11
147.9288787102223
 21
1053.250979997326
 31
0.0
100
AcDbText
  0
SOLID
  5
3A1
330
451
100
AcDbEntity
  8
DIM
100
AcDbTrace
 10
176.9288787102232
 20
1049.250979997327
 30
0.0
 11
176.9288787102232
 21
1047.250979997327
 31
0.0
 12
182.9288787102232
 22
1048.250979997327
 32
0.0
 13
182.9288787102232
 23
1048.250979997327
 33
0.0
  0
TEXT
  5
3B1
330
451
100
AcDbEntity
  8
TXT
100
AcDbText
 10
306.547619047619
 20
960.2886774495093
 30
0.0
 40
5.0
  1
x 10 (0.39")
 72
     4
 11
330.0
 21
962.4315345923664
 31
0.0
100
AcDbText
  0
LINE
  5
3B2
330
451
100
AcDbEntity
  8
DRG2
100
AcDbLine
 10
239.9999999999999
 20
1023.431534592366
 30
0.0
 11
760.0
 21
1023.431534592367
 31
0.0
  0
LINE
  5
3B3
330
451
100
AcDbEntity
  8
DRG2
100
AcDbLine
 10
239.9999999999999
 20
1007.431534592366
 30
0.0
 11
760.0
 21
1007.431534592367
 31
0.0
  0
LINE
  5
3B4
330
451
100
AcDbEntity
  8
DRG2
100
AcDbLine
 10
239.9999999999999
 20
980.9315345923664
 30
0.0
 11
760.0
 21
980.9315345923669
 31
0.0
  0
TEXT
  5
3B5
330
451
100
AcDbEntity
  8
TXT
100
AcDbText
 10
418.8095238095235
 20
1012.931534592366
 30
0.0
 40
5.0
  1
INPUT FLANGE DETAILS
 72
     4
 11
462.4999999999998
 21
1015.431534592366
 31
0.0
100
AcDbText
  0
LINE
  5
3B6
330
451
100
AcDbEntity
  8
DRG2
100
AcDbLine
 10
239.9999999999999
 20
927.9315345923665
 30
0.0
 11
760.0
 21
927.9315345923667
 31
0.0
  0
LINE
  5
3B7
330
451
100
AcDbEntity
  8
DRG2
100
AcDbLine
 10
239.9999999999999
 20
954.4315345923664
 30
0.0
 11
760.0
 21
954.4315345923669
 31
0.0
  0
LINE
  5
3B8
330
451
100
AcDbEntity
  8
DRG2
100
AcDbLine
 10
290.0
 20
874.9315345923664
 30
0.0
 11
290.0
 21
1007.431534592366
 31
0.0
  0
LINE
  5
3B9
330
451
100
AcDbEntity
  8
DRG2
100
AcDbLine
 10
239.9999999999999
 20
874.9315345923664
 30
0.0
 11
239.9999999999999
 21
1023.431534592366
 31
0.0
  0
TEXT
  5
3BA
330
451
100
AcDbEntity
  8
TXT
100
AcDbText
 10
251.0714285714285
 20
965.1815345923663
 30
0.0
 40
5.0
  1
ISO F10
 72
     4
 11
265.0
 21
967.6815345923664
 31
0.0
100
AcDbText
  0
TEXT
  5
3BB
330
451
100
AcDbEntity
  8
TXT
100
AcDbText
 10
256.6666666666666
 20
938.6815345923665
 30
0.0
 40
5.0
  1
FA10
 72
     4
 11
265.0
 21
941.1815345923665
 31
0.0
100
AcDbText
  0
TEXT
  5
3BC
330
451
100
AcDbEntity
  8
TXT
100
AcDbText
 10
303.9285714285714
 20
970.7886774495094
 30
0.0
 40
5.0
  1
%%c125 (%%c4.92")
 72
     4
 11
330.0
 21
972.9315345923664
 31
0.0
100
AcDbText
  0
TEXT
  5
3BD
330
451
100
AcDbEntity
  8
TXT
100
AcDbText
 10
305.0
 20
986.4315345923664
 30
0.0
 40
5.0
  1
& THICKNESS
 72
     4
 11
330.0
 21
988.9315345923664
 31
0.0
100
AcDbText
  0
LINE
  5
3BE
330
451
100
AcDbEntity
  8
DRG2
100
AcDbLine
 10
459.9999999999997
 20
874.9315345923667
 30
0.0
 11
459.9999999999997
 21
1007.431534592367
 31
0.0
  0
LINE
  5
3BF
330
451
100
AcDbEntity
  8
DRG2
100
AcDbLine
 10
370.0
 20
874.9315345923667
 30
0.0
 11
370.0
 21
1007.431534592366
 31
0.0
  0
TEXT
  5
3C0
330
451
100
AcDbEntity
  8
TXT
100
AcDbText
 10
389.047619047619
 20
970.4315345923664
 30
0.0
 40
5.0
  1
%%c20.00 -0.05
 72
     4
 11
415.0
 21
972.9315345923664
 31
0.0
100
AcDbText
  0
TEXT
  5
3C1
330
451
100
AcDbEntity
  8
TXT
100
AcDbText
 10
408.6904761904762
 20
986.4315345923664
 30
0.0
 40
5.0
  1
DIA.
 72
     4
 11
415.0
 21
988.9315345923664
 31
0.0
100
AcDbText
  0
TEXT
  5
3C2
330
451
100
AcDbEntity
  8
TXT
100
AcDbText
 10
702.1428571428571
 20
970.4315345923664
 30
0.0
 40
5.0
  1
6x6x40
 72
     4
 11
715.0
 21
972.9315345923664
 31
0.0
100
AcDbText
  0
TEXT
  5
3C3
330
451
100
AcDbEntity
  8
TXT
100
AcDbText
 10
678.5714285714285
 20
960.2886774495093
 30
0.0
 40
5.0
  1
(0.24"x0.24"x1.57")
 72
     4
 11
715.0
 21
962.4315345923664
 31
0.0
100
AcDbText
  0
LINE
  5
3C4
330
451
100
AcDbEntity
  8
DRG2
100
AcDbLine
 10
550.0000000000002
 20
874.9315345923667
 30
0.0
 11
549.9999999999998
 21
1007.431534592366
 31
0.0
  0
TEXT
  5
3C5
330
451
100
AcDbEntity
  8
TXT
100
AcDbText
 10
573.6904761904761
 20
986.7886774495094
 30
0.0
 40
5.0
  1
(45%%d OFF CENTRES)
 72
     4
 11
610.0
 21
988.9315345923664
 31
0.0
100
AcDbText
  0
TEXT
  5
3C6
330
451
100
AcDbEntity
  8
TXT
100
AcDbText
 10
564.4047619047618
 20
970.7886774495094
 30
0.0
 40
5.0
  1
4 HOLES %%c10.5 (%%c0.41")
 72
     4
 11
610.0
 21
972.9315345923664
 31
0.0
100
AcDbText
  0
TEXT
  5
3C7
330
451
100
AcDbEntity
  8
TXT
100
AcDbText
 10
563.3333333333333
 20
960.2886774495093
 30
0.0
 40
5.0
  1
ON %%c102.0 (%%c4.02") P.C.
 72
     4
 11
610.0
 21
962.4315345923664
 31
0.0
100
AcDbText
  0
LINE
  5
3C8
330
451
100
AcDbEntity
  8
DRG2
100
AcDbLine
 10
670.0
 20
874.9315345923667
 30
0.0
 11
670.0
 21
1007.431534592366
 31
0.0
  0
TEXT
  5
3C9
330
451
100
AcDbEntity
  8
TXT
100
AcDbText
 10
700.8333333333333
 20
986.4315345923664
 30
0.0
 40
5.0
  1
DETAILS
 72
     4
 11
715.0
 21
988.9315345923664
 31
0.0
100
AcDbText
  0
LINE
  5
3CA
330
451
100
AcDbEntity
  8
DRG2
100
AcDbLine
 10
760.0
 20
874.9315345923667
 30
0.0
 11
760.0
 21
1023.431534592367
 31
0.0
  0
TEXT
  5
3CB
330
451
100
AcDbEntity
  8
TXT
100
AcDbText
 10
498.6904761904759
 20
986.4315345923664
 30
0.0
 40
5.0
  1
DIA.
 72
     4
 11
504.9999999999998
 21
988.9315345923664
 31
0.0
100
AcDbText
  0
TEXT
  5
3CC
330
451
100
AcDbEntity
  8
TXT
100
AcDbText
 10
708.3333333333333
 20
996.9315345923664
 30
0.0
 40
5.0
  1
KEY
 72
     4
 11
715.0
 21
999.4315345923665
 31
0.0
100
AcDbText
  0
TEXT
  5
3CD
330
451
100
AcDbEntity
  8
TXT
100
AcDbText
 10
584.047619047619
 20
996.9315345923664
 30
0.0
 40
5.0
  1
HOLE DETAILS
 72
     4
 11
610.0
 21
999.4315345923665
 31
0.0
100
AcDbText
  0
TEXT
  5
3CE
330
451
100
AcDbEntity
  8
TXT
100
AcDbText
 10
491.4285714285711
 20
996.9315345923664
 30
0.0
 40
5.0
  1
RECESS
 72
     4
 11
504.9999999999998
 21
999.4315345923665
 31
0.0
100
AcDbText
  0
TEXT
  5
3CF
330
451
100
AcDbEntity
  8
TXT
100
AcDbText
 10
403.5714285714285
 20
996.9315345923664
 30
0.0
 40
5.0
  1
SHAFT
 72
     4
 11
415.0
 21
999.4315345923665
 31
0.0
100
AcDbText
  0
TEXT
  5
3D0
330
451
100
AcDbEntity
  8
TXT
100
AcDbText
 10
302.0238095238095
 20
997.2886774495092
 30
0.0
 40
5.0
  1
FLANGE O/DIA.
 72
     4
 11
330.0
 21
999.4315345923665
 31
0.0
100
AcDbText
  0
TEXT
  5
3D1
330
451
100
AcDbEntity
  8
TXT
100
AcDbText
 10
303.9285714285714
 20
944.2886774495093
 30
0.0
 40
5.0
  1
%%c125 (%%c4.92")
 72
     4
 11
330.0
 21
946.4315345923663
 31
0.0
100
AcDbText
  0
TEXT
  5
3D2
330
451
100
AcDbEntity
  8
TXT
100
AcDbText
 10
306.547619047619
 20
933.7886774495093
 30
0.0
 40
5.0
  1
x 10 (0.39")
 72
     4
 11
330.0
 21
935.9315345923665
 31
0.0
100
AcDbText
  0
TEXT
  5
3D3
330
451
100
AcDbEntity
  8
TXT
100
AcDbText
 10
389.047619047619
 20
943.9315345923665
 30
0.0
 40
5.0
  1
%%c20.00 -0.05
 72
     4
 11
415.0
 21
946.4315345923663
 31
0.0
100
AcDbText
  0
TEXT
  5
3D4
330
451
100
AcDbEntity
  8
TXT
100
AcDbText
 10
466.785714285714
 20
960.2886774495093
 30
0.0
 40
5.0
  1
(%%c2.758" +0.002") 
 72
     4
 11
504.9999999999998
 21
962.4315345923664
 31
0.0
100
AcDbText
  0
TEXT
  5
3D5
330
451
100
AcDbEntity
  8
TXT
100
AcDbText
 10
479.0476190476188
 20
970.4315345923664
 30
0.0
 40
5.0
  1
%%c70.05 +0.05
 72
     4
 11
504.9999999999998
 21
972.9315345923664
 31
0.0
100
AcDbText
  0
TEXT
  5
3D6
330
451
100
AcDbEntity
  8
TXT
100
AcDbText
 10
467.2619047619045
 20
933.7886774495093
 30
0.0
 40
5.0
  1
(%%c2.313" +0.002") 
 72
     4
 11
504.9999999999998
 21
935.9315345923665
 31
0.0
100
AcDbText
  0
TEXT
  5
3D7
330
451
100
AcDbEntity
  8
TXT
100
AcDbText
 10
479.0476190476188
 20
943.9315345923665
 30
0.0
 40
5.0
  1
%%c58.75 +0.05
 72
     4
 11
504.9999999999998
 21
946.4315345923663
 31
0.0
100
AcDbText
  0
TEXT
  5
3D8
330
451
100
AcDbEntity
  8
TXT
100
AcDbText
 10
564.4047619047618
 20
944.2886774495093
 30
0.0
 40
5.0
  1
4 HOLES %%c10.5 (%%c0.41")
 72
     4
 11
610.0
 21
946.4315345923663
 31
0.0
100
AcDbText
  0
TEXT
  5
3D9
330
451
100
AcDbEntity
  8
TXT
100
AcDbText
 10
563.3333333333333
 20
933.7886774495093
 30
0.0
 40
5.0
  1
ON %%c102.0 (%%c4.02") P.C.
 72
     4
 11
610.0
 21
935.9315345923665
 31
0.0
100
AcDbText
  0
TEXT
  5
3DA
330
451
100
AcDbEntity
  8
TXT
100
AcDbText
 10
678.5714285714285
 20
933.7886774495093
 30
0.0
 40
5.0
  1
(0.24"x0.24"x1.57")
 72
     4
 11
715.0
 21
935.9315345923665
 31
0.0
100
AcDbText
  0
TEXT
  5
3DB
330
451
100
AcDbEntity
  8
TXT
100
AcDbText
 10
702.1428571428571
 20
943.9315345923665
 30
0.0
 40
5.0
  1
6x6x40
 72
     4
 11
715.0
 21
946.4315345923663
 31
0.0
100
AcDbText
  0
TEXT
  5
3DC
330
451
100
AcDbEntity
  8
TXT
100
AcDbText
 10
379.8809523809523
 20
960.2886774495093
 30
0.0
 40
5.0
  1
(%%c0.787" -0.002")
 72
     4
 11
415.0
 21
962.4315345923664
 31
0.0
100
AcDbText
  0
TEXT
  5
3DD
330
451
100
AcDbEntity
  8
TXT
100
AcDbText
 10
379.8809523809523
 20
933.7886774495093
 30
0.0
 40
5.0
  1
(%%c0.787" -0.002")
 72
     4
 11
415.0
 21
935.9315345923665
 31
0.0
100
AcDbText
  0
TEXT
  5
3DE
330
451
100
AcDbEntity
  8
TXT
100
AcDbText
 10
479.0476190476188
 20
890.9315345923664
 30
0.0
 40
5.0
  1
%%c95.27 +0.05
 72
     4
 11
504.9999999999998
 21
893.4315345923664
 31
0.0
100
AcDbText
  0
TEXT
  5
3DF
330
451
100
AcDbEntity
  8
TXT
100
AcDbText
 10
477.1428571428568
 20
917.4315345923664
 30
0.0
 40
5.0
  1
%%c100.05 +0.05
 72
     4
 11
504.9999999999998
 21
919.9315345923665
 31
0.0
100
AcDbText
  0
LINE
  5
3E0
330
451
100
AcDbEntity
  8
DRG2
100
AcDbLine
 10
239.9999999999999
 20
874.9315345923664
 30
0.0
 11
760.0
 21
874.9315345923667
 31
0.0
  0
LINE
  5
3E1
330
451
100
AcDbEntity
  8
DRG2
100
AcDbLine
 10
239.9999999999999
 20
927.9315345923665
 30
0.0
 11
760.0
 21
927.9315345923667
 31
0.0
  0
LINE
  5
3E2
330
451
100
AcDbEntity
  8
DRG2
100
AcDbLine
 10
239.9999999999999
 20
901.4315345923664
 30
0.0
 11
760.0
 21
901.4315345923666
 31
0.0
  0
TEXT
  5
3E3
330
451
100
AcDbEntity
  8
TXT
100
AcDbText
 10
467.2619047619045
 20
880.7886774495093
 30
0.0
 40
5.0
  1
(%%c3.751" +0.002") 
 72
     4
 11
504.9999999999998
 21
882.9315345923664
 31
0.0
100
AcDbText
  0
TEXT
  5
3E4
330
451
100
AcDbEntity
  8
TXT
100
AcDbText
 10
466.785714285714
 20
907.2886774495094
 30
0.0
 40
5.0
  1
(%%c3.939" +0.002") 
 72
     4
 11
504.9999999999998
 21
909.4315345923664
 31
0.0
100
AcDbText
  0
TEXT
  5
3E5
330
451
100
AcDbEntity
  8
TXT
100
AcDbText
 10
256.547619047619
 20
885.6815345923664
 30
0.0
 40
5.0
  1
FA14
 72
     4
 11
265.0
 21
888.1815345923664
 31
0.0
100
AcDbText
  0
TEXT
  5
3E6
330
451
100
AcDbEntity
  8
TXT
100
AcDbText
 10
250.9523809523809
 20
912.1815345923664
 30
0.0
 40
5.0
  1
ISO F14
 72
     4
 11
265.0
 21
914.6815345923664
 31
0.0
100
AcDbText
  0
TEXT
  5
3E7
330
451
100
AcDbEntity
  8
TXT
100
AcDbText
 10
381.3095238095237
 20
907.2886774495094
 30
0.0
 40
5.0
  1
(%%c1.181" -0.002")
 72
     4
 11
415.0
 21
909.4315345923664
 31
0.0
100
AcDbText
  0
TEXT
  5
3E8
330
451
100
AcDbEntity
  8
TXT
100
AcDbText
 10
381.3095238095237
 20
880.7886774495093
 30
0.0
 40
5.0
  1
(%%c1.181" -0.002")
 72
     4
 11
415.0
 21
882.9315345923664
 31
0.0
100
AcDbText
  0
TEXT
  5
3E9
330
451
100
AcDbEntity
  8
TXT
100
AcDbText
 10
389.047619047619
 20
917.4315345923664
 30
0.0
 40
5.0
  1
%%c30.00 -0.05
 72
     4
 11
415.0
 21
919.9315345923665
 31
0.0
100
AcDbText
  0
TEXT
  5
3EA
330
451
100
AcDbEntity
  8
TXT
100
AcDbText
 10
389.047619047619
 20
890.9315345923664
 30
0.0
 40
5.0
  1
%%c30.00 -0.05
 72
     4
 11
415.0
 21
893.4315345923664
 31
0.0
100
AcDbText
  0
TEXT
  5
3EB
330
451
100
AcDbEntity
  8
TXT
100
AcDbText
 10
303.9285714285714
 20
891.2886774495094
 30
0.0
 40
5.0
  1
%%c175 (%%c6.89")
 72
     4
 11
330.0
 21
893.4315345923664
 31
0.0
100
AcDbText
  0
TEXT
  5
3EC
330
451
100
AcDbEntity
  8
TXT
100
AcDbText
 10
306.547619047619
 20
880.7886774495093
 30
0.0
 40
5.0
  1
x 15 (0.59")
 72
     4
 11
330.0
 21
882.9315345923664
 31
0.0
100
AcDbText
  0
TEXT
  5
3ED
330
451
100
AcDbEntity
  8
TXT
100
AcDbText
 10
306.547619047619
 20
907.2886774495094
 30
0.0
 40
5.0
  1
x 15 (0.59")
 72
     4
 11
330.0
 21
909.4315345923664
 31
0.0
100
AcDbText
  0
TEXT
  5
3EE
330
451
100
AcDbEntity
  8
TXT
100
AcDbText
 10
303.9285714285714
 20
917.7886774495092
 30
0.0
 40
5.0
  1
%%c175 (%%c6.89")
 72
     4
 11
330.0
 21
919.9315345923665
 31
0.0
100
AcDbText
  0
TEXT
  5
3EF
330
451
100
AcDbEntity
  8
TXT
100
AcDbText
 10
679.047619047619
 20
880.7886774495093
 30
0.0
 40
5.0
  1
(0.31"x0.28"x1.57")
 72
     4
 11
715.0
 21
882.9315345923664
 31
0.0
100
AcDbText
  0
TEXT
  5
3F0
330
451
100
AcDbEntity
  8
TXT
100
AcDbText
 10
679.047619047619
 20
907.2886774495094
 30
0.0
 40
5.0
  1
(0.31"x0.28"x1.57")
 72
     4
 11
715.0
 21
909.4315345923664
 31
0.0
100
AcDbText
  0
TEXT
  5
3F1
330
451
100
AcDbEntity
  8
TXT
100
AcDbText
 10
702.1428571428571
 20
890.9315345923664
 30
0.0
 40
5.0
  1
8x7x40
 72
     4
 11
715.0
 21
893.4315345923664
 31
0.0
100
AcDbText
  0
TEXT
  5
3F2
330
451
100
AcDbEntity
  8
TXT
100
AcDbText
 10
702.1428571428571
 20
917.4315345923664
 30
0.0
 40
5.0
  1
8x7x40
 72
     4
 11
715.0
 21
919.9315345923665
 31
0.0
100
AcDbText
  0
TEXT
  5
3F3
330
451
100
AcDbEntity
  8
TXT
100
AcDbText
 10
563.8095238095238
 20
880.7886774495093
 30
0.0
 40
5.0
  1
ON %%c140.0 (%%c5.51") P.C.
 72
     4
 11
610.0
 21
882.9315345923664
 31
0.0
100
AcDbText
  0
TEXT
  5
3F4
330
451
100
AcDbEntity
  8
TXT
100
AcDbText
 10
563.8095238095238
 20
907.2886774495094
 30
0.0
 40
5.0
  1
ON %%c140.0 (%%c5.51") P.C.
 72
     4
 11
610.0
 21
909.4315345923664
 31
0.0
100
AcDbText
  0
TEXT
  5
3F5
330
451
100
AcDbEntity
  8
TXT
100
AcDbText
 10
563.9285714285714
 20
891.2886774495094
 30
0.0
 40
5.0
  1
4 HOLES %%c16.5 (%%c0.65")
 72
     4
 11
610.0
 21
893.4315345923664
 31
0.0
100
AcDbText
  0
TEXT
  5
3F6
330
451
100
AcDbEntity
  8
TXT
100
AcDbText
 10
563.9285714285714
 20
917.7886774495092
 30
0.0
 40
5.0
  1
4 HOLES %%c16.5 (%%c0.65")
 72
     4
 11
610.0
 21
919.9315345923665
 31
0.0
100
AcDbText
  0
LINE
  5
3F7
330
451
100
AcDbEntity
  8
DIM
100
AcDbLine
 10
112.9288787102213
 20
1023.250979997326
 30
0.0
 11
112.9288787102213
 21
1050.250979997326
 31
0.0
  0
LINE
  5
3F8
330
451
100
AcDbEntity
  8
DIM
100
AcDbLine
 10
61.92887871022231
 20
949.2509799973268
 30
0.0
 11
61.92887871022231
 21
1014.486464462483
 31
0.0
  0
LINE
  5
3F9
330
451
100
AcDbEntity
  8
DIM
100
AcDbLine
 10
106.9288787102214
 20
1048.250979997326
 30
0.0
 11
67.9288787102223
 21
1048.250979997326
 31
0.0
  0
SOLID
  5
3FA
330
451
100
AcDbEntity
  8
DIM
100
AcDbTrace
 10
106.9288787102214
 20
1049.250979997326
 30
0.0
 11
106.9288787102214
 21
1047.250979997326
 31
0.0
 12
112.9288787102213
 22
1048.250979997326
 32
0.0
 13
112.9288787102213
 23
1048.250979997326
 33
0.0
  0
SOLID
  5
3FB
330
451
100
AcDbEntity
  8
DIM
100
AcDbTrace
 10
67.9288787102223
 20
1049.250979997326
 30
0.0
 11
67.9288787102223
 21
1047.250979997326
 31
0.0
 12
61.92887871022231
 22
1048.250979997326
 32
0.0
 13
61.92887871022231
 23
1048.250979997326
 33
0.0
  0
TEXT
  5
3FC
330
451
100
AcDbEntity
  8
DIM
100
AcDbText
 10
84.45268823403138
 20
1050.750979997326
 30
0.0
 40
5.0
  1
51
 72
     1
 11
87.42887871022185
 21
1053.250979997326
 31
0.0
100
AcDbText
 73
     2
  0
TEXT
  5
3FD
330
451
100
AcDbEntity
  8
DIM
100
AcDbText
 10
75.28602156736472
 20
1041.108122854469
 30
0.0
 40
5.0
  1
(2.01")
 72
     4
 11
87.42887871022185
 21
1043.250979997326
 31
0.0
100
AcDbText
  0
LINE
  5
3FE
330
451
100
AcDbEntity
  8
DIM
100
AcDbLine
 10
61.92887871022231
 20
1022.167899224142
 30
0.0
 11
61.92887871022231
 21
1050.250979997326
 31
0.0
  0
LINE
  5
782
330
451
100
AcDbEntity
  8
DRG
 62
     1
100
AcDbLine
 10
188.6517724178087
 20
688.7084132388208
 30
0.0
 11
188.6517724178087
 21
588.7084132388199
 31
0.0
  0
TEXT
  5
799
330
451
100
AcDbEntity
  8
DIM
100
AcDbText
 10
44.16518835432509
 20
533.4427402310925
 30
0.0
 40
5.0
  1
4 OFF M10 SCREWS 
100
AcDbText
  0
TEXT
  5
79A
330
451
100
AcDbEntity
  8
DIM
100
AcDbText
 10
42.55543323620417
 20
524.4008807487139
 30
0.0
 40
5.0
  1
ON %%c105 (4.13") P.C.
100
AcDbText
  0
LINE
  5
7CA
330
451
100
AcDbEntity
  8
DRG
100
AcDbLine
 10
200.1767724178092
 20
548.4796513781986
 30
0.0
 11
200.1767724178088
 21
579.7084132388199
 31
0.0
  0
LINE
  5
7D0
330
451
100
AcDbEntity
  8
DRG
100
AcDbLine
 10
270.1767724178088
 20
592.60841323882
 30
0.0
 11
270.1767724178088
 21
464.1556541252989
 31
0.0
  0
LINE
  5
7D6
330
451
100
AcDbEntity
  8
DRG
100
AcDbLine
 10
583.4915327882695
 20
585.5130187013228
 30
0.0
 11
583.4915327882695
 21
576.1259423116787
 31
0.0
  0
LINE
  5
7D7
330
451
100
AcDbEntity
  8
DRG
100
AcDbLine
 10
548.4915327882695
 20
585.5130187013227
 30
0.0
 11
548.4915327882695
 21
567.6310321526596
 31
0.0
  0
ARC
  5
7D8
330
451
100
AcDbEntity
  8
DRG
100
AcDbCircle
 10
545.4915327882697
 20
567.6310321526596
 30
0.0
 40
3.0
100
AcDbArc
 50
340.3231090816545
 51
0.0
  0
ARC
  5
7D9
330
451
100
AcDbEntity
  8
DRG
100
AcDbCircle
 10
513.1479270749284
 20
660.0755219625794
 30
0.0
 40
3.0
100
AcDbArc
 50
157.9842435525292
 51
164.3946109955501
  0
LINE
  5
7EC
330
451
100
AcDbEntity
  8
DRG
100
AcDbLine
 10
212.6767724178088
 20
693.7084132388199
 30
0.0
 11
212.6767724178092
 21
338.8667256339974
 31
0.0
  0
LINE
  5
7ED
330
451
100
AcDbEntity
  8
DRG
100
AcDbLine
 10
196.6767724178088
 20
688.7084132388208
 30
0.0
 11
188.6517724178087
 21
688.7084132388208
 31
0.0
  0
ARC
  5
7EE
330
451
100
AcDbEntity
  8
DRG
100
AcDbCircle
 10
565.9915327882695
 20
581.40841323882
 30
0.0
 40
10.0
100
AcDbArc
 50
333.373865493596
 51
216.1687385047438
  0
LINE
  5
849
330
451
100
AcDbEntity
  8
DRG
100
AcDbLine
 10
280.1767724178088
 20
566.20841323882
 30
0.0
 11
270.1767724178088
 21
566.20841323882
 31
0.0
  0
LINE
  5
87D
330
451
100
AcDbEntity
  8
CRS
100
AcDbLine
 10
588.9145546789531
 20
581.40841323882
 30
0.0
 11
541.8488506736671
 21
581.40841323882
 31
0.0
  0
LINE
  5
87E
330
451
100
AcDbEntity
  8
DRG
100
AcDbLine
 10
623.324325515805
 20
656.3988309292376
 30
0.0
 11
658.2725448032199
 21
543.1353089668848
 31
0.0
  0
LINE
  5
87F
330
451
100
AcDbEntity
  8
DRG
100
AcDbLine
 10
508.658740060734
 20
656.3988309292376
 30
0.0
 11
466.8183950840618
 21
520.7986507539842
 31
0.0
  0
ARC
  5
880
330
451
100
AcDbEntity
  8
DRG
100
AcDbCircle
 10
565.9915327882695
 20
638.7084132388199
 30
0.0
 40
60.0
100
AcDbArc
 50
17.1479610013349
 51
31.90091629294551
  0
ARC
  5
881
330
451
100
AcDbEntity
  8
DRG
100
AcDbCircle
 10
565.9915327882695
 20
638.7084132388199
 30
0.0
 40
60.0
100
AcDbArc
 50
58.09908370705699
 51
121.900916292943
  0
ARC
  5
882
330
451
100
AcDbEntity
  8
DRG
100
AcDbCircle
 10
565.9915327882695
 20
638.7084132388199
 30
0.0
 40
60.0
100
AcDbArc
 50
148.0990837070544
 51
162.8520389986647
  0
ARC
  5
883
330
451
100
AcDbEntity
  8
DRG
100
AcDbCircle
 10
565.9915327882695
 20
573.40841323882
 30
0.0
 40
20.0
100
AcDbArc
 50
28.95502437185995
 51
151.04497562814
  0
TEXT
  5
88C
330
451
100
AcDbEntity
  8
DIM
100
AcDbText
 10
334.2274014017529
 20
583.822279568456
 30
0.0
 40
5.0
  1
8 OFF M8 BASEPLATE SECURING
100
AcDbText
  0
TEXT
  5
88D
330
451
100
AcDbEntity
  8
DIM
100
AcDbText
 10
342.0035741158785
 20
566.6794224255989
 30
0.0
 40
5.0
  1
OFFSET FROM CENTRE LINE
100
AcDbText
  0
TEXT
  5
88E
330
451
100
AcDbEntity
  8
DIM
100
AcDbText
 10
349.1576524015899
 20
558.2545855738817
 30
0.0
 40
5.0
  1
ON %%c240 (%%c9.45") P.C.
100
AcDbText
  0
TEXT
  5
88F
330
451
100
AcDbEntity
  8
DIM
100
AcDbText
 10
335.4715902585808
 20
575.2508509970273
 30
0.0
 40
5.0
  1
SCREWS EQUALLY SPACED 22.5%%d
100
AcDbText
  0
TEXT
  5
935
330
451
100
AcDbEntity
  8
DIM
100
AcDbText
 10
230.0532400677941
 20
751.144606652303
 30
0.0
 40
5.0
  1
(3.62")
 72
     4
 11
242.6722876868417
 21
753.2874637951602
 31
0.0
100
AcDbText
  0
TEXT
  5
9A6
330
451
100
AcDbEntity
  8
BORT
100
AcDbText
 10
51.99999999999999
 20
145.6519452318148
 30
0.0
 40
5.0
  1
CN1413   D.S.   24.10.02
 72
     4
 11
102.0
 21
148.1519452318148
 31
0.0
100
AcDbText
  0
TEXT
  5
9A7
330
451
100
AcDbEntity
  8
BORT
100
AcDbText
 10
23.4047619047619
 20
145.6519452318148
 30
0.0
 40
5.0
  1
1
 72
     4
 11
24.0
 21
148.1519452318148
 31
0.0
100
AcDbText
  0
LWPOLYLINE
  5
9A8
330
451
100
AcDbEntity
  8
BORT
100
AcDbPolyline
 90
        2
 70
     0
 43
0.0
 39
1.8
 10
166.0
 20
155.1519452318148
 10
10.0
 20
155.1519452318148
  0
LEADER
  5
9A9
330
451
100
AcDbEntity
  8
DIM
100
AcDbLeader
  3
STD
 76
     3
 10
180.1517724178089
 20
593.585307226527
 30
0.0
 10
140.7059601023553
 20
536.1961561345156
 30
0.0
 10
122.2061588781353
 20
536.1961561345156
 30
0.0
1001
ACAD
1000
DSTYLE
1002
{
1070
     5
1000

1070
    77
1070
     0
1070
   147
1040
1.5
1002
}
  0
LINE
  5
9AA
330
451
100
AcDbEntity
  8
DRG
100
AcDbLine
 10
261.6767724178088
 20
698.7084132388199
 30
0.0
 11
217.6767724178088
 21
698.7084132388199
 31
0.0
  0
LINE
  5
9AC
330
451
100
AcDbEntity
  8
DRG
100
AcDbLine
 10
188.6517724178087
 20
588.7084132388199
 30
0.0
 11
196.6767724178088
 21
588.7084132388199
 31
0.0
  0
LINE
  5
9AD
330
451
100
AcDbEntity
  8
DRG
100
AcDbLine
 10
288.6767724178085
 20
593.40841323882
 30
0.0
 11
288.6767724178092
 21
689.7084132388199
 31
0.0
  0
LINE
  5
9AE
330
451
100
AcDbEntity
  8
DRG
100
AcDbLine
 10
266.6767724178088
 20
693.7084132388187
 30
0.0
 11
266.6767724177885
 21
604.2860644963777
 31
0.0
  0
DIMENSION
  5
9AF
330
451
100
AcDbEntity
  8
DIM
100
AcDbDimension
  2
*D0
 10
288.6767724178095
 20
758.7084132388199
 30
0.0
 11
242.6767724178093
 21
762.7084132388199
 31
0.0
 70
    32
  3
STD
100
AcDbAlignedDimension
 13
196.6767724178092
 23
694.7084132388199
 33
0.0
 14
288.6767724178095
 24
689.7084132388199
 34
0.0
100
AcDbRotatedDimension
1001
ACAD
1000
DSTYLE
1002
{
1070
   271
1070
     0
1002
}
  0
LINE
  5
9B0
330
451
100
AcDbEntity
  8
DRG2
  6
PHANTOM
 48
12.0
100
AcDbLine
 10
353.7017724178093
 20
656.7084132388202
 30
0.0
 11
393.7017724178091
 21
656.7084132388202
 31
0.0
  0
LINE
  5
9B1
330
451
100
AcDbEntity
  8
DRG2
  6
PHANTOM
 48
12.0
100
AcDbLine
 10
398.7017724178093
 20
652.2084132388202
 30
0.0
 11
398.7017724178093
 21
625.2084132388201
 31
0.0
  0
LINE
  5
9B2
330
451
100
AcDbEntity
  8
DRG2
  6
PHANTOM
 48
12.0
100
AcDbLine
 10
397.2017724178093
 20
653.7084132388201
 30
0.0
 11
397.2017724178093
 21
623.7084132388202
 31
0.0
  0
LINE
  5
9B3
330
451
100
AcDbEntity
  8
DRG2
  6
PHANTOM
 48
12.0
100
AcDbLine
 10
398.7017724178093
 20
625.2084132388201
 30
0.0
 11
397.2017724178093
 21
623.7084132388202
 31
0.0
  0
LINE
  5
9B4
330
451
100
AcDbEntity
  8
DRG2
  6
PHANTOM
 48
12.0
100
AcDbLine
 10
393.7017724178091
 20
653.7084132388201
 30
0.0
 11
393.7017724178091
 21
656.7084132388202
 31
0.0
  0
LINE
  5
9B5
330
451
100
AcDbEntity
  8
DRG2
  6
PHANTOM
 48
12.0
100
AcDbLine
 10
397.2017724178093
 20
653.7084132388201
 30
0.0
 11
398.7017724178093
 21
652.2084132388202
 31
0.0
  0
LINE
  5
9B6
330
451
100
AcDbEntity
  8
DRG2
  6
PHANTOM
 48
12.0
100
AcDbLine
 10
353.7017724178093
 20
653.7084132388201
 30
0.0
 11
353.7017724178093
 21
656.7084132388202
 31
0.0
  0
LINE
  5
9B7
330
451
100
AcDbEntity
  8
DRG2
  6
PHANTOM
 48
12.0
100
AcDbLine
 10
288.6767724178092
 20
653.70841323882
 30
0.0
 11
397.2017724178093
 21
653.7084132388201
 31
0.0
  0
LINE
  5
9B8
330
451
100
AcDbEntity
  8
DRG2
  6
PHANTOM
 48
12.0
100
AcDbLine
 10
288.676772417809
 20
623.7084132388199
 30
0.0
 11
397.2017724178093
 21
623.7084132388202
 31
0.0
  0
LEADER
  5
9B9
330
451
100
AcDbEntity
  8
DIM
100
AcDbLeader
  3
STD
 76
     3
 10
514.8308099394157
 20
550.5598792386799
 30
0.0
 10
473.5175998138588
 20
586.0950371483681
 30
0.0
 10
462.196381026587
 20
586.0950371483681
 30
0.0
1001
ACAD
1000
DSTYLE
1002
{
1070
     5
1000

1070
    77
1070
     0
1070
   147
1040
1.5
1002
}
  0
TEXT
  5
9BA
330
451
100
AcDbEntity
  8
DIM
100
AcDbText
 10
331.056019798438
 20
751.1697901908378
 30
0.0
 40
5.0
  1
(4.33")
 72
     4
 11
343.6750674174855
 21
753.3126473336949
 31
0.0
100
AcDbText
  0
DIMENSION
  5
9BB
330
451
100
AcDbEntity
  8
DIM
100
AcDbDimension
  2
*D1
 10
398.7017724178093
 20
758.7084132388199
 30
0.0
 11
343.6892724178094
 21
762.7084132388199
 31
0.0
 70
    32
  3
STD
100
AcDbAlignedDimension
 13
288.6767724178095
 23
689.7084132388199
 33
0.0
 14
398.7017724178093
 24
652.2084132388202
 34
0.0
100
AcDbRotatedDimension
1001
ACAD
1000
DSTYLE
1002
{
1070
   271
1070
     0
1002
}
  0
ARC
  5
9BC
330
451
100
AcDbEntity
  8
DRG
100
AcDbCircle
 10
565.9915327882695
 20
638.7084132388199
 30
0.0
 40
56.0
100
AcDbArc
 50
331.3793676034402
 51
28.62063239655975
  0
ARC
  5
9BD
330
451
100
AcDbEntity
  8
DRG
100
AcDbCircle
 10
605.5895125347163
 20
678.3063929852667
 30
0.0
 40
10.0
100
AcDbArc
 50
336.4735351289021
 51
113.5264648710963
  0
ARC
  5
9BE
330
451
100
AcDbEntity
  8
DRG
100
AcDbCircle
 10
526.3935530418227
 20
678.3063929852667
 30
0.0
 40
10.0
100
AcDbArc
 50
66.47353512890369
 51
203.5264648710985
  0
ARC
  5
9BF
330
451
100
AcDbEntity
  8
DRG
100
AcDbCircle
 10
526.3935530418227
 20
599.1104334923732
 30
0.0
 40
10.0
100
AcDbArc
 50
156.4735351289014
 51
293.5264648710962
  0
ARC
  5
9C0
330
451
100
AcDbEntity
  8
DRG
100
AcDbCircle
 10
605.5895125347163
 20
599.1104334923732
 30
0.0
 40
10.0
100
AcDbArc
 50
246.4735351289037
 51
23.52646487109812
  0
ARC
  5
9C1
330
451
100
AcDbEntity
  8
DRG
100
AcDbCircle
 10
565.9915327882697
 20
638.7084132388199
 30
0.0
 40
56.0
100
AcDbArc
 50
61.37936760343963
 51
118.6206323965605
  0
ARC
  5
9C2
330
451
100
AcDbEntity
  8
DRG
100
AcDbCircle
 10
565.9915327882695
 20
638.7084132388198
 30
0.0
 40
56.0
100
AcDbArc
 50
151.3793676034402
 51
208.6206323965597
  0
ARC
  5
9C3
330
451
100
AcDbEntity
  8
DRG
100
AcDbCircle
 10
565.9915327882695
 20
638.70841323882
 30
0.0
 40
56.0
100
AcDbArc
 50
241.3793676034396
 51
253.1631259245552
  0
ARC
  5
9C4
330
451
100
AcDbEntity
  8
DRG
100
AcDbCircle
 10
534.3770053544267
 20
696.6439088795304
 30
0.0
 40
10.0
100
AcDbArc
 50
246.4735351289035
 51
298.6206323965605
  0
ARC
  5
9C5
330
451
100
AcDbEntity
  8
DRG
100
AcDbCircle
 10
508.056037147559
 20
670.3229406726626
 30
0.0
 40
10.0
100
AcDbArc
 50
331.3793676034402
 51
23.52646487109887
  0
ARC
  5
9C6
330
451
100
AcDbEntity
  8
DRG
100
AcDbCircle
 10
508.056037147559
 20
607.0938858049771
 30
0.0
 40
10.0
100
AcDbArc
 50
336.4735351289015
 51
28.62063239655975
  0
ARC
  5
9C7
330
451
100
AcDbEntity
  8
DRG
100
AcDbCircle
 10
534.3770053544267
 20
580.7729175981093
 30
0.0
 40
10.0
100
AcDbArc
 50
61.37936760343944
 51
113.5264648710964
  0
ARC
  5
9C8
330
451
100
AcDbEntity
  8
DRG
100
AcDbCircle
 10
597.6060602221123
 20
580.7729175981093
 30
0.0
 40
10.0
100
AcDbArc
 50
66.47353512890354
 51
118.6206323965605
  0
ARC
  5
9C9
330
451
100
AcDbEntity
  8
DRG
100
AcDbCircle
 10
623.92702842898
 20
607.093885804977
 30
0.0
 40
10.0
100
AcDbArc
 50
151.3793676034402
 51
203.5264648710981
  0
ARC
  5
9CA
330
451
100
AcDbEntity
  8
DRG
100
AcDbCircle
 10
597.6060602221125
 20
696.6439088795306
 30
0.0
 40
10.0
100
AcDbArc
 50
241.3793676034396
 51
293.5264648710962
  0
ARC
  5
9CB
330
451
100
AcDbEntity
  8
DRG
100
AcDbCircle
 10
623.92702842898
 20
670.3229406726628
 30
0.0
 40
10.0
100
AcDbArc
 50
156.4735351289018
 51
208.6206323965597
  0
ARC
  5
9CC
330
451
100
AcDbEntity
  8
DRG
100
AcDbCircle
 10
625.418959347538
 20
675.70004705706
 30
0.0
 40
10.0
100
AcDbArc
 50
172.5120719596338
 51
211.9009162929454
  0
ARC
  5
9CD
330
451
100
AcDbEntity
  8
DRG
100
AcDbCircle
 10
602.9831666065097
 20
698.1358397980883
 30
0.0
 40
10.0
100
AcDbArc
 50
238.0990837070569
 51
277.4879280403658
  0
ARC
  5
9CE
330
451
100
AcDbEntity
  8
DRG
100
AcDbCircle
 10
528.9998989700293
 20
698.1358397980883
 30
0.0
 40
10.0
100
AcDbArc
 50
262.5120719596341
 51
301.900916292943
  0
ARC
  5
9CF
330
451
100
AcDbEntity
  8
DRG
100
AcDbCircle
 10
506.564106229001
 20
675.70004705706
 30
0.0
 40
10.0
100
AcDbArc
 50
328.0990837070544
 51
7.48792804036615
  0
ARC
  5
9D0
330
451
100
AcDbEntity
  8
DRG
100
AcDbCircle
 10
565.9915327882695
 20
638.70841323882
 30
0.0
 40
56.0
100
AcDbArc
 50
286.8368740754447
 51
298.6206323965603
  0
LINE
  5
9D1
330
451
100
AcDbEntity
  8
DRG
100
AcDbLine
 10
288.6767724178085
 20
593.40841323882
 30
0.0
 11
270.976772417809
 21
593.40841323882
 31
0.0
  0
ARC
  5
9D2
330
451
100
AcDbEntity
  8
DRG
100
AcDbCircle
 10
270.976772417809
 20
592.60841323882
 30
0.0
 40
0.8
100
AcDbArc
 50
90.0
 51
180.0
  0
LINE
  5
9D3
330
451
100
AcDbEntity
  8
DRG
100
AcDbLine
 10
245.1767724178088
 20
578.8020777102395
 30
0.0
 11
245.1767724178088
 21
459.4872239593724
 31
0.0
  0
DIMENSION
  5
9D4
330
451
100
AcDbEntity
  8
DIM
100
AcDbDimension
  2
*D2
 10
288.6767724178088
 20
578.7002041865748
 30
0.0
 11
309.7958200368564
 21
578.7002041865748
 31
0.0
 70
   160
  3
STD
100
AcDbAlignedDimension
 13
280.176772417809
 23
566.20841323882
 33
0.0
 14
288.6767724178088
 24
593.40841323882
 34
0.0
100
AcDbRotatedDimension
1001
ACAD
1000
DSTYLE
1002
{
1070
   287
1070
     3
1070
   271
1070
     0
1070
   279
1070
     0
1002
}
  0
TEXT
  5
9D7
330
451
100
AcDbEntity
  8
DIM
100
AcDbText
 10
295.9002608698888
 20
571.0536547744005
 30
0.0
 40
5.0
  1
(0.35")
 72
     4
 11
308.5193084889364
 21
573.1965119172575
 31
0.0
100
AcDbText
  0
LINE
  5
9D8
330
451
100
AcDbEntity
  8
DRG
100
AcDbLine
 10
283.6767724178092
 20
694.7084132388199
 30
0.0
 11
268.6049756480844
 21
694.7084132388199
 31
0.0
  0
LINE
  5
9D9
330
451
100
AcDbEntity
  8
DRG
100
AcDbLine
 10
197.1767724178088
 20
582.70841323882
 30
0.0
 11
196.6767724178088
 21
582.70841323882
 31
0.0
  0
ARC
  5
9DA
330
451
100
AcDbEntity
  8
DRG
100
AcDbCircle
 10
283.6767724178092
 20
689.7084132388199
 30
0.0
 40
5.0
100
AcDbArc
 50
359.9999999999996
 51
90.0
  0
ARC
  5
9DB
330
451
100
AcDbEntity
  8
DRG
100
AcDbCircle
 10
197.1767724178088
 20
579.7084132388199
 30
0.0
 40
3.0
100
AcDbArc
 50
0.0000000000004071
 51
90.0
  0
LINE
  5
9DC
330
451
100
AcDbEntity
  8
DRG
100
AcDbLine
 10
210.7485691875334
 20
694.7084132388199
 30
0.0
 11
196.676772417809
 21
694.7084132388199
 31
0.0
  0
ARC
  5
9DD
330
451
100
AcDbEntity
  8
DRG
100
AcDbCircle
 10
217.6767724178088
 20
693.7084132388199
 30
0.0
 40
5.0
100
AcDbArc
 50
90.0
 51
180.0
  0
ARC
  5
9DE
330
451
100
AcDbEntity
  8
DRG
100
AcDbCircle
 10
261.6767724178088
 20
693.7084132388199
 30
0.0
 40
5.0
100
AcDbArc
 50
359.9999999999869
 51
90.0
  0
ARC
  5
9DF
330
451
100
AcDbEntity
  8
DRG
100
AcDbCircle
 10
268.6049756480844
 20
697.7084132388199
 30
0.0
 40
3.0
100
AcDbArc
 50
210.0000000000008
 51
270.0
  0
ARC
  5
9E0
330
451
100
AcDbEntity
  8
DRG
100
AcDbCircle
 10
210.7485691875334
 20
697.7084132388199
 30
0.0
 40
3.0
100
AcDbArc
 50
270.0
 51
329.9999999999998
  0
ARC
  5
9E1
330
451
100
AcDbEntity
  8
DRG2
  6
PHANTOM
 48
12.0
100
AcDbCircle
 10
565.9915327882695
 20
638.7084132388199
 30
0.0
 40
15.0
100
AcDbArc
 50
105.4660099534197
 51
74.53399004658024
  0
LINE
  5
9E2
330
451
100
AcDbEntity
  8
DRG2
  6
PHANTOM
 48
5.0
100
AcDbLine
 10
561.9915327882694
 20
656.7084132388201
 30
0.0
 11
569.9915327882695
 21
656.7084132388202
 31
0.0
  0
LINE
  5
9E3
330
451
100
AcDbEntity
  8
DRG2
  6
PHANTOM
 48
5.0
100
AcDbLine
 10
561.9915327882694
 20
656.7084132388202
 30
0.0
 11
561.9915327882694
 21
649.70841323882
 31
0.0
  0
LINE
  5
9E4
330
451
100
AcDbEntity
  8
DRG2
  6
PHANTOM
 48
5.0
100
AcDbLine
 10
569.9915327882695
 20
656.7084132388202
 30
0.0
 11
569.9915327882695
 21
649.7084132388201
 31
0.0
  0
LINE
  5
9E5
330
451
100
AcDbEntity
  8
DRG2
  6
PHANTOM
 48
5.0
100
AcDbLine
 10
561.9915327882694
 20
649.70841323882
 30
0.0
 11
569.9915327882695
 21
649.7084132388201
 31
0.0
  0
LINE
  5
9E7
330
451
100
AcDbEntity
  8
DIM
100
AcDbLine
 10
312.8434390844754
 20
578.7002041865748
 30
0.0
 11
321.6103492933451
 21
578.7002041865748
 31
0.0
  0
TEXT
  5
9E8
330
451
100
AcDbEntity
  8
DIM
100
AcDbText
 10
309.8923788527657
 20
732.6287009613213
 30
0.0
 40
5.0
  1
FACING SHAFT IS
100
AcDbText
  0
TEXT
  5
9E9
330
451
100
AcDbEntity
  8
DIM
100
AcDbText
 10
311.9558499755133
 20
723.8629180953205
 30
0.0
 40
5.0
  1
NON-STANDARD
100
AcDbText
  0
TEXT
  5
9EA
330
451
100
AcDbEntity
  8
DIM
100
AcDbText
 10
309.2973085140137
 20
706.617861710554
 30
0.0
 40
5.0
  1
OPTIONAL EXTRA
100
AcDbText
  0
TEXT
  5
9EB
330
451
100
AcDbEntity
  8
DIM
100
AcDbText
 10
322.4925252452266
 20
715.6766677466928
 30
0.0
 40
5.0
  1
BUT IS AN 
100
AcDbText
  0
TEXT
  5
9EC
330
451
100
AcDbEntity
  8
DIM
100
AcDbText
 10
323.0230196470823
 20
740.8799608753605
 30
0.0
 40
5.0
  1
DOWNWARD 
100
AcDbText
  0
LINE
  5
9ED
330
451
100
AcDbEntity
  8
DRG
100
AcDbLine
 10
197.0006754799465
 20
986.7509799973268
 30
0.0
 11
182.928878710222
 21
986.7509799973268
 31
0.0
  0
ARC
  5
9EE
330
451
100
AcDbEntity
  8
DRG
100
AcDbCircle
 10
203.928878710222
 20
985.7509799973268
 30
0.0
 40
5.0
100
AcDbArc
 50
90.0
 51
180.0
  0
ARC
  5
9EF
330
451
100
AcDbEntity
  8
DRG
100
AcDbCircle
 10
197.0006754799465
 20
989.7509799973267
 30
0.0
 40
3.0
100
AcDbArc
 50
270.0
 51
329.9999999999998
  0
LINE
  5
9F0
330
451
100
AcDbEntity
  8
DRG
100
AcDbLine
 10
222.3014683025317
 20
990.7509799973267
 30
0.0
 11
203.928878710222
 21
990.7509799973267
 31
0.0
  0
LINE
  5
9F1
330
451
100
AcDbEntity
  8
DRG
100
AcDbLine
 10
198.928878710222
 20
985.7509799973268
 30
0.0
 11
198.9288787102223
 21
826.1995171473714
 31
0.0
  0
LINE
  5
9F2
330
451
100
AcDbEntity
  8
DRG
100
AcDbLine
 10
195.8096466501808
 20
837.5222181367055
 30
0.0
 11
189.4288787102223
 21
837.5222181367055
 31
0.0
  0
LINE
  5
9F3
330
451
100
AcDbEntity
  8
DRG
100
AcDbLine
 10
186.4288787102223
 20
840.5222181367054
 30
0.0
 11
186.428878710222
 21
871.7509799973267
 31
0.0
  0
ARC
  5
9F4
330
451
100
AcDbEntity
  8
DRG
100
AcDbCircle
 10
189.4288787102223
 20
840.5222181367054
 30
0.0
 40
3.0
100
AcDbArc
 50
180.0
 51
270.0
  0
ARC
  5
9F5
330
451
100
AcDbEntity
  8
DRG
100
AcDbCircle
 10
183.428878710222
 20
871.7509799973267
 30
0.0
 40
3.0
100
AcDbArc
 50
0.0000000000004071
 51
90.0
  0
LINE
  5
9F6
330
451
100
AcDbEntity
  8
DRG
100
AcDbLine
 10
183.428878710222
 20
874.7509799973268
 30
0.0
 11
182.928878710222
 21
874.7509799973268
 31
0.0
  0
ARC
  5
9F7
330
451
100
AcDbEntity
  8
DRG
100
AcDbCircle
 10
195.8096466501808
 20
834.5222181367056
 30
0.0
 40
3.0
100
AcDbArc
 50
0.0
 51
90.0
  0
LINE
  5
9FA
330
451
100
AcDbEntity
  8
DRG
100
AcDbLine
 10
270.1767724178088
 20
428.7684891698986
 30
0.0
 11
270.1767724178088
 21
304.2084132388198
 31
0.0
  0
LINE
  5
9FC
330
451
100
AcDbEntity
  8
DRG
100
AcDbLine
 10
245.1767724178088
 20
440.2098086176082
 30
0.0
 11
245.1767724178088
 21
304.2084132388198
 31
0.0
  0
ARC
  5
A69
330
451
100
AcDbEntity
  8
DRG
100
AcDbCircle
 10
209.676772417809
 20
533.2396155054673
 30
0.0
 40
3.0
100
AcDbArc
 50
270.0
 51
0.0000000000000636
  0
ARC
  5
A6A
330
451
100
AcDbEntity
  8
DRG
100
AcDbCircle
 10
209.676772417809
 20
542.4796513781987
 30
0.0
 40
3.0
100
AcDbArc
 50
0.0000000000001527
 51
90.0
  0
DIMENSION
  5
A87
330
451
100
AcDbEntity
  8
DIM
100
AcDbDimension
  2
*D3
 10
288.1759724178093
 20
524.9235048506015
 30
0.0
 11
309.7958200368564
 21
524.9235048506015
 31
0.0
 70
   160
  3
STD
100
AcDbAlignedDimension
 13
280.1767724178091
 23
513.9168866667615
 33
0.0
 14
288.1759724178093
 24
540.6157858859817
 34
0.0
100
AcDbRotatedDimension
1001
ACAD
1000
DSTYLE
1002
{
1070
   287
1070
     3
1070
   279
1070
     0
1070
   271
1070
     0
1002
}
  0
TEXT
  5
A88
330
451
100
AcDbEntity
  8
DIM
100
AcDbText
 10
294.9456278888731
 20
516.0913749971124
 30
0.0
 40
5.0
  1
(0.32")
 72
     4
 11
307.5646755079207
 21
518.2342321399695
 31
0.0
100
AcDbText
  0
LINE
  5
AC8
330
451
100
AcDbEntity
  8
DIM
100
AcDbLine
 10
312.962486703523
 20
524.9235048506015
 30
0.0
 11
320.8512355434983
 21
524.9235048506015
 31
0.0
  0
DIMENSION
  5
B12
330
451
100
AcDbEntity
  8
DIM
100
AcDbDimension
  2
*D4
 10
288.6767724178088
 20
608.6879515108262
 30
0.0
 11
330.1129197381154
 21
608.6879515108262
 31
0.0
 70
   160
  3
STD
100
AcDbAlignedDimension
 13
315.076772417809
 23
580.1202071124252
 33
0.0
 14
288.6767724178088
 24
593.40841323882
 34
0.0
100
AcDbRotatedDimension
1001
ACAD
1000
DSTYLE
1002
{
1070
   287
1070
     3
1070
   271
1070
     0
1070
   279
1070
     0
1002
}
  0
TEXT
  5
B44
330
451
100
AcDbEntity
  8
DIM
100
AcDbText
 10
318.3623430237317
 20
600.2464288973119
 30
0.0
 40
5.0
  1
(0.35")
 72
     4
 11
330.9813906427793
 21
602.389286040169
 31
0.0
100
AcDbText
  0
LINE
  5
B45
330
451
100
AcDbEntity
  8
DIM
100
AcDbLine
 10
335.5414911666868
 20
608.6879515108262
 30
0.0
 11
343.9758491595966
 21
608.6879515108262
 31
0.0
  0
LINE
  5
B64
330
451
100
AcDbEntity
  8
DIM
100
AcDbLine
 10
315.076772417809
 20
566.8383195729879
 30
0.0
 11
315.076772417809
 21
533.5874916583561
 31
0.0
  0
LINE
  5
B65
330
451
100
AcDbEntity
  8
DIM
100
AcDbLine
 10
315.076772417809
 20
513.2293362493306
 30
0.0
 11
315.076772417809
 21
504.5685857754351
 31
0.0
  0
INSERT
  5
D14
330
451
100
AcDbEntity
  8
0
100
AcDbBlockReference
  2
ROTORK_GEARS_LOGO
 10
12.52826324559112
 20
31.60370212688897
 30
0.0
 41
0.70000000000001
 42
0.70000000000001
 43
0.7000000000000001
  0
VIEWPORT
  5
32
330
44D
100
AcDbEntity
 67
     1
  8
0
100
AcDbViewport
 10
210.0000002240963
 20
152.0942409999999
 30
0.0
 40
420.0000004481927
 41
304.1884819999999
 68
     1
 69
     1
1001
ACAD
1000
MVIEW
1002
{
1070
    16
1010
0.0
1020
0.0
1030
0.0
1010
0.0
1020
0.0
1030
1.0
1040
0.0
1040
304.1884819999999
1040
210.0000002240963
1040
152.0942409999999
1040
50.0
1040
0.0
1040
0.0
1070
     0
1070
  2000
1070
     1
1070
     1
1070
     1
1070
     0
1070
     0
1070
     1
1040
0.0
1040
0.0
1040
0.0
1040
5.0
1040
5.0
1040
10.0
1040
10.0
1070
     0
1002
{
1002
}
1002
}
  0
ENDSEC
  0
SECTION
  2
OBJECTS
  0
DICTIONARY
  5
43F
330
0
100
AcDbDictionary
  3
ACAD_GROUP
350
440
  3
ACAD_LAYOUT
350
44C
  3
ACAD_MLINESTYLE
350
449
  3
ACAD_PLOTSETTINGS
350
44B
  3
ACAD_PLOTSTYLENAME
350
441
  3
ACAMCATALOGSTATE
350
C42
  3
ACASAPPOBJECT
350
BC4
  3
ACASGREF_MASTER
350
C0C
  3
ACDBHEADERROUNDTRIPXREC
350
D28
  3
ACDBVARIABLEDICTIONARY
350
B8E
  3
ACDMSYSVARMGR
350
BA1
  3
ACGREF_MASTER
350
B9B
  3
ACGREFACAD_MASTER
350
BC0
  3
ACMDICTIONARY
350
C3E
  3
ACME_BOM_MANAGER_NAME
350
B94
  3
ACME_COMMAND_HISTORY
350
B8D
  3
ACME_SCOPE_NAME
350
B8C
  3
ACMESTATEMGR
350
B99
  3
ACMESYSVARMANAGER
350
B90
  3
ACMSYSTEMVARIABLEMANAGER
350
C4B
  3
AD_APPL
350
C23
  3
AD_GREF_MODULE
350
C0D
  3
AD_HOLENOTE_REPOSITORY
350
C25
  3
AD_MAPI_MODULE
350
C28
  3
ADSYSVARMGR
350
C15
  3
AMDTNAMEDDWGMGR
350
BBB
  3
AMG
350
B83
  3
AMGSNAPSETTINGS
350
C57
  3
AMI_MASTER
350
BC3
  3
ASURF_STATIC_VARS
350
BC5
  3
AUTOCAD_ASSEMBLIES_PROJECT
350
C33
  3
AUTOSURF_SYSVARS
350
BC6
  3
DESIGNER_ASSEMBLIES_SYSVARS
350
C2A
  3
DWGPROPS
350
C5F
  3
GREFAM_MODULE
350
C0F
  3
MAPISURF_MODULE
350
C0E
  0
DICTIONARY
  5
D16
330
451
100
AcDbDictionary
280
     1
  3
ACAD_INDEX
360
D17
  3
ACAD_LAYOUTSELFREF
360
D4B
  0
DICTIONARY
  5
D49
330
44D
100
AcDbDictionary
280
     1
  3
ACAD_LAYOUTSELFREF
360
D4A
  0
DICTIONARY
  5
440
102
{ACAD_REACTORS
330
43F
102
}
330
43F
100
AcDbDictionary
  0
DICTIONARY
  5
44C
102
{ACAD_REACTORS
330
43F
102
}
330
43F
100
AcDbDictionary
  0
DICTIONARY
  5
449
102
{ACAD_REACTORS
330
43F
102
}
330
43F
100
AcDbDictionary
  3
STANDARD
350
44A
  0
DICTIONARY
  5
44B
102
{ACAD_REACTORS
330
43F
102
}
330
43F
100
AcDbDictionary
  0
ACDBDICTIONARYWDFLT
  5
441
102
{ACAD_REACTORS
330
43F
102
}
330
43F
100
AcDbDictionary
281
     1
  3
Normal
350
442
100
AcDbDictionaryWithDefault
340
442
  0
ACAD_PROXY_OBJECT
  5
C42
102
{ACAD_REACTORS
330
43F
102
}
330
43F
100
AcDbProxyObject
 90
      499
 91
      569
 93
      280
310
3FFFFFFFE00A02844028B231D2E20A1A0A22E21AAA92922A72A2E282AA12E24A9C00AA00
 94
        0
1001
ACAD
1000
AcadProxyRoundTripData
1071
      559
1071
   655383
1070
     0
  0
ACAD_PROXY_OBJECT
  5
BC4
102
{ACAD_REACTORS
330
43F
102
}
330
43F
100
AcDbProxyObject
 90
      499
 91
      569
 93
       10
310
4040
 94
        0
1001
ACAD
1000
AcadProxyRoundTripData
1071
      529
1071
   655383
1070
     0
  0
ACAD_PROXY_OBJECT
  5
C0C
102
{ACAD_REACTORS
330
43F
102
}
330
43F
100
AcDbProxyObject
 90
      499
 91
      569
 93
       34
310
0100004042
 94
        0
1001
ACAD
1000
AcadProxyRoundTripData
1071
      535
1071
   655383
1070
     0
  0
DICTIONARY
  5
D28
102
{ACAD_REACTORS
330
43F
102
}
330
43F
100
AcDbDictionary
  3
CEPSNTYPE
350
D32
  3
DIMSTYLEDATA
350
D36
  3
FINGERPRINTGUID
350
D33
  3
HYPERLINKBASE
350
D2B
  3
INSUNITS
350
D31
  3
LAYOUTDICT
350
D2D
  3
LWETCUNION
350
D30
  3
PLOTSETDICT
350
D2E
  3
PLOTSTYLNAMDICT
350
D2F
  3
PSVPSCALE
350
D35
  3
PUCSBASE
350
D39
  3
PUCSORGBACK
350
D3F
  3
PUCSORGBOTTOM
350
D3B
  3
PUCSORGFRONT
350
D3E
  3
PUCSORGLEFT
350
D3C
  3
PUCSORGRIGHT
350
D3D
  3
PUCSORGTOP
350
D3A
  3
PUCSORTHOREF
350
D37
  3
PUCSORTHOVIEW
350
D38
  3
STYLESHEET
350
D2C
  3
TSTACKALIGN
350
D29
  3
TSTACKSIZE
350
D2A
  3
UCSBASE
350
D42
  3
UCSORGBACK
350
D48
  3
UCSORGBOTTOM
350
D44
  3
UCSORGFRONT
350
D47
  3
UCSORGLEFT
350
D45
  3
UCSORGRIGHT
350
D46
  3
UCSORGTOP
350
D43
  3
UCSORTHOREF
350
D40
  3
UCSORTHOVIEW
350
D41
  3
VERSIONGUID
350
D34
  0
DICTIONARY
  5
B8E
102
{ACAD_REACTORS
330
43F
102
}
330
43F
100
AcDbDictionary
  3
INDEXCTL
350
B8F
  0
ACAD_PROXY_OBJECT
  5
BA1
102
{ACAD_REACTORS
330
43F
102
}
330
43F
100
AcDbProxyObject
 90
      499
 91
      569
 93
      224
310
4C51848200000000000000000000000000000000000000000000000000
330
BA2
330
BA3
330
BA4
330
BA5
330
BA6
330
BA7
330
BA8
330
BAA
330
BAB
330
BAC
330
BAD
330
BAE
330
BAF
330
BB0
330
BB1
330
BB2
330
BB3
330
BB4
330
BB5
330
BB6
330
BB7
330
BB8
330
BB9
330
BBA
 94
        0
1001
ACAD
1000
AcadProxyRoundTripData
1071
      508
1071
   655383
1070
     0
  0
ACAD_PROXY_OBJECT
  5
B9B
102
{ACAD_REACTORS
330
43F
102
}
330
43F
100
AcDbProxyObject
 90
      499
 91
      569
 93
       34
310
0400004282
 94
        0
1001
ACAD
1000
AcadProxyRoundTripData
1071
      517
1071
   655383
1070
     0
  0
ACAD_PROXY_OBJECT
  5
BC0
102
{ACAD_REACTORS
330
43F
102
}
330
43F
100
AcDbProxyObject
 90
      499
 91
      569
 93
      114
310
04000041C000000000000000000013
 94
        0
1001
ACAD
1000
AcadProxyRoundTripData
1071
      525
1071
   655383
1070
     0
  0
DICTIONARY
  5
C3E
102
{ACAD_REACTORS
330
43F
102
}
330
43F
100
AcDbDictionary
  3
ACMBOMDATA
350
C3F
  0
ACAD_PROXY_OBJECT
  5
B94
102
{ACAD_REACTORS
330
43F
102
}
330
43F
100
AcDbProxyObject
 90
      499
 91
      569
 93
       50
310
00000040400013
330
0
330
0
330
B95
 94
        0
1001
ACAD
1000
AcadProxyRoundTripData
1071
      511
1071
   655383
1070
     0
  0
ACAD_PROXY_OBJECT
  5
B8D
102
{ACAD_REACTORS
330
43F
102
}
330
43F
100
AcDbProxyObject
 90
      499
 91
      569
 93
      890
310
42C050E414D4454524553455444424D4F4440805084E202D20554E444F014213880B4815539113C0504554E444F80504554E444F80504554E444F80504554E444F80504554E444F805045A4F4F4D805054552415345805095041535445434C4950805045A4F4F4D80505515341564580
 94
        0
1001
ACAD
1000
AcadProxyRoundTripData
1071
      506
1071
   655383
1070
     0
  0
ACAD_PROXY_OBJECT
  5
B8C
102
{ACAD_REACTORS
330
43F
102
}
330
43F
100
AcDbProxyObject
 90
      499
 91
      569
 93
     1250
310
05000044000000000000000000001850000400020000000000000000000000000000000000000000000000000000000000000000000000000000000000000000000000000000000000000000000000000000000000000000000000000000000000000000000000000000000000000000000000000000000000000000000000
310
0000000000000000000000000000000000000000000000000000AAAAAA81
360
B91
360
B92
360
B93
360
B95
360
B9C
360
B9D
360
B9E
360
B9F
360
BA2
360
BA3
360
BA4
360
BA5
360
BA6
360
BA7
360
BA8
360
BAA
360
BAB
360
BAC
360
BAD
360
BAE
360
BAF
360
BB0
360
BB1
360
BB2
360
BB3
360
BB4
360
BB5
360
BB6
360
BB7
360
BB8
360
BB9
360
BBA
360
BC7
360
BC8
360
BC9
360
BCA
360
BCB
360
BCC
360
BCD
360
BCE
360
BCF
360
BD0
360
BD1
360
BD2
360
BD3
360
BD4
360
BD5
360
BD6
360
BD7
360
BD8
360
BD9
360
BDA
360
BDB
360
BDC
360
BDD
360
BDE
360
BDF
360
BE0
360
BE1
360
BE2
360
BE3
360
BE4
360
BE5
360
BE6
360
BE7
360
BE8
360
BE9
360
BEA
360
BEB
360
BEC
360
BED
360
BEE
360
BEF
360
BF0
360
BF1
360
BF2
360
BF3
360
BF4
360
BF5
360
BF6
360
BF7
360
BF8
360
BF9
360
BFA
360
BFB
360
BFC
360
BFD
360
BFE
360
BFF
360
C00
360
C01
360
C02
360
C03
360
C04
360
C05
360
C06
360
C07
360
C08
360
C11
360
C12
360
C13
360
C14
360
C16
360
C17
360
C18
360
C19
360
C1A
360
C1B
360
C1C
360
C1D
360
C1E
360
C1F
360
C20
360
C21
360
C22
360
C24
360
C26
360
C2B
360
C2C
360
C2D
360
C2E
360
C2F
360
C30
360
C31
360
C32
360
C37
360
C38
360
C39
360
C3A
360
C3B
360
C3C
360
C4C
360
D15
 94
        0
1001
ACAD
1000
AcadProxyRoundTripData
1071
      505
1071
   655383
1070
     0
  0
ACAD_PROXY_OBJECT
  5
B99
102
{ACAD_REACTORS
330
43F
102
}
330
43F
100
AcDbProxyObject
 90
      499
 91
      569
 93
       50
310
05000041241293
 94
        0
1001
ACAD
1000
AcadProxyRoundTripData
1071
      516
1071
   655383
1070
     0
  0
ACAD_PROXY_OBJECT
  5
B90
102
{ACAD_REACTORS
330
43F
102
}
330
43F
100
AcDbProxyObject
 90
      499
 91
      569
 93
       48
310
90342200000011
330
B91
330
B92
330
B93
 94
        0
1001
ACAD
1000
AcadProxyRoundTripData
1071
      508
1071
   655383
1070
     0
  0
ACAD_PROXY_OBJECT
  5
C4B
102
{ACAD_REACTORS
330
43F
102
}
330
43F
100
AcDbProxyObject
 90
      499
 91
      569
 93
       32
310
9014220000
330
C4C
 94
        0
1001
ACAD
1000
AcadProxyRoundTripData
1071
      508
1071
   655383
1070
     0
  0
ACAD_PROXY_OBJECT
  5
C23
102
{ACAD_REACTORS
330
43F
102
}
330
43F
100
AcDbProxyObject
 90
      499
 91
      569
 93
       42
310
000500004381
330
C11
 94
        0
1001
ACAD
1000
AcadProxyRoundTripData
1071
      544
1071
   655383
1070
     0
  0
ACAD_PROXY_OBJECT
  5
C0D
102
{ACAD_REACTORS
330
43F
102
}
330
43F
100
AcDbProxyObject
 90
      499
 91
      569
 93
      114
310
000000438000000000000000000026
 94
        0
1001
ACAD
1000
AcadProxyRoundTripData
1071
      536
1071
   655383
1070
     0
  0
ACAD_PROXY_OBJECT
  5
C25
102
{ACAD_REACTORS
330
43F
102
}
330
43F
100
AcDbProxyObject
 90
      499
 91
      569
 93
        8
310
0000
330
C24
 94
        0
1001
ACAD
1000
AcadProxyRoundTripData
1071
      546
1071
   655383
1070
     0
  0
ACAD_PROXY_OBJECT
  5
C28
102
{ACAD_REACTORS
330
43F
102
}
330
43F
100
AcDbProxyObject
 90
      499
 91
      569
 93
       34
310
05000044C2
 94
        0
1001
ACAD
1000
AcadProxyRoundTripData
1071
      548
1071
   655383
1070
     0
  0
ACAD_PROXY_OBJECT
  5
C15
102
{ACAD_REACTORS
330
43F
102
}
330
43F
100
AcDbProxyObject
 90
      499
 91
      569
 93
      136
310
90E442000000000000000000000000000000
330
C16
330
C17
330
C18
330
C19
330
C1A
330
C1B
330
C1C
330
C1D
330
C1E
330
C1F
330
C20
330
C21
330
C22
330
C26
 94
        0
1001
ACAD
1000
AcadProxyRoundTripData
1071
      508
1071
   655383
1070
     0
  0
ACAD_PROXY_OBJECT
  5
BBB
102
{ACAD_REACTORS
330
43F
102
}
330
43F
100
AcDbProxyObject
 90
      499
 91
      569
 93
       42
310
000100005541
330
B9C
 94
        0
1001
ACAD
1000
AcadProxyRoundTripData
1071
      522
1071
   655383
1070
     0
  0
DICTIONARY
  5
B83
102
{ACAD_REACTORS
330
43F
102
}
330
43F
100
AcDbDictionary
  3
ACMGSETTINGS
350
B84
  3
AMGLAYCFG
350
C4A
  0
DICTIONARY
  5
C57
102
{ACAD_REACTORS
330
43F
102
}
330
43F
100
AcDbDictionary
  3
DIMENSION
350
C5C
  3
FEA
350
C5B
  3
HATCH__1_
350
C58
  3
HATCH__2_
350
C59
  3
SIMPLE_WELD
350
C5D
  3
SYMBOLS
350
C5A
  0
ACAD_PROXY_OBJECT
  5
BC3
102
{ACAD_REACTORS
330
43F
102
}
330
43F
100
AcDbProxyObject
 90
      499
 91
      569
 93
       34
310
0500004282
 94
        0
1001
ACAD
1000
AcadProxyRoundTripData
1071
      528
1071
   655383
1070
     0
  0
ACAD_PROXY_OBJECT
  5
BC5
102
{ACAD_REACTORS
330
43F
102
}
330
43F
100
AcDbProxyObject
 90
      499
 91
      569
 93
      424
310
585315020000000000000000000000000000000000000000000000000000000000000000000000000000000000000000000000000000
330
BD8
330
BD9
330
BDA
330
BDB
330
BDC
330
BDD
330
BDE
330
BDF
330
BE0
330
BE1
330
BE2
330
BE3
330
BE4
330
BE5
330
BE6
330
BE7
330
BE8
330
BE9
330
BEA
330
BEB
330
BEC
330
BED
330
BEE
330
BEF
330
BF0
330
BF1
330
BF2
330
BF3
330
BF4
330
BF5
330
BF6
330
BF7
330
BF8
330
BF9
330
BFA
330
BFB
330
BFC
330
BFD
330
BFE
330
BFF
330
C00
330
C01
330
C02
330
C03
330
C04
330
C05
330
C06
330
C07
330
C08
 94
        0
1001
ACAD
1000
AcadProxyRoundTripData
1071
      530
1071
   655383
1070
     0
  0
ACAD_PROXY_OBJECT
  5
C33
102
{ACAD_REACTORS
330
43F
102
}
330
43F
100
AcDbProxyObject
 90
      499
 91
      569
 93
       74
310
05000049800000000013
330
C3A
330
0
330
C3B
330
0
330
0
 94
        0
1001
ACAD
1000
AcadProxyRoundTripData
1071
      550
1071
   655383
1070
     0
  0
ACAD_PROXY_OBJECT
  5
BC6
102
{ACAD_REACTORS
330
43F
102
}
330
43F
100
AcDbProxyObject
 90
      499
 91
      569
 93
      168
310
4C511482000000000000000000000000000000000000
330
BC7
330
BC8
330
BC9
330
BCA
330
BCB
330
BCC
330
BCD
330
BCE
330
BCF
330
BD0
330
BD1
330
BD2
330
BD3
330
BD4
330
BD5
330
BD6
330
BD7
 94
        0
1001
ACAD
1000
AcadProxyRoundTripData
1071
      508
1071
   655383
1070
     0
  0
ACAD_PROXY_OBJECT
  5
C2A
102
{ACAD_REACTORS
330
43F
102
}
330
43F
100
AcDbProxyObject
 90
      499
 91
      569
 93
       88
310
908422000000000000000000
330
C2B
330
C2C
330
C2D
330
C2E
330
C2F
330
C30
330
C31
330
C32
 94
        0
1001
ACAD
1000
AcadProxyRoundTripData
1071
      508
1071
   655383
1070
     0
  0
XRECORD
  5
C5F
102
{ACAD_REACTORS
330
43F
102
}
330
43F
100
AcDbXrecord
  1
DWGPROPS COOKIE
  2

  3

  4

  6

  7

  8

  9

300
AmdtFileType=84
301
=
302
=
303
=
304
=
305
=
306
=
307
=
308
=
309
=
 40
0.2981327083333333
 41
2449626.477632639
 42
2452594.414719271
  1

 90
        1
  0
ACAD_PROXY_OBJECT
  5
C0F
102
{ACAD_REACTORS
330
43F
102
}
330
43F
100
AcDbProxyObject
 90
      499
 91
      569
 93
        8
310
0500
 94
        0
1001
ACAD
1000
AcadProxyRoundTripData
1071
      538
1071
   655383
1070
     0
  0
ACAD_PROXY_OBJECT
  5
C0E
102
{ACAD_REACTORS
330
43F
102
}
330
43F
100
AcDbProxyObject
 90
      499
 91
      569
 93
        8
310
0400
 94
        0
1001
ACAD
1000
AcadProxyRoundTripData
1071
      537
1071
   655383
1070
     0
  0
DICTIONARY
  5
D17
102
{ACAD_REACTORS
330
D16
102
}
330
D16
100
AcDbDictionary
  3
*A1
350
D18
  0
XRECORD
  5
D4B
102
{ACAD_REACTORS
330
D16
102
}
330
D16
100
AcDbXrecord
340
451
  0
XRECORD
  5
D4A
102
{ACAD_REACTORS
330
D49
102
}
330
D49
100
AcDbXrecord
340
44D
  0
MLINESTYLE
  5
44A
102
{ACAD_REACTORS
330
449
102
}
330
449
100
AcDbMlineStyle
  2
STANDARD
 70
     0
  3

 62
   256
 51
90.0
 52
90.0
 71
     2
 49
0.5
 62
   256
  6
BYLAYER
 49
-0.5
 62
   256
  6
BYLAYER
  0
ACDBPLACEHOLDER
  5
442
102
{ACAD_REACTORS
330
441
102
}
330
441
100
AcDbPlaceHolder
280
     0
  0
XRECORD
  5
D32
102
{ACAD_REACTORS
330
D28
102
}
330
D28
100
AcDbXrecord
 90
        0
  0
XRECORD
  5
D36
102
{ACAD_REACTORS
330
D28
102
}
330
D28
100
AcDbXrecord
1000
DSTYLE
1002
{
1070
   279
 70
     2
1002
}
  0
XRECORD
  5
D33
102
{ACAD_REACTORS
330
D28
102
}
330
D28
100
AcDbXrecord
  1
{993260EE-F612-11D6-86FD-00C0F022E0C0}
  0
XRECORD
  5
D2B
102
{ACAD_REACTORS
330
D28
102
}
330
D28
100
AcDbXrecord
  1

  0
XRECORD
  5
D31
102
{ACAD_REACTORS
330
D28
102
}
330
D28
100
AcDbXrecord
 90
        0
  0
XRECORD
  5
D2D
102
{ACAD_REACTORS
330
D28
102
}
330
D28
100
AcDbXrecord
340
44C
  0
XRECORD
  5
D30
102
{ACAD_REACTORS
330
D28
102
}
330
D28
100
AcDbXrecord
 90
    10781
  0
XRECORD
  5
D2E
102
{ACAD_REACTORS
330
D28
102
}
330
D28
100
AcDbXrecord
340
44B
  0
XRECORD
  5
D2F
102
{ACAD_REACTORS
330
D28
102
}
330
D28
100
AcDbXrecord
340
441
  0
XRECORD
  5
D35
102
{ACAD_REACTORS
330
D28
102
}
330
D28
100
AcDbXrecord
 40
0.0
  0
XRECORD
  5
D39
102
{ACAD_REACTORS
330
D28
102
}
330
D28
100
AcDbXrecord
340
0
  0
XRECORD
  5
D3F
102
{ACAD_REACTORS
330
D28
102
}
330
D28
100
AcDbXrecord
 10
0.0
 20
0.0
 30
0.0
  0
XRECORD
  5
D3B
102
{ACAD_REACTORS
330
D28
102
}
330
D28
100
AcDbXrecord
 10
0.0
 20
0.0
 30
0.0
  0
XRECORD
  5
D3E
102
{ACAD_REACTORS
330
D28
102
}
330
D28
100
AcDbXrecord
 10
0.0
 20
0.0
 30
0.0
  0
XRECORD
  5
D3C
102
{ACAD_REACTORS
330
D28
102
}
330
D28
100
AcDbXrecord
 10
0.0
 20
0.0
 30
0.0
  0
XRECORD
  5
D3D
102
{ACAD_REACTORS
330
D28
102
}
330
D28
100
AcDbXrecord
 10
0.0
 20
0.0
 30
0.0
  0
XRECORD
  5
D3A
102
{ACAD_REACTORS
330
D28
102
}
330
D28
100
AcDbXrecord
 10
0.0
 20
0.0
 30
0.0
  0
XRECORD
  5
D37
102
{ACAD_REACTORS
330
D28
102
}
330
D28
100
AcDbXrecord
340
0
  0
XRECORD
  5
D38
102
{ACAD_REACTORS
330
D28
102
}
330
D28
100
AcDbXrecord
 70
     0
  0
XRECORD
  5
D2C
102
{ACAD_REACTORS
330
D28
102
}
330
D28
100
AcDbXrecord
  1
daz-exeeco.ctb
  0
XRECORD
  5
D29
102
{ACAD_REACTORS
330
D28
102
}
330
D28
100
AcDbXrecord
 90
        1
  0
XRECORD
  5
D2A
102
{ACAD_REACTORS
330
D28
102
}
330
D28
100
AcDbXrecord
 90
       70
  0
XRECORD
  5
D42
102
{ACAD_REACTORS
330
D28
102
}
330
D28
100
AcDbXrecord
340
0
  0
XRECORD
  5
D48
102
{ACAD_REACTORS
330
D28
102
}
330
D28
100
AcDbXrecord
 10
0.0
 20
0.0
 30
0.0
  0
XRECORD
  5
D44
102
{ACAD_REACTORS
330
D28
102
}
330
D28
100
AcDbXrecord
 10
0.0
 20
0.0
 30
0.0
  0
XRECORD
  5
D47
102
{ACAD_REACTORS
330
D28
102
}
330
D28
100
AcDbXrecord
 10
0.0
 20
0.0
 30
0.0
  0
XRECORD
  5
D45
102
{ACAD_REACTORS
330
D28
102
}
330
D28
100
AcDbXrecord
 10
0.0
 20
0.0
 30
0.0
  0
XRECORD
  5
D46
102
{ACAD_REACTORS
330
D28
102
}
330
D28
100
AcDbXrecord
 10
0.0
 20
0.0
 30
0.0
  0
XRECORD
  5
D43
102
{ACAD_REACTORS
330
D28
102
}
330
D28
100
AcDbXrecord
 10
0.0
 20
0.0
 30
0.0
  0
XRECORD
  5
D40
102
{ACAD_REACTORS
330
D28
102
}
330
D28
100
AcDbXrecord
340
0
  0
XRECORD
  5
D41
102
{ACAD_REACTORS
330
D28
102
}
330
D28
100
AcDbXrecord
 70
     0
  0
XRECORD
  5
D34
102
{ACAD_REACTORS
330
D28
102
}
330
D28
100
AcDbXrecord
  1
{125AA452-68C6-11D7-8737-00C0F022E0C0}
  0
DICTIONARYVAR
  5
B8F
102
{ACAD_REACTORS
330
B8E
102
}
330
B8E
100
DictionaryVariables
280
     0
  1
1
  0
ACAD_PROXY_OBJECT
  5
C3F
102
{ACAD_REACTORS
330
C3E
102
}
330
C3E
100
AcDbProxyObject
 90
      499
 91
      569
 93
      118
310
405010040CA904C415CD5B07545038
350
C40
 94
        0
1001
ACAD
1000
AcadProxyRoundTripData
1071
      557
1071
   655383
1070
     0
  0
ACAD_PROXY_OBJECT
  5
B91
330
0
100
AcDbProxyObject
 90
      499
 91
      569
 93
      156
310
00010143D050D351505391D5531054925390D495
330
B8C
 94
        0
1001
ACAD
1000
AcadProxyRoundTripData
1071
      509
1071
   655383
1070
     0
  0
ACAD_PROXY_OBJECT
  5
B92
330
0
100
AcDbProxyObject
 90
      499
 91
      569
 93
      148
310
000101439050D351531253915054925390D494
330
B8C
 94
        0
1001
ACAD
1000
AcadProxyRoundTripData
1071
      509
1071
   655383
1070
     0
  0
ACAD_PROXY_OBJECT
  5
B93
330
0
100
AcDbProxyObject
 90
      499
 91
      569
 93
      156
310
000101439050D35154D6535093D314D256915085
330
B8C
 94
        0
1001
ACAD
1000
AcadProxyRoundTripData
1071
      510
1071
   655383
1070
     0
  0
ACAD_PROXY_OBJECT
  5
B95
330
0
100
AcDbProxyObject
 90
      499
 91
      569
 93
       88
310
000101411093D34C402B0000
330
B8C
330
0
330
0
 94
        0
1001
ACAD
1000
AcadProxyRoundTripData
1071
      512
1071
   655383
1070
     0
  0
ACAD_PROXY_OBJECT
  5
B9C
330
0
100
AcDbProxyObject
 90
      499
 91
      569
 93
      382
310
0001014119185D1940508352E302E39302E39014119185D1940508352E302E39302E3940501000041905394D24CCC658
330
B8C
330
B9D
330
BA1
 94
        0
1001
ACAD
1000
AcadProxyRoundTripData
1071
      518
1071
   655383
1070
     0
  0
ACAD_PROXY_OBJECT
  5
B9D
330
0
100
AcDbProxyObject
 90
      499
 91
      569
 93
       48
310
00019014220011
330
B8C
330
B9E
 94
        0
1001
ACAD
1000
AcadProxyRoundTripData
1071
      519
1071
   655383
1070
     0
  0
ACAD_PROXY_OBJECT
  5
B9E
330
0
100
AcDbProxyObject
 90
      499
 91
      569
 93
       48
310
0001AA00000011
330
B8C
330
450
330
B9F
330
0
 94
        0
1001
ACAD
1000
AcadProxyRoundTripData
1071
      520
1071
   655383
1070
     0
  0
ACAD_PROXY_OBJECT
  5
B9F
330
0
100
AcDbProxyObject
 90
      499
 91
      569
 93
       28
310
0001AAA0
330
B8C
 94
        0
1001
ACAD
1000
AcadProxyRoundTripData
1071
      521
1071
   655383
1070
     0
  0
ACAD_PROXY_OBJECT
  5
BA2
330
0
100
AcDbProxyObject
 90
      499
 91
      569
 93
      108
310
000101421053521310D05310D010
330
B8C
 94
        0
1001
ACAD
1000
AcadProxyRoundTripData
1071
      510
1071
   655383
1070
     0
  0
ACAD_PROXY_OBJECT
  5
BA3
330
0
100
AcDbProxyObject
 90
      499
 91
      569
 93
      124
310
00010142905354915554D15112535010
330
B8C
 94
        0
1001
ACAD
1000
AcadProxyRoundTripData
1071
      510
1071
   655383
1070
     0
  0
ACAD_PROXY_OBJECT
  5
BA4
330
0
100
AcDbProxyObject
 90
      499
 91
      569
 93
      132
310
00010143105354D150D51253D391125360
330
B8C
 94
        0
1001
ACAD
1000
AcadProxyRoundTripData
1071
      510
1071
   655383
1070
     0
  0
ACAD_PROXY_OBJECT
  5
BA5
330
0
100
AcDbProxyObject
 90
      499
 91
      569
 93
      124
310
00010142905355941093D49111549013
330
B8C
 94
        0
1001
ACAD
1000
AcadProxyRoundTripData
1071
      510
1071
   655383
1070
     0
  0
ACAD_PROXY_OBJECT
  5
BA6
330
0
100
AcDbProxyObject
 90
      499
 91
      569
 93
      116
310
0001014290535115D1D0D3D313D4A0
330
B8C
 94
        0
1001
ACAD
1000
AcadProxyRoundTripData
1071
      510
1071
   655383
1070
     0
  0
ACAD_PROXY_OBJECT
  5
BA7
330
0
100
AcDbProxyObject
 90
      499
 91
      569
 93
      148
310
00010143505355925155D49151949154D21010
330
B8C
 94
        0
1001
ACAD
1000
AcadProxyRoundTripData
1071
      510
1071
   655383
1070
     0
  0
ACAD_PROXY_OBJECT
  5
BA8
330
0
100
AcDbProxyObject
 90
      499
 91
      569
 93
      172
310
00010144105350539393D51154149154D15495915010
330
B8C
 94
        0
1001
ACAD
1000
AcadProxyRoundTripData
1071
      510
1071
   655383
1070
     0
  0
ACAD_PROXY_OBJECT
  5
BAA
330
0
100
AcDbProxyObject
 90
      499
 91
      569
 93
      172
310
00010144105350555513D11253505494905391D15010
330
B8C
 94
        0
1001
ACAD
1000
AcadProxyRoundTripData
1071
      510
1071
   655383
1070
     0
  0
ACAD_PROXY_OBJECT
  5
BAB
330
0
100
AcDbProxyObject
 90
      499
 91
      569
 93
      124
310
00010142D05351561514915191125364
330
B8C
 94
        0
1001
ACAD
1000
AcadProxyRoundTripData
1071
      510
1071
   655383
1070
     0
  0
ACAD_PROXY_OBJECT
  5
BAC
330
0
100
AcDbProxyObject
 90
      499
 91
      569
 93
      132
310
00010142D05355105410539393D5115010
330
B8C
 94
        0
1001
ACAD
1000
AcadProxyRoundTripData
1071
      510
1071
   655383
1070
     0
  0
ACAD_PROXY_OBJECT
  5
BAD
330
0
100
AcDbProxyObject
 90
      499
 91
      569
 93
      108
310
00010142105350555513D0D31015
330
B8C
 94
        0
1001
ACAD
1000
AcadProxyRoundTripData
1071
      510
1071
   655383
1070
     0
  0
ACAD_PROXY_OBJECT
  5
BAE
330
0
100
AcDbProxyObject
 90
      499
 91
      569
 93
      108
310
00010142105350D3119150551055
330
B8C
 94
        0
1001
ACAD
1000
AcadProxyRoundTripData
1071
      510
1071
   655383
1070
     0
  0
ACAD_PROXY_OBJECT
  5
BAF
330
0
100
AcDbProxyObject
 90
      499
 91
      569
 93
      108
310
00010142105350D315925155D3F5
330
B8C
 94
        0
1001
ACAD
1000
AcadProxyRoundTripData
1071
      510
1071
   655383
1070
     0
  0
ACAD_PROXY_OBJECT
  5
BB0
330
0
100
AcDbProxyObject
 90
      499
 91
      569
 93
      148
310
0001014350535212511156915493D112535011
330
B8C
 94
        0
1001
ACAD
1000
AcadProxyRoundTripData
1071
      510
1071
   655383
1070
     0
  0
ACAD_PROXY_OBJECT
  5
BB1
330
0
100
AcDbProxyObject
 90
      499
 91
      569
 93
      116
310
00010142905352105510D21254D3E1
330
B8C
 94
        0
1001
ACAD
1000
AcadProxyRoundTripData
1071
      510
1071
   655383
1070
     0
  0
ACAD_PROXY_OBJECT
  5
BB2
330
0
100
AcDbProxyObject
 90
      499
 91
      569
 93
      148
310
00010143905354D25391D31152105513105661
330
B8C
 94
        0
1001
ACAD
1000
AcadProxyRoundTripData
1071
      510
1071
   655383
1070
     0
  0
ACAD_PROXY_OBJECT
  5
BB3
330
0
100
AcDbProxyObject
 90
      499
 91
      569
 93
      124
310
00010142D0535115D1D193111254D423
330
B8C
 94
        0
1001
ACAD
1000
AcadProxyRoundTripData
1071
      510
1071
   655383
1070
     0
  0
ACAD_PROXY_OBJECT
  5
BB4
330
0
100
AcDbProxyObject
 90
      499
 91
      569
 93
      100
310
00010142105350555513D213A2
330
B8C
 94
        0
1001
ACAD
1000
AcadProxyRoundTripData
1071
      510
1071
   655383
1070
     0
  0
ACAD_PROXY_OBJECT
  5
BB5
330
0
100
AcDbProxyObject
 90
      499
 91
      569
 93
      116
310
000101425053521390D3D553951014
330
B8C
 94
        0
1001
ACAD
1000
AcadProxyRoundTripData
1071
      510
1071
   655383
1070
     0
  0
ACAD_PROXY_OBJECT
  5
BB6
330
0
100
AcDbProxyObject
 90
      499
 91
      569
 93
      108
310
0001014210535213941493D29010
330
B8C
 94
        0
1001
ACAD
1000
AcadProxyRoundTripData
1071
      510
1071
   655383
1070
     0
  0
ACAD_PROXY_OBJECT
  5
BB7
330
0
100
AcDbProxyObject
 90
      499
 91
      569
 93
      108
310
0001014210535213951654115070
330
B8C
 94
        0
1001
ACAD
1000
AcadProxyRoundTripData
1071
      510
1071
   655383
1070
     0
  0
ACAD_PROXY_OBJECT
  5
BB8
330
0
100
AcDbProxyObject
 90
      499
 91
      569
 93
      108
310
000101421053521395925155D0F0
330
B8C
 94
        0
1001
ACAD
1000
AcadProxyRoundTripData
1071
      510
1071
   655383
1070
     0
  0
ACAD_PROXY_OBJECT
  5
BB9
330
0
100
AcDbProxyObject
 90
      499
 91
      569
 93
      140
310
00010143505354D150D51253D390D3D41666
330
B8C
 94
        0
1001
ACAD
1000
AcadProxyRoundTripData
1071
      510
1071
   655383
1070
     0
  0
ACAD_PROXY_OBJECT
  5
BBA
330
0
100
AcDbProxyObject
 90
      499
 91
      569
 93
      108
310
00010142105350D3141493D29030
330
B8C
 94
        0
1001
ACAD
1000
AcadProxyRoundTripData
1071
      510
1071
   655383
1070
     0
  0
ACAD_PROXY_OBJECT
  5
BC7
330
0
100
AcDbProxyObject
 90
      499
 91
      569
 93
      116
310
000101425053541051D15311539190
330
B8C
 94
        0
1001
ACAD
1000
AcadProxyRoundTripData
1071
      510
1071
   655383
1070
     0
  0
ACAD_PROXY_OBJECT
  5
BC8
330
0
100
AcDbProxyObject
 90
      499
 91
      569
 93
      108
310
000101421053555312539154D051
330
B8C
 94
        0
1001
ACAD
1000
AcadProxyRoundTripData
1071
      510
1071
   655383
1070
     0
  0
ACAD_PROXY_OBJECT
  5
BC9
330
0
100
AcDbProxyObject
 90
      499
 91
      569
 93
      108
310
000101421053559312539154D031
330
B8C
 94
        0
1001
ACAD
1000
AcadProxyRoundTripData
1071
      510
1071
   655383
1070
     0
  0
ACAD_PROXY_OBJECT
  5
BCA
330
0
100
AcDbProxyObject
 90
      499
 91
      569
 93
      140
310
00010143105354D1911254D41353D1115010
330
B8C
 94
        0
1001
ACAD
1000
AcadProxyRoundTripData
1071
      510
1071
   655383
1070
     0
  0
ACAD_PROXY_OBJECT
  5
BCB
330
0
100
AcDbProxyObject
 90
      499
 91
      569
 93
      172
310
00010142505354119255105391C1C052DC9A6F104400
330
B8C
 94
        0
1001
ACAD
1000
AcadProxyRoundTripData
1071
      509
1071
   655383
1070
     0
  0
ACAD_PROXY_OBJECT
  5
BCC
330
0
100
AcDbProxyObject
 90
      499
 91
      569
 93
      164
310
000101421053559150D05551C000000000000E03F4
330
B8C
 94
        0
1001
ACAD
1000
AcadProxyRoundTripData
1071
      509
1071
   655383
1070
     0
  0
ACAD_PROXY_OBJECT
  5
BCD
330
0
100
AcDbProxyObject
 90
      499
 91
      569
 93
      180
310
00010142905350931153911513D307B14AE47E17A843F0
330
B8C
 94
        0
1001
ACAD
1000
AcadProxyRoundTripData
1071
      509
1071
   655383
1070
     0
  0
ACAD_PROXY_OBJECT
  5
BCE
330
0
100
AcDbProxyObject
 90
      499
 91
      569
 93
      172
310
0001014250535293D25391D05407B14AE47E17A843F3
330
B8C
 94
        0
1001
ACAD
1000
AcadProxyRoundTripData
1071
      509
1071
   655383
1070
     0
  0
ACAD_PROXY_OBJECT
  5
BCF
330
0
100
AcDbProxyObject
 90
      499
 91
      569
 93
      172
310
000101425053541192551311538000000FC83D797413
330
B8C
 94
        0
1001
ACAD
1000
AcadProxyRoundTripData
1071
      509
1071
   655383
1070
     0
  0
ACAD_PROXY_OBJECT
  5
BD0
330
0
100
AcDbProxyObject
 90
      499
 91
      569
 93
      156
310
00010141D053559150D4D18000000000000E03F9
330
B8C
 94
        0
1001
ACAD
1000
AcadProxyRoundTripData
1071
      509
1071
   655383
1070
     0
  0
ACAD_PROXY_OBJECT
  5
BD1
330
0
100
AcDbProxyObject
 90
      499
 91
      569
 93
      156
310
00010141D05354D19513D30FCA9F1D24D62503F9
330
B8C
 94
        0
1001
ACAD
1000
AcadProxyRoundTripData
1071
      509
1071
   655383
1070
     0
  0
ACAD_PROXY_OBJECT
  5
BD2
330
0
100
AcDbProxyObject
 90
      499
 91
      569
 93
      172
310
000101425053541192551513D307B14AE47E17A843F3
330
B8C
 94
        0
1001
ACAD
1000
AcadProxyRoundTripData
1071
      509
1071
   655383
1070
     0
  0
ACAD_PROXY_OBJECT
  5
BD3
330
0
100
AcDbProxyObject
 90
      499
 91
      569
 93
      188
310
00010142D05354D151D192551513D307B14AE47E17A843F0
330
B8C
 94
        0
1001
ACAD
1000
AcadProxyRoundTripData
1071
      509
1071
   655383
1070
     0
  0
ACAD_PROXY_OBJECT
  5
BD4
330
0
100
AcDbProxyObject
 90
      499
 91
      569
 93
      148
310
000101419053541311538000000FC83D797414
330
B8C
 94
        0
1001
ACAD
1000
AcadProxyRoundTripData
1071
      509
1071
   655383
1070
     0
  0
ACAD_PROXY_OBJECT
  5
BD5
330
0
100
AcDbProxyObject
 90
      499
 91
      569
 93
      172
310
00010142505354105391D513D301C052DC9A6F104408
330
B8C
 94
        0
1001
ACAD
1000
AcadProxyRoundTripData
1071
      509
1071
   655383
1070
     0
  0
ACAD_PROXY_OBJECT
  5
BD6
330
0
100
AcDbProxyObject
 90
      499
 91
      569
 93
      132
310
0001014114D2569140000000000002440C
330
B8C
 94
        0
1001
ACAD
1000
AcadProxyRoundTripData
1071
      509
1071
   655383
1070
     0
  0
ACAD_PROXY_OBJECT
  5
BD7
330
0
100
AcDbProxyObject
 90
      499
 91
      569
 93
      156
310
00010142905351D4941491519256005034153470
330
B8C
 94
        0
1001
ACAD
1000
AcadProxyRoundTripData
1071
      531
1071
   655383
1070
     0
  0
ACAD_PROXY_OBJECT
  5
BD8
330
0
100
AcDbProxyObject
 90
      499
 91
      569
 93
      314
310
00014080509646973745363616C650000000000003C2FC000000000000F0BF0000003F20F5E5D040
330
B8C
 94
        0
1001
ACAD
1000
AcadProxyRoundTripData
1071
      532
1071
   655383
1070
     0
  0
ACAD_PROXY_OBJECT
  5
BD9
330
0
100
AcDbProxyObject
 90
      499
 91
      569
 93
      322
310
0001408050A65646175526F74617465060B51153EC87E4FC182D4454FB2119C0060B51153EC8465000
330
B8C
 94
        0
1001
ACAD
1000
AcadProxyRoundTripData
1071
      532
1071
   655383
1070
     0
  0
ACAD_PROXY_OBJECT
  5
BDA
330
0
100
AcDbProxyObject
 90
      499
 91
      569
 93
      314
310
00014080509656461755477697374060B51153EC846500000000FC83D797C10000003F20F5E5D050
330
B8C
 94
        0
1001
ACAD
1000
AcadProxyRoundTripData
1071
      532
1071
   655383
1070
     0
  0
ACAD_PROXY_OBJECT
  5
BDB
330
0
100
AcDbProxyObject
 90
      499
 91
      569
 93
      286
310
000140C050A656467654F75747075740144941BDB1E5B1A5B994817D41BDB1E5B1A5B994
330
B8C
 94
        0
1001
ACAD
1000
AcadProxyRoundTripData
1071
      533
1071
   655383
1070
     0
  0
ACAD_PROXY_OBJECT
  5
BDC
330
0
100
AcDbProxyObject
 90
      499
 91
      569
 93
      154
310
0001404050B6564697450726576696577406407D
330
B8C
 94
        0
1001
ACAD
1000
AcadProxyRoundTripData
1071
      534
1071
   655383
1070
     0
  0
ACAD_PROXY_OBJECT
  5
BDD
330
0
100
AcDbProxyObject
 90
      499
 91
      569
 93
      170
310
0001404050A666C6F77556C696E657342A3A00C00025
330
B8C
 94
        0
1001
ACAD
1000
AcadProxyRoundTripData
1071
      534
1071
   655383
1070
     0
  0
ACAD_PROXY_OBJECT
  5
BDE
330
0
100
AcDbProxyObject
 90
      499
 91
      569
 93
      170
310
0001404050A666C6F77566C696E657342A3A00C00025
330
B8C
 94
        0
1001
ACAD
1000
AcadProxyRoundTripData
1071
      534
1071
   655383
1070
     0
  0
ACAD_PROXY_OBJECT
  5
BDF
330
0
100
AcDbProxyObject
 90
      499
 91
      569
 93
      322
310
0001408050A666C7366456E645261640000000000003C2FC000000000000F0BF0000003F20F5E5D040
330
B8C
 94
        0
1001
ACAD
1000
AcadProxyRoundTripData
1071
      532
1071
   655383
1070
     0
  0
ACAD_PROXY_OBJECT
  5
BE0
330
0
100
AcDbProxyObject
 90
      499
 91
      569
 93
      238
310
000140C05086A6E33644D6F6465014393585B9D585B0817D3585B9D585B0
330
B8C
 94
        0
1001
ACAD
1000
AcadProxyRoundTripData
1071
      533
1071
   655383
1070
     0
  0
ACAD_PROXY_OBJECT
  5
BE1
330
0
100
AcDbProxyObject
 90
      499
 91
      569
 93
      286
310
000140C050A6A6E33644F75747075740144941BDB1E5B1A5B994817D41BDB1E5B1A5B997
330
B8C
 94
        0
1001
ACAD
1000
AcadProxyRoundTripData
1071
      533
1071
   655383
1070
     0
  0
ACAD_PROXY_OBJECT
  5
BE2
330
0
100
AcDbProxyObject
 90
      499
 91
      569
 93
      306
310
000140805086C656E675065726300000000002016D002D431CEBE2361A3F0000003F20F5E5D065
330
B8C
 94
        0
1001
ACAD
1000
AcadProxyRoundTripData
1071
      532
1071
   655383
1070
     0
  0
ACAD_PROXY_OBJECT
  5
BE3
330
0
100
AcDbProxyObject
 90
      499
 91
      569
 93
      266
310
0001408050B6D61737344656E7369747942D431CEBE2361A3F0000003F20F5E5D07F
330
B8C
 94
        0
1001
ACAD
1000
AcadProxyRoundTripData
1071
      532
1071
   655383
1070
     0
  0
ACAD_PROXY_OBJECT
  5
BE4
330
0
100
AcDbProxyObject
 90
      499
 91
      569
 93
      186
310
000140805096D617373546869636BA0000003F20F5E5D05A
330
B8C
 94
        0
1001
ACAD
1000
AcadProxyRoundTripData
1071
      532
1071
   655383
1070
     0
  0
ACAD_PROXY_OBJECT
  5
BE5
330
0
100
AcDbProxyObject
 90
      499
 91
      569
 93
      222
310
000140C05086D61737354797065014314DA195B1B0817D4DA195B1B0
330
B8C
 94
        0
1001
ACAD
1000
AcadProxyRoundTripData
1071
      533
1071
   655383
1070
     0
  0
ACAD_PROXY_OBJECT
  5
BE6
330
0
100
AcDbProxyObject
 90
      499
 91
      569
 93
      242
310
000140805086F667366446973744000000FC83D797C10000003F20F5E5D075
330
B8C
 94
        0
1001
ACAD
1000
AcadProxyRoundTripData
1071
      532
1071
   655383
1070
     0
  0
ACAD_PROXY_OBJECT
  5
BE7
330
0
100
AcDbProxyObject
 90
      499
 91
      569
 93
      258
310
0001408050A7072696D52616469757342D431CEBE2361A3F0000003F20F5E5D050
330
B8C
 94
        0
1001
ACAD
1000
AcadProxyRoundTripData
1071
      532
1071
   655383
1070
     0
  0
ACAD_PROXY_OBJECT
  5
BE8
330
0
100
AcDbProxyObject
 90
      499
 91
      569
 93
      194
310
0001408050A7072696D546F70526164A0000003F20F5E5D040
330
B8C
 94
        0
1001
ACAD
1000
AcadProxyRoundTripData
1071
      532
1071
   655383
1070
     0
  0
ACAD_PROXY_OBJECT
  5
BE9
330
0
100
AcDbProxyObject
 90
      499
 91
      569
 93
      266
310
0001408050B7072696D5475626552616442D431CEBE2361A3F0000003F20F5E5D07F
330
B8C
 94
        0
1001
ACAD
1000
AcadProxyRoundTripData
1071
      532
1071
   655383
1070
     0
  0
ACAD_PROXY_OBJECT
  5
BEA
330
0
100
AcDbProxyObject
 90
      499
 91
      569
 93
      258
310
0001408050A7072696D4865696768744000000FC83D797C10000003F20F5E5D050
330
B8C
 94
        0
1001
ACAD
1000
AcadProxyRoundTripData
1071
      532
1071
   655383
1070
     0
  0
ACAD_PROXY_OBJECT
  5
BEB
330
0
100
AcDbProxyObject
 90
      499
 91
      569
 93
      250
310
000140805097072696D5374416E678182D4454FB2119C0060B51153EC8465010
330
B8C
 94
        0
1001
ACAD
1000
AcadProxyRoundTripData
1071
      532
1071
   655383
1070
     0
  0
ACAD_PROXY_OBJECT
  5
BEC
330
0
100
AcDbProxyObject
 90
      499
 91
      569
 93
      322
310
0001408050A7072696D456E64416E67060B51153EC846500182D4454FB2119C0060B51153EC8465000
330
B8C
 94
        0
1001
ACAD
1000
AcadProxyRoundTripData
1071
      532
1071
   655383
1070
     0
  0
ACAD_PROXY_OBJECT
  5
BED
330
0
100
AcDbProxyObject
 90
      499
 91
      569
 93
      242
310
000140805087265765374416E678182D4454FB2119C0060B51153EC8465019
330
B8C
 94
        0
1001
ACAD
1000
AcadProxyRoundTripData
1071
      532
1071
   655383
1070
     0
  0
ACAD_PROXY_OBJECT
  5
BEE
330
0
100
AcDbProxyObject
 90
      499
 91
      569
 93
      314
310
00014080509726576456E64416E67060B51153EC846500182D4454FB2119C0060B51153EC8465010
330
B8C
 94
        0
1001
ACAD
1000
AcadProxyRoundTripData
1071
      532
1071
   655383
1070
     0
  0
ACAD_PROXY_OBJECT
  5
BEF
330
0
100
AcDbProxyObject
 90
      499
 91
      569
 93
      194
310
0001404050C7266736655706174636865734290139C0C0002D
330
B8C
 94
        0
1001
ACAD
1000
AcadProxyRoundTripData
1071
      534
1071
   655383
1070
     0
  0
ACAD_PROXY_OBJECT
  5
BF0
330
0
100
AcDbProxyObject
 90
      499
 91
      569
 93
      194
310
0001404050C7266736656706174636865734290139C0C0002D
330
B8C
 94
        0
1001
ACAD
1000
AcadProxyRoundTripData
1071
      534
1071
   655383
1070
     0
  0
ACAD_PROXY_OBJECT
  5
BF1
330
0
100
AcDbProxyObject
 90
      499
 91
      569
 93
      238
310
000140C0508747562654D6F6465014393585B9D585B0817D3585B9D585B1
330
B8C
 94
        0
1001
ACAD
1000
AcadProxyRoundTripData
1071
      533
1071
   655383
1070
     0
  0
ACAD_PROXY_OBJECT
  5
BF2
330
0
100
AcDbProxyObject
 90
      499
 91
      569
 93
      274
310
0001408050C747562654469616D6574657242D431CEBE2361A3F0000003F20F5E5D055
330
B8C
 94
        0
1001
ACAD
1000
AcadProxyRoundTripData
1071
      532
1071
   655383
1070
     0
  0
ACAD_PROXY_OBJECT
  5
BF3
330
0
100
AcDbProxyObject
 90
      499
 91
      569
 93
      130
310
00014040509696E746572506F6C79A4057
330
B8C
 94
        0
1001
ACAD
1000
AcadProxyRoundTripData
1071
      534
1071
   655383
1070
     0
  0
ACAD_PROXY_OBJECT
  5
BF4
330
0
100
AcDbProxyObject
 90
      499
 91
      569
 93
      162
310
0001404050D696E746572417567506F696E74A405C
330
B8C
 94
        0
1001
ACAD
1000
AcadProxyRoundTripData
1071
      534
1071
   655383
1070
     0
  0
ACAD_PROXY_OBJECT
  5
BF5
330
0
100
AcDbProxyObject
 90
      499
 91
      569
 93
      214
310
000140C0509696E7465727472696D0142909BDD1A0817D09BDD1A0
330
B8C
 94
        0
1001
ACAD
1000
AcadProxyRoundTripData
1071
      533
1071
   655383
1070
     0
  0
ACAD_PROXY_OBJECT
  5
BF6
330
0
100
AcDbProxyObject
 90
      499
 91
      569
 93
      214
310
000140C0509696E746572747970650142951C9A5B4817D51C9A5B4
330
B8C
 94
        0
1001
ACAD
1000
AcadProxyRoundTripData
1071
      533
1071
   655383
1070
     0
  0
ACAD_PROXY_OBJECT
  5
BF7
330
0
100
AcDbProxyObject
 90
      499
 91
      569
 93
      146
310
0001404050A636F726E65727472696D4064049
330
B8C
 94
        0
1001
ACAD
1000
AcadProxyRoundTripData
1071
      534
1071
   655383
1070
     0
  0
ACAD_PROXY_OBJECT
  5
BF8
330
0
100
AcDbProxyObject
 90
      499
 91
      569
 93
      130
310
000140405086F6673666B6565704064046
330
B8C
 94
        0
1001
ACAD
1000
AcadProxyRoundTripData
1071
      534
1071
   655383
1070
     0
  0
ACAD_PROXY_OBJECT
  5
BF9
330
0
100
AcDbProxyObject
 90
      499
 91
      569
 93
      146
310
0001404050A70726F6A4F757470757440A40C9
330
B8C
 94
        0
1001
ACAD
1000
AcadProxyRoundTripData
1071
      534
1071
   655383
1070
     0
  0
ACAD_PROXY_OBJECT
  5
BFA
330
0
100
AcDbProxyObject
 90
      499
 91
      569
 93
      246
310
000140C050D70726F6A446972656374696F6E01429D92595DC817DD92595DC
330
B8C
 94
        0
1001
ACAD
1000
AcadProxyRoundTripData
1071
      533
1071
   655383
1070
     0
  0
ACAD_PROXY_OBJECT
  5
BFB
330
0
100
AcDbProxyObject
 90
      499
 91
      569
 93
      130
310
0001404050870726F6A4B6565704064056
330
B8C
 94
        0
1001
ACAD
1000
AcadProxyRoundTripData
1071
      534
1071
   655383
1070
     0
  0
ACAD_PROXY_OBJECT
  5
BFC
330
0
100
AcDbProxyObject
 90
      499
 91
      569
 93
      278
310
000140C050B70726F6A53706163696E67014413DC1D1A5B585B0817D3DC1D1A5B585B1
330
B8C
 94
        0
1001
ACAD
1000
AcadProxyRoundTripData
1071
      533
1071
   655383
1070
     0
  0
ACAD_PROXY_OBJECT
  5
BFD
330
0
100
AcDbProxyObject
 90
      499
 91
      569
 93
      250
310
0001408050970726F6A54617065728182D4454FB21F9BF060B51153EC87E4FE5
330
B8C
 94
        0
1001
ACAD
1000
AcadProxyRoundTripData
1071
      532
1071
   655383
1070
     0
  0
ACAD_PROXY_OBJECT
  5
BFE
330
0
100
AcDbProxyObject
 90
      499
 91
      569
 93
      130
310
00014040508647261674B656570406406D
330
B8C
 94
        0
1001
ACAD
1000
AcadProxyRoundTripData
1071
      534
1071
   655383
1070
     0
  0
ACAD_PROXY_OBJECT
  5
BFF
330
0
100
AcDbProxyObject
 90
      499
 91
      569
 93
      294
310
000140C050F647261674F7269656E746174696F6E0143939BDC9B585B0817D39BDC9B585B0
330
B8C
 94
        0
1001
ACAD
1000
AcadProxyRoundTripData
1071
      533
1071
   655383
1070
     0
  0
ACAD_PROXY_OBJECT
  5
C00
330
0
100
AcDbProxyObject
 90
      499
 91
      569
 93
      270
310
000140C050E647261675472616E736974696F6E01431CD0D85B194817DCD0D85B195
330
B8C
 94
        0
1001
ACAD
1000
AcadProxyRoundTripData
1071
      533
1071
   655383
1070
     0
  0
ACAD_PROXY_OBJECT
  5
C01
330
0
100
AcDbProxyObject
 90
      499
 91
      569
 93
      302
310
000140C051061646A757374436F6E74696E75697479014394DB5BDBDD1A0817D4DB5BDBDD1A2
330
B8C
 94
        0
1001
ACAD
1000
AcadProxyRoundTripData
1071
      533
1071
   655383
1070
     0
  0
ACAD_PROXY_OBJECT
  5
C02
330
0
100
AcDbProxyObject
 90
      499
 91
      569
 93
      138
310
0001404050A61646A7573744B656570A4067
330
B8C
 94
        0
1001
ACAD
1000
AcadProxyRoundTripData
1071
      534
1071
   655383
1070
     0
  0
ACAD_PROXY_OBJECT
  5
C03
330
0
100
AcDbProxyObject
 90
      499
 91
      569
 93
      250
310
0001408050972756C65576964746842D431CEBE2361A3F0000003F20F5E5D07D
330
B8C
 94
        0
1001
ACAD
1000
AcadProxyRoundTripData
1071
      532
1071
   655383
1070
     0
  0
ACAD_PROXY_OBJECT
  5
C04
330
0
100
AcDbProxyObject
 90
      499
 91
      569
 93
      274
310
0001408050C616E616C797A65447261667421D139D28615ED8FE060B51153EC842503D
330
B8C
 94
        0
1001
ACAD
1000
AcadProxyRoundTripData
1071
      532
1071
   655383
1070
     0
  0
ACAD_PROXY_OBJECT
  5
C05
330
0
100
AcDbProxyObject
 90
      499
 91
      569
 93
      210
310
0001404050F616E616C797A654E756D4C696E65734163FDFC00006
330
B8C
 94
        0
1001
ACAD
1000
AcadProxyRoundTripData
1071
      534
1071
   655383
1070
     0
  0
ACAD_PROXY_OBJECT
  5
C06
330
0
100
AcDbProxyObject
 90
      499
 91
      569
 93
      202
310
00014040512616E616C797A65526F746174654C696E6573A4040
330
B8C
 94
        0
1001
ACAD
1000
AcadProxyRoundTripData
1071
      534
1071
   655383
1070
     0
  0
ACAD_PROXY_OBJECT
  5
C07
330
0
100
AcDbProxyObject
 90
      499
 91
      569
 93
      210
310
00014040513616E616C797A65446973706C61794C696E6573A4046
330
B8C
 94
        0
1001
ACAD
1000
AcadProxyRoundTripData
1071
      534
1071
   655383
1070
     0
  0
ACAD_PROXY_OBJECT
  5
C08
330
0
100
AcDbProxyObject
 90
      499
 91
      569
 93
      258
310
00014040519616E616C797A655472616E736C7563656E7453757266616365A4042
330
B8C
 94
        0
1001
ACAD
1000
AcadProxyRoundTripData
1071
      534
1071
   655383
1070
     0
  0
ACAD_PROXY_OBJECT
  5
C11
330
0
100
AcDbProxyObject
 90
      499
 91
      569
 93
      714
310
0001000000009AA6A9AA4051E4D6F6E204170722030372030383A35333A3539203230303320285554432901420D4B8C0B8E4C0B8E405184D6F6E204170722030372030393A35343A3234203230303301420D4B8C0B8E4C0B8E41
330
B8C
330
C12
330
C13
330
C15
330
0
 94
        0
1001
ACAD
1000
AcadProxyRoundTripData
1071
      540
1071
   655383
1070
     0
  0
ACAD_PROXY_OBJECT
  5
C12
330
0
100
AcDbProxyObject
 90
      499
 91
      569
 93
       70
310
0001AAA80820000001
330
B8C
330
C12
330
C12
 94
        0
1001
ACAD
1000
AcadProxyRoundTripData
1071
      541
1071
   655383
1070
     0
  0
ACAD_PROXY_OBJECT
  5
C13
330
0
100
AcDbProxyObject
 90
      499
 91
      569
 93
       48
310
00010000000011
330
B8C
330
0
330
C14
330
0
330
0
 94
        0
1001
ACAD
1000
AcadProxyRoundTripData
1071
      542
1071
   655383
1070
     0
  0
ACAD_PROXY_OBJECT
  5
C14
330
0
100
AcDbProxyObject
 90
      499
 91
      569
 93
       40
310
000100AAAA00
330
B8C
330
0
 94
        0
1001
ACAD
1000
AcadProxyRoundTripData
1071
      543
1071
   655383
1070
     0
  0
ACAD_PROXY_OBJECT
  5
C16
330
0
100
AcDbProxyObject
 90
      499
 91
      569
 93
      124
310
00010142905350D3D39114D414D69050
330
B8C
 94
        0
1001
ACAD
1000
AcadProxyRoundTripData
1071
      510
1071
   655383
1070
     0
  0
ACAD_PROXY_OBJECT
  5
C17
330
0
100
AcDbProxyObject
 90
      499
 91
      569
 93
      124
310
000101429053549553115353D1115010
330
B8C
 94
        0
1001
ACAD
1000
AcadProxyRoundTripData
1071
      510
1071
   655383
1070
     0
  0
ACAD_PROXY_OBJECT
  5
C18
330
0
100
AcDbProxyObject
 90
      499
 91
      569
 93
      108
310
00010142105354D2D353D1115011
330
B8C
 94
        0
1001
ACAD
1000
AcadProxyRoundTripData
1071
      510
1071
   655383
1070
     0
  0
ACAD_PROXY_OBJECT
  5
C19
330
0
100
AcDbProxyObject
 90
      499
 91
      569
 93
      140
310
000101435053511253511254D41353D11167
330
B8C
 94
        0
1001
ACAD
1000
AcadProxyRoundTripData
1071
      510
1071
   655383
1070
     0
  0
ACAD_PROXY_OBJECT
  5
C1A
330
0
100
AcDbProxyObject
 90
      499
 91
      569
 93
      180
310
00010142905354D2D05391D513D3000000000000010402
330
B8C
 94
        0
1001
ACAD
1000
AcadProxyRoundTripData
1071
      509
1071
   655383
1070
     0
  0
ACAD_PROXY_OBJECT
  5
C1B
330
0
100
AcDbProxyObject
 90
      499
 91
      569
 93
      164
310
00010142505354D2D4D516531140505434F4E542A1
330
B8C
 94
        0
1001
ACAD
1000
AcadProxyRoundTripData
1071
      531
1071
   655383
1070
     0
  0
ACAD_PROXY_OBJECT
  5
C1C
330
0
100
AcDbProxyObject
 90
      499
 91
      569
 93
      108
310
00010142105350D3511112535010
330
B8C
 94
        0
1001
ACAD
1000
AcadProxyRoundTripData
1071
      510
1071
   655383
1070
     0
  0
ACAD_PROXY_OBJECT
  5
C1D
330
0
100
AcDbProxyObject
 90
      499
 91
      569
 93
      108
310
00010142105350D3D35414D59010
330
B8C
 94
        0
1001
ACAD
1000
AcadProxyRoundTripData
1071
      510
1071
   655383
1070
     0
  0
ACAD_PROXY_OBJECT
  5
C1E
330
0
100
AcDbProxyObject
 90
      499
 91
      569
 93
      164
310
0001014290535410549514D4119600504504152541
330
B8C
 94
        0
1001
ACAD
1000
AcadProxyRoundTripData
1071
      531
1071
   655383
1070
     0
  0
ACAD_PROXY_OBJECT
  5
C1F
330
0
100
AcDbProxyObject
 90
      499
 91
      569
 93
      220
310
0001014350535513D3D31093D11654119600508544F4F4C424F44593
330
B8C
 94
        0
1001
ACAD
1000
AcadProxyRoundTripData
1071
      531
1071
   655383
1070
     0
  0
ACAD_PROXY_OBJECT
  5
C20
330
0
100
AcDbProxyObject
 90
      499
 91
      569
 93
      116
310
000101425053511254D410D3D39014
330
B8C
 94
        0
1001
ACAD
1000
AcadProxyRoundTripData
1071
      510
1071
   655383
1070
     0
  0
ACAD_PROXY_OBJECT
  5
C21
330
0
100
AcDbProxyObject
 90
      499
 91
      569
 93
      108
310
00010142105350D3D39114D41010
330
B8C
 94
        0
1001
ACAD
1000
AcadProxyRoundTripData
1071
      510
1071
   655383
1070
     0
  0
ACAD_PROXY_OBJECT
  5
C22
330
0
100
AcDbProxyObject
 90
      499
 91
      569
 93
      124
310
0001014290535490511114D414D69191
330
B8C
 94
        0
1001
ACAD
1000
AcadProxyRoundTripData
1071
      510
1071
   655383
1070
     0
  0
ACAD_PROXY_OBJECT
  5
C24
330
0
100
AcDbProxyObject
 90
      499
 91
      569
 93
     3100
310
0001419088050A544852555F4452494C4C0142D09312539117D1149253130050A544852555F43424F52450142D09312539117D0D093D4914050A544852555F4353494E4B0142D09312539117D0D4D25392D0642201449EC94958C80949505351125048151214955F4051C7B252563202525414D4449412058202525414D444
310
55020444545507D014E5EC94958C80949505351125048151214955F57141ED0D093D49148094958C80949505350D112504816080949505350D091115408111151541F405437B252563202525414D4449412058202525414D44455020444545507D5C507B43424F524520252563202525414D434449412058202525414D4342
310
44455020444545507D014DDEC94958C80949505351125048151214955F57141ED0D4D25392C8094958C80949505350D112504816080949505350D4D05391C949591F405417B252563202525414D4449412058202525414D44455020444545507D5C507B4353494E4B20252563202525414D434449412058202525414D43534
310
14E472525647D0
330
B8C
 94
        0
1001
ACAD
1000
AcadProxyRoundTripData
1071
      545
1071
   655383
1070
     0
  0
ACAD_PROXY_OBJECT
  5
C26
330
0
100
AcDbProxyObject
 90
      499
 91
      569
 93
      140
310
00010143105354D554141490D3D313D49A61
330
B8C
 94
        0
1001
ACAD
1000
AcadProxyRoundTripData
1071
      510
1071
   655383
1070
     0
  0
ACAD_PROXY_OBJECT
  5
C2B
330
0
100
AcDbProxyObject
 90
      499
 91
      569
 93
      132
310
00010142D05050555513D4D3D31591501A
330
B8C
 94
        0
1001
ACAD
1000
AcadProxyRoundTripData
1071
      510
1071
   655383
1070
     0
  0
ACAD_PROXY_OBJECT
  5
C2C
330
0
100
AcDbProxyObject
 90
      499
 91
      569
 93
      156
310
00010143905050555513D054D4D1535093115010
330
B8C
 94
        0
1001
ACAD
1000
AcadProxyRoundTripData
1071
      510
1071
   655383
1070
     0
  0
ACAD_PROXY_OBJECT
  5
C2D
330
0
100
AcDbProxyObject
 90
      499
 91
      569
 93
      148
310
00010143505055925155D49154D513D4915010
330
B8C
 94
        0
1001
ACAD
1000
AcadProxyRoundTripData
1071
      510
1071
   655383
1070
     0
  0
ACAD_PROXY_OBJECT
  5
C2E
330
0
100
AcDbProxyObject
 90
      499
 91
      569
 93
      124
310
00010142D050525394D15495105094E4
330
B8C
 94
        0
1001
ACAD
1000
AcadProxyRoundTripData
1071
      510
1071
   655383
1070
     0
  0
ACAD_PROXY_OBJECT
  5
C2F
330
0
100
AcDbProxyObject
 90
      499
 91
      569
 93
      148
310
00010143505054D0D153915554111055115010
330
B8C
 94
        0
1001
ACAD
1000
AcadProxyRoundTripData
1071
      510
1071
   655383
1070
     0
  0
ACAD_PROXY_OBJECT
  5
C30
330
0
100
AcDbProxyObject
 90
      499
 91
      569
 93
      172
310
00010143105054D5509054D4D3541196005035355422
330
B8C
 94
        0
1001
ACAD
1000
AcadProxyRoundTripData
1071
      531
1071
   655383
1070
     0
  0
ACAD_PROXY_OBJECT
  5
C31
330
0
100
AcDbProxyObject
 90
      499
 91
      569
 93
      172
310
00010142905054D0D15391541196005055343454E452
330
B8C
 94
        0
1001
ACAD
1000
AcadProxyRoundTripData
1071
      531
1071
   655383
1070
     0
  0
ACAD_PROXY_OBJECT
  5
C32
330
0
100
AcDbProxyObject
 90
      499
 91
      569
 93
      148
310
00010143505350555513D313D0D2D4D0D39014
330
B8C
 94
        0
1001
ACAD
1000
AcadProxyRoundTripData
1071
      510
1071
   655383
1070
     0
  0
ACAD_PROXY_OBJECT
  5
C37
330
0
100
AcDbProxyObject
 90
      499
 91
      569
 93
       32
310
00010000F2
330
B8C
340
C34
330
C39
330
C34
 94
        0
1001
ACAD
1000
AcadProxyRoundTripData
1071
      551
1071
   655383
1070
     0
  0
ACAD_PROXY_OBJECT
  5
C38
330
0
100
AcDbProxyObject
 90
      499
 91
      569
 93
       18
310
000188
330
B8C
 94
        0
1001
ACAD
1000
AcadProxyRoundTripData
1071
      552
1071
   655383
1070
     0
  0
ACAD_PROXY_OBJECT
  5
C39
330
0
100
AcDbProxyObject
 90
      499
 91
      569
 93
      111
310
000101415254CD50D11050055400
330
B8C
330
C37
330
C38
 94
        0
1001
ACAD
1000
AcadProxyRoundTripData
1071
      553
1071
   655383
1070
     0
  0
ACAD_PROXY_OBJECT
  5
C3A
330
0
100
AcDbProxyObject
 90
      499
 91
      569
 93
       40
310
000100AAAA00
330
B8C
330
C39
 94
        0
1001
ACAD
1000
AcadProxyRoundTripData
1071
      554
1071
   655383
1070
     0
  0
ACAD_PROXY_OBJECT
  5
C3B
330
0
100
AcDbProxyObject
 90
      499
 91
      569
 93
      108
310
0001901422000000000000AAAAA0
330
B8C
330
C3C
330
C3C
330
C3C
330
C3C
330
C3C
330
0
 94
        0
1001
ACAD
1000
AcadProxyRoundTripData
1071
      555
1071
   655383
1070
     0
  0
ACAD_PROXY_OBJECT
  5
C3C
330
0
100
AcDbProxyObject
 90
      499
 91
      569
 93
       51
310
00010000AAAA80
330
B8C
330
C3B
330
C39
 94
        0
1001
ACAD
1000
AcadProxyRoundTripData
1071
      556
1071
   655383
1070
     0
  0
ACAD_PROXY_OBJECT
  5
C4C
330
0
100
AcDbProxyObject
 90
      499
 91
      569
 93
      148
310
00010142105350D55494D51100504414E53494
330
B8C
 94
        0
1001
ACAD
1000
AcadProxyRoundTripData
1071
      531
1071
   655383
1070
     0
  0
ACAD_PROXY_OBJECT
  5
D15
330
0
100
AcDbProxyObject
 90
      499
 91
      569
 93
       28
310
00014060
330
B8C
 94
        0
1001
ACAD
1000
AcadProxyRoundTripData
1071
      566
1071
   655383
1070
     0
  0
DICTIONARY
  5
B84
102
{ACAD_REACTORS
330
B83
102
}
330
B83
100
AcDbDictionary
  3
DWGSETTINGS
350
B85
  0
ACAD_PROXY_OBJECT
  5
C4A
102
{ACAD_REACTORS
330
B83
102
}
330
B83
100
AcDbProxyObject
 90
      499
 91
      569
 93
    12938
310
41102491013041105357CC1074CA404C504414D5F31439329013241105357CC9054CA404CD04414D5F33419199013441105357CD103466404D504414D5F3540D199013641105357CD90248E404DD04414D5F37411199013841105357CE101466404E504414D5F397F641102324141505357CC4C1074CA408D10505414D5F31
310
3140D19902495041505357CC4C9074C902408C13905414D5F304E41D32902314E41505357CC5390E4CA408C93905414D5F324E41532902334E41505357CCD3906466408D13905414D5F344E40D19902354E41505357CD53903466408D93905414D5F364E40923902374E41505357CDD3904466408E13905414D5F384E40519
310
902394E41505357CE539FD90440CC9053906414D5F31304E41D3290334414E41905357CC4C5390346640D25413906414D5F31324E41D32409044B4C494E41505357D0D3101465094112539193D08414D5F50415245464111942D055241484D3541905357D093D49074C9094115925155D08414D5F56494557534051942D064
310
24548494E4441905357D253959FD90D415514905253105414D5F545240D194250348494441905357D212511074650940D59254D06414D5F56495341D324250650415244494D42505357D410549112535034650941949151911253509414D5F52454644494D4111942553411092139590139CFFFFFFFF415092139594D06424
310
548494E44CFFFFFFFF411093D48C9055241484D3540519411093D48CD055241484D3540923411093D48D5055241484D35CFFFFFFFF4110D0530C90134CFFFFFFFF4110D0530CD0134409234110D0530D5013441D324110D0530DD0134479464110D1539390137CFFFFFFFF4110D15395D0137CFFFFFFFF4110D312539044B4
310
C494ECFFFFFFFF4110D3D38C50130CFFFFFFFF4110D3D38C90131CFFFFFFFF4110D3D38CD0132CFFFFFFFF4110D3D38D10132CFFFFFFFF411111551050134CFFFFFFFF4111125051D0135CFFFFFFFF411112531250135CFFFFFFFF411112535410650415244494DCFFFFFFFF411112535490652454644494DCFFFFFFFF4111
310
91535390138CFFFFFFFF4151915354139013840CFFFFFFFF4151915354D41023441CFFFFFFFF4151915354D5102344140D1941519153559390132CFFFFFFFF4151915355951013240D194112105510D0138CFFFFFFFF411212511390133CFFFFFFFF4112125115D0133CFFFFFFFF411213125390134CFFFFFFFF411213D0D3
310
90137CFFFFFFFF411213D0D5D0137CFFFFFFFF4112539193D04494E464FCFFFFFFFF411311505110135CFFFFFFFF419397D0921395902394ECFFFFFFFF419397D0D3D38C502304ECFFFFFFFF419397D0D3D38C902314ECFFFFFFFF419397D0D3D38CD02324ECFFFFFFFF419397D0D3D38D102324ECFFFFFFFF419397D0D153
310
93902374ECFFFFFFFF419397D0D15395D02374ECFFFFFFFF419397D1125312502354ECFFFFFFFF419397D2105510D02384ECFFFFFFFF419397D2125113902334ECFFFFFFFF419397D2125115D02334ECFFFFFFFF419397D3115051102354ECFFFFFFFF419397D391D25410349504ECFFFFFFFF419397D412105390334414EC
310
FFFFFFFF419397D510D3D3902304ECFFFFFFFF419397D5121312502344ECFFFFFFFF419397D5131153902304ECFFFFFFFF419397D594131250332414ECFFFFFFFF411391D2541024950CFFFFFFFF411410530C9055241484D3540519411410530CD055241484D3540923411410530D5055241484D35CFFFFFFFF4114121053
310
9023441CFFFFFFFF411413D4D390135CFFFFFFFF411490D1D390137CFFFFFFFF411490D1D5D0137CFFFFFFFF4114D09492D0134CFFFFFFFF4114D150D510134CFFFFFFFF4114D6508CD013540923411354D6535013540923411510D3D390130CFFFFFFFF411512131250134CFFFFFFFF411512550C9055241484D354051941
310
1512550CD055241484D3540923411512550D5055241484D35CFFFFFFFF411513115390130CFFFFFFFF415514905253105545241494CCFFFFFFFF411514931250134CFFFFFFFF411516150C5013640D19411516150C9013640D19411516150CD0136CFFFFFFFF411516150D5013641D32411516150DD0136479464115925155
310
D0456494557CFFFFFFFF4115915112103484944CFFFFFFFF4115915115903564953CFFFFFFFF41159413125023241CFFFFFFFF411692569050134CFFFFFFFFAA9FD404FE4290E4C9074C906465054C904465034650248D014651E519FDBF
340
448
340
448
340
448
340
C4D
340
448
340
448
340
448
340
C4E
340
448
340
448
340
C4E
340
C4F
340
448
340
448
340
448
340
448
340
C4D
340
448
340
448
340
448
340
C4E
340
448
340
448
340
C4E
340
C4F
340
448
340
C50
340
448
340
448
340
448
340
448
340
448
340
C4D
340
448
340
448
340
448
340
447
340
447
340
447
340
447
340
447
340
447
340
447
340
447
340
447
340
C51
340
447
340
447
340
447
340
447
340
447
340
447
340
447
340
447
340
447
340
447
340
447
340
447
340
447
340
448
340
447
340
447
340
447
340
447
340
C52
340
447
340
447
340
C51
340
447
340
447
340
447
340
447
340
447
340
447
340
447
340
447
340
C51
340
447
340
447
340
447
340
C52
340
447
340
447
340
447
340
447
340
447
340
447
340
447
340
447
340
447
340
447
340
447
340
447
340
447
340
447
340
C51
340
447
340
447
340
447
340
447
340
447
340
447
340
447
340
447
340
447
340
447
340
447
340
447
340
447
340
447
340
447
340
447
340
447
340
447
340
447
340
447
340
447
340
447
340
C55
 94
        0
1001
ACAD
1000
AcadProxyRoundTripData
1071
      564
1071
   655383
1070
     0
  0
ACAD_PROXY_OBJECT
  5
C5C
102
{ACAD_REACTORS
330
C57
102
}
330
C57
100
AcDbProxyObject
 90
      499
 91
      569
 93
      253
310
43D1444494D454E53494F4E2C414D44545F2A5F44494D404A9012A404A9012AC
 94
        0
1001
ACAD
1000
AcadProxyRoundTripData
1071
      565
1071
   655383
1070
     0
  0
ACAD_PROXY_OBJECT
  5
C5B
102
{ACAD_REACTORS
330
C57
102
}
330
C57
100
AcDbProxyObject
 90
      499
 91
      569
 93
      181
310
43D012A42D05357D191504B505357CA9012A404A9012AC
 94
        0
1001
ACAD
1000
AcadProxyRoundTripData
1071
      565
1071
   655383
1070
     0
  0
ACAD_PROXY_OBJECT
  5
C58
102
{ACAD_REACTORS
330
C57
102
}
330
C57
100
AcDbProxyObject
 90
      499
 91
      569
 93
      133
310
43D054841544348404A9012A404A9012AD
 94
        0
1001
ACAD
1000
AcadProxyRoundTripData
1071
      565
1071
   655383
1070
     0
  0
ACAD_PROXY_OBJECT
  5
C59
102
{ACAD_REACTORS
330
C57
102
}
330
C57
100
AcDbProxyObject
 90
      499
 91
      569
 93
      549
310
43D044C494E4549CE0B0E138B0A8B4E0B0A8B4E138B105357CE0B105357CE138B0A8B505357CE0B0A8B505357CE139012A404A910494E534552542C5354445041525432449
 94
        0
1001
ACAD
1000
AcadProxyRoundTripData
1071
      565
1071
   655383
1070
     0
  0
ACAD_PROXY_OBJECT
  5
C5D
102
{ACAD_REACTORS
330
C57
102
}
330
C57
100
AcDbProxyObject
 90
      499
 91
      569
 93
      181
310
43D0341524341105357CD5012A404C906494E534552544
 94
        0
1001
ACAD
1000
AcadProxyRoundTripData
1071
      565
1071
   655383
1070
     0
  0
ACAD_PROXY_OBJECT
  5
C5A
102
{ACAD_REACTORS
330
C57
102
}
330
C57
100
AcDbProxyObject
 90
      499
 91
      569
 93
      909
310
43D6641434D46434652414D452C41434D444154554D5441524745542C41434D444154554D49442C41434D57454C4453594D2C41434D5355524653594D2C41434D4645415449442C41434D504152545245462C41434D42414C4C4F4F4E2C414D44544544474553594D404A9012A404A9012AC
 94
        0
1001
ACAD
1000
AcadProxyRoundTripData
1071
      565
1071
   655383
1070
     0
  0
LAYER_INDEX
  5
D18
102
{ACAD_REACTORS
330
D17
102
}
330
D17
100
AcDbIndex
 40
2452741.570905694
100
AcDbLayerIndex
  8
0
360
D19
 90
        1
  8
DRG
360
D1A
 90
      201
  8
CRS
360
D1B
 90
       36
  8
HID
360
D1C
 90
       67
  8
BORT
360
D1D
 90
       34
  8
TXT
360
D1E
 90
       83
  8
DIM
360
D1F
 90
      182
  8
DRG2
360
D20
 90
      100
  8
DEFPOINTS
360
D21
 90
        0
  0
ACAD_PROXY_OBJECT
  5
C40
102
{ACAD_REACTORS
330
C3F
102
}
330
C3F
100
AcDbProxyObject
 90
      499
 91
      569
 93
      139
310
057356C1D51406406AA8FFFFFFFF0A8A4050
330
451
330
0
330
0
 94
        0
1001
ACAD
1000
AcadProxyRoundTripData
1071
      558
1071
   655383
1070
     0
  0
ACAD_PROXY_OBJECT
  5
B85
102
{ACAD_REACTORS
330
B84
102
}
330
B84
100
AcDbProxyObject
 90
      499
 91
      569
 93
     2249
310
4050B44574753455454494E4753A1286829C8E82A4A482B282A106660F8686AF86C608321A2A720A723A0A849A1ABE1C983E18999AA0C868A9C889282940000000000001C07E83A1A2A72224A0A9A0A8598171ABE1897183E18971AA0E868A9C8892A6A8940000000000001807E8321A2A72622A7250000000000000701FA0
310
C868A9C9E8C8C940000000000001C07E84A1A624A720A92920ACA0A87181718991ABE1817191ABE18171AA108698929C8AA8B2A082A0AB098929C8A84A22BA3AAA9A1A0A622A50A0E9882A6A89E849482A02608426A0A5A2AB24A2ABA7E8120CA48AAC92A69282A026082A9A1A0A622A0A81989D18A12A8929A8AA6A8829AA
310
0941DD2F0CE27834E682883DA22BA3A9A2AA2A24A723A9A2A7223EFF
 94
        0
1001
ACAD
1000
AcadProxyRoundTripData
1071
      504
1071
   655383
1070
     0
  0
IDBUFFER
  5
D19
330
0
100
AcDbIdBuffer
330
D14
  0
IDBUFFER
  5
D1A
330
0
100
AcDbIdBuffer
330
364
330
368
330
369
330
36A
330
36B
330
36F
330
373
330
374
330
375
330
376
330
386
330
387
330
388
330
389
330
38A
330
38B
330
38C
330
38D
330
38E
330
38F
330
782
330
7CA
330
7D0
330
7D6
330
7D7
330
7D8
330
7D9
330
7EC
330
7ED
330
7EE
330
849
330
87E
330
87F
330
880
330
881
330
882
330
883
330
9AA
330
9AC
330
9AD
330
9AE
330
9BC
330
9BD
330
9BE
330
9BF
330
9C0
330
9C1
330
9C2
330
9C3
330
9C4
330
9C5
330
9C6
330
9C7
330
9C8
330
9C9
330
9CA
330
9CB
330
9CC
330
9CD
330
9CE
330
9CF
330
9D0
330
9D1
330
9D2
330
9D3
330
9D8
330
9D9
330
9DA
330
9DB
330
9DC
330
9DD
330
9DE
330
9DF
330
9E0
330
9ED
330
9EE
330
9EF
330
9F0
330
9F1
330
9F2
330
9F3
330
9F4
330
9F5
330
9F6
330
9F7
330
9FA
330
9FC
330
A69
330
A6A
330
74
330
75
330
76
330
78
330
79
330
7A
330
91
330
92
330
93
330
A4
330
A5
330
A6
330
CB
330
CF
330
D0
330
D1
330
D4
330
D5
330
D6
330
D7
330
DD
330
DE
330
DF
330
E0
330
FE
330
112
330
113
330
114
330
115
330
116
330
117
330
118
330
119
330
11A
330
11B
330
1BC
330
1BD
330
1C1
330
1C3
330
1C7
330
1F1
330
1F2
330
1F3
330
1F4
330
20B
330
20C
330
20D
330
20E
330
20F
330
210
330
211
330
212
330
213
330
214
330
215
330
216
330
217
330
218
330
219
330
21A
330
21D
330
21E
330
21F
330
220
330
221
330
222
330
223
330
224
330
225
330
226
330
227
330
228
330
229
330
22A
330
22B
330
22C
330
22D
330
22E
330
22F
330
230
330
231
330
232
330
233
330
234
330
235
330
236
330
237
330
238
330
239
330
23A
330
23B
330
23C
330
23D
330
23E
330
23F
330
240
330
241
330
283
330
2EC
330
313
330
355
330
356
330
357
330
358
330
35A
330
35B
330
35C
330
35D
330
35E
330
360
330
361
330
362
  0
IDBUFFER
  5
D1B
330
0
100
AcDbIdBuffer
330
199
330
1A8
330
1AD
330
1C8
330
1D7
330
1E5
330
1F9
330
1FA
330
21B
330
21C
330
314
330
315
330
316
330
317
330
318
330
319
330
359
330
372
330
377
330
87D
330
CA
330
DB
330
E6
330
126
330
12B
330
130
330
135
330
144
330
149
330
158
330
15D
330
16C
330
171
330
180
330
185
330
194
  0
IDBUFFER
  5
D1C
330
0
100
AcDbIdBuffer
330
26A
330
26B
330
26C
330
26D
330
26E
330
26F
330
270
330
271
330
363
330
365
330
366
330
367
330
36C
330
36D
330
36E
330
370
330
371
330
378
330
379
330
107
330
108
330
109
330
10A
330
1BE
330
1BF
330
1C0
330
1C2
330
1C4
330
1C5
330
1C6
330
20A
330
243
330
244
330
245
330
246
330
247
330
248
330
249
330
24A
330
24B
330
24C
330
24D
330
24E
330
250
330
251
330
252
330
253
330
254
330
255
330
256
330
257
330
258
330
259
330
25A
330
25C
330
25D
330
25E
330
25F
330
260
330
261
330
263
330
264
330
265
330
266
330
267
330
268
330
269
  0
IDBUFFER
  5
D1D
330
0
100
AcDbIdBuffer
330
5A
330
5B
330
5C
330
5D
330
5E
330
5F
330
60
330
61
330
62
330
66
330
6A
330
6B
330
6F
330
30B
330
30F
330
9A6
330
9A7
330
9A8
330
33
330
37
330
3B
330
3F
330
4A
330
4B
330
4C
330
4D
330
4E
330
4F
330
50
330
51
330
52
330
53
330
58
330
59
  0
IDBUFFER
  5
D1E
330
0
100
AcDbIdBuffer
330
3D1
330
3D2
330
3D3
330
3D4
330
3D5
330
3D6
330
3D7
330
3D8
330
3D9
330
3DA
330
3DB
330
3DC
330
3DD
330
3DE
330
3DF
330
3E3
330
3E4
330
3E5
330
3E6
330
3E7
330
3E8
330
3E9
330
3EA
330
3EB
330
3EC
330
3ED
330
3EE
330
3EF
330
3F0
330
3F1
330
3F2
330
3F3
330
3F4
330
3F5
330
3F6
330
2F2
330
2F4
330
2F5
330
2F6
330
2F8
330
2F9
330
2FB
330
2FC
330
2FD
330
2FF
330
300
330
301
330
303
330
304
330
305
330
33E
330
33F
330
340
330
341
330
342
330
347
330
348
330
34A
330
34B
330
34C
330
34D
330
34E
330
351
330
3B1
330
3B5
330
3BA
330
3BB
330
3BC
330
3BD
330
3C0
330
3C1
330
3C2
330
3C3
330
3C5
330
3C6
330
3C7
330
3C9
330
3CB
330
3CC
330
3CD
330
3CE
330
3CF
330
3D0
  0
IDBUFFER
  5
D1F
330
0
100
AcDbIdBuffer
330
337
330
338
330
339
330
33A
330
33B
330
37A
330
37B
330
37C
330
37D
330
37E
330
37F
330
380
330
381
330
382
330
383
330
384
330
390
330
391
330
392
330
393
330
394
330
395
330
396
330
397
330
398
330
399
330
39A
330
39B
330
39C
330
39D
330
39E
330
39F
330
3A0
330
3A1
330
3F7
330
3F8
330
3F9
330
3FA
330
3FB
330
3FC
330
3FD
330
3FE
330
799
330
79A
330
88C
330
88D
330
88E
330
88F
330
935
330
9A9
330
9AF
330
9B9
330
9BA
330
9BB
330
9D4
330
9D7
330
9E7
330
9E8
330
9E9
330
9EA
330
9EB
330
9EC
330
A87
330
A88
330
AC8
330
B12
330
B44
330
B45
330
B64
330
B65
330
7F
330
80
330
81
330
82
330
83
330
84
330
8A
330
8B
330
8C
330
8D
330
8E
330
8F
330
90
330
94
330
95
330
96
330
97
330
98
330
99
330
9F
330
A0
330
A1
330
A2
330
A3
330
A7
330
A8
330
A9
330
AA
330
AB
330
AC
330
AD
330
AE
330
AF
330
B0
330
B1
330
B3
330
B4
330
B5
330
B6
330
B7
330
B8
330
B9
330
BA
330
BB
330
BC
330
BD
330
BE
330
BF
330
C0
330
C1
330
C2
330
C3
330
C4
330
C5
330
C6
330
C7
330
C8
330
C9
330
101
330
102
330
103
330
104
330
105
330
106
330
1E6
330
1E7
330
1E8
330
1E9
330
1F5
330
1F6
330
1F7
330
1F8
330
242
330
24F
330
25B
330
262
330
272
330
273
330
274
330
275
330
276
330
277
330
278
330
279
330
27C
330
27D
330
27E
330
27F
330
280
330
281
330
282
330
284
330
285
330
287
330
288
330
2ED
330
323
330
324
330
325
330
326
330
327
330
328
330
329
330
32A
330
32B
330
32C
330
32D
330
32E
330
32F
330
332
330
333
330
335
  0
IDBUFFER
  5
D20
330
0
100
AcDbIdBuffer
330
2F7
330
2FA
330
2FE
330
302
330
306
330
31A
330
31B
330
31C
330
31D
330
31E
330
31F
330
320
330
321
330
33C
330
33D
330
343
330
344
330
345
330
346
330
349
330
34F
330
350
330
35F
330
3B2
330
3B3
330
3B4
330
3B6
330
3B7
330
3B8
330
3B9
330
3BE
330
3BF
330
3C4
330
3C8
330
3CA
330
3E0
330
3E1
330
3E2
330
9B0
330
9B1
330
9B2
330
9B3
330
9B4
330
9B5
330
9B6
330
9B7
330
9B8
330
9E1
330
9E2
330
9E3
330
9E4
330
9E5
330
77
330
11C
330
11D
330
11E
330
13A
330
13B
330
13C
330
14E
330
14F
330
150
330
162
330
163
330
164
330
176
330
177
330
178
330
18A
330
18B
330
18C
330
19E
330
19F
330
1A0
330
1B2
330
1B3
330
1B4
330
1D3
330
1D8
330
1D9
330
1DA
330
1DB
330
1DC
330
2D9
330
2DA
330
2DB
330
2DC
330
2DD
330
2DE
330
2E5
330
2E6
330
2E7
330
2E8
330
2E9
330
2EA
330
2EE
330
2EF
330
2F0
330
2F1
330
2F3
  0
IDBUFFER
  5
D21
330
0
100
AcDbIdBuffer
  0
ENDSEC
  0
EOF
